  0
SECTION
  2
HEADER
  9
$ACADVER
  1
AC1015
  9
$ACADMAINTVER
 70
     6
  9
$DWGCODEPAGE
  3
ANSI_1252
  9
$INSBASE
 10
0.0
 20
0.0
 30
0.0
  9
$EXTMIN
 10
1051.176181315137
 20
-718.5529434758257
 30
0.0
  9
$EXTMAX
 10
1635.176181315137
 20
-308.5529434758257
 30
0.0
  9
$LIMMIN
 10
0.0
 20
0.0
  9
$LIMMAX
 10
12.0
 20
9.0
  9
$ORTHOMODE
 70
     0
  9
$REGENMODE
 70
     1
  9
$FILLMODE
 70
     1
  9
$QTEXTMODE
 70
     0
  9
$MIRRTEXT
 70
     1
  9
$LTSCALE
 40
1.0
  9
$ATTMODE
 70
     1
  9
$TEXTSIZE
 40
0.2
  9
$TRACEWID
 40
0.05
  9
$TEXTSTYLE
  7
Standard
  9
$CLAYER
  8
0
  9
$CELTYPE
  6
ByLayer
  9
$CECOLOR
 62
   256
  9
$CELTSCALE
 40
1.0
  9
$DISPSILH
 70
     0
  9
$DIMSCALE
 40
1.0
  9
$DIMASZ
 40
0.18
  9
$DIMEXO
 40
0.0625
  9
$DIMDLI
 40
0.38
  9
$DIMRND
 40
0.0
  9
$DIMDLE
 40
0.0
  9
$DIMEXE
 40
0.18
  9
$DIMTP
 40
0.0
  9
$DIMTM
 40
0.0
  9
$DIMTXT
 40
0.18
  9
$DIMCEN
 40
0.09
  9
$DIMTSZ
 40
0.0
  9
$DIMTOL
 70
     0
  9
$DIMLIM
 70
     0
  9
$DIMTIH
 70
     1
  9
$DIMTOH
 70
     1
  9
$DIMSE1
 70
     0
  9
$DIMSE2
 70
     0
  9
$DIMTAD
 70
     0
  9
$DIMZIN
 70
     0
  9
$DIMBLK
  1

  9
$DIMASO
 70
     1
  9
$DIMSHO
 70
     1
  9
$DIMPOST
  1

  9
$DIMAPOST
  1

  9
$DIMALT
 70
     0
  9
$DIMALTD
 70
     2
  9
$DIMALTF
 40
25.4
  9
$DIMLFAC
 40
1.0
  9
$DIMTOFL
 70
     0
  9
$DIMTVP
 40
0.0
  9
$DIMTIX
 70
     0
  9
$DIMSOXD
 70
     0
  9
$DIMSAH
 70
     0
  9
$DIMBLK1
  1

  9
$DIMBLK2
  1

  9
$DIMSTYLE
  2
Standard
  9
$DIMCLRD
 70
     0
  9
$DIMCLRE
 70
     0
  9
$DIMCLRT
 70
     0
  9
$DIMTFAC
 40
1.0
  9
$DIMGAP
 40
0.09
  9
$DIMJUST
 70
     0
  9
$DIMSD1
 70
     0
  9
$DIMSD2
 70
     0
  9
$DIMTOLJ
 70
     1
  9
$DIMTZIN
 70
     0
  9
$DIMALTZ
 70
     0
  9
$DIMALTTZ
 70
     0
  9
$DIMUPT
 70
     0
  9
$DIMDEC
 70
     4
  9
$DIMTDEC
 70
     4
  9
$DIMALTU
 70
     2
  9
$DIMALTTD
 70
     2
  9
$DIMTXSTY
  7
Standard
  9
$DIMAUNIT
 70
     0
  9
$DIMADEC
 70
     0
  9
$DIMALTRND
 40
0.0
  9
$DIMAZIN
 70
     0
  9
$DIMDSEP
 70
    46
  9
$DIMATFIT
 70
     3
  9
$DIMFRAC
 70
     0
  9
$DIMLDRBLK
  1

  9
$DIMLUNIT
 70
     2
  9
$DIMLWD
 70
    -2
  9
$DIMLWE
 70
    -2
  9
$DIMTMOVE
 70
     0
  9
$LUNITS
 70
     2
  9
$LUPREC
 70
     4
  9
$SKETCHINC
 40
0.1
  9
$FILLETRAD
 40
0.5
  9
$AUNITS
 70
     0
  9
$AUPREC
 70
     0
  9
$MENU
  1
.
  9
$ELEVATION
 40
0.0
  9
$PELEVATION
 40
0.0
  9
$THICKNESS
 40
0.0
  9
$LIMCHECK
 70
     0
  9
$CHAMFERA
 40
0.5
  9
$CHAMFERB
 40
0.5
  9
$CHAMFERC
 40
1.0
  9
$CHAMFERD
 40
0.0
  9
$SKPOLY
 70
     0
  9
$TDCREATE
 40
2454326.488008264
  9
$TDUCREATE
 40
2454326.40467493
  9
$TDUPDATE
 40
2454326.488008276
  9
$TDUUPDATE
 40
2454326.404674942
  9
$TDINDWG
 40
0.0000000116
  9
$TDUSRTIMER
 40
0.0000000116
  9
$USRTIMER
 70
     1
  9
$ANGBASE
 50
0.0
  9
$ANGDIR
 70
     0
  9
$PDMODE
 70
     0
  9
$PDSIZE
 40
0.0
  9
$PLINEWID
 40
0.0
  9
$SPLFRAME
 70
     0
  9
$SPLINETYPE
 70
     6
  9
$SPLINESEGS
 70
     8
  9
$HANDSEED
  5
5FE
  9
$SURFTAB1
 70
     6
  9
$SURFTAB2
 70
     6
  9
$SURFTYPE
 70
     6
  9
$SURFU
 70
     6
  9
$SURFV
 70
     6
  9
$UCSBASE
  2

  9
$UCSNAME
  2

  9
$UCSORG
 10
0.0
 20
0.0
 30
0.0
  9
$UCSXDIR
 10
1.0
 20
0.0
 30
0.0
  9
$UCSYDIR
 10
0.0
 20
1.0
 30
0.0
  9
$UCSORTHOREF
  2

  9
$UCSORTHOVIEW
 70
     0
  9
$UCSORGTOP
 10
0.0
 20
0.0
 30
0.0
  9
$UCSORGBOTTOM
 10
0.0
 20
0.0
 30
0.0
  9
$UCSORGLEFT
 10
0.0
 20
0.0
 30
0.0
  9
$UCSORGRIGHT
 10
0.0
 20
0.0
 30
0.0
  9
$UCSORGFRONT
 10
0.0
 20
0.0
 30
0.0
  9
$UCSORGBACK
 10
0.0
 20
0.0
 30
0.0
  9
$PUCSBASE
  2

  9
$PUCSNAME
  2

  9
$PUCSORG
 10
0.0
 20
0.0
 30
0.0
  9
$PUCSXDIR
 10
1.0
 20
0.0
 30
0.0
  9
$PUCSYDIR
 10
0.0
 20
1.0
 30
0.0
  9
$PUCSORTHOREF
  2

  9
$PUCSORTHOVIEW
 70
     0
  9
$PUCSORGTOP
 10
0.0
 20
0.0
 30
0.0
  9
$PUCSORGBOTTOM
 10
0.0
 20
0.0
 30
0.0
  9
$PUCSORGLEFT
 10
0.0
 20
0.0
 30
0.0
  9
$PUCSORGRIGHT
 10
0.0
 20
0.0
 30
0.0
  9
$PUCSORGFRONT
 10
0.0
 20
0.0
 30
0.0
  9
$PUCSORGBACK
 10
0.0
 20
0.0
 30
0.0
  9
$USERI1
 70
     0
  9
$USERI2
 70
     0
  9
$USERI3
 70
     0
  9
$USERI4
 70
     0
  9
$USERI5
 70
     0
  9
$USERR1
 40
14.5
  9
$USERR2
 40
0.0
  9
$USERR3
 40
0.0
  9
$USERR4
 40
0.0
  9
$USERR5
 40
0.0
  9
$WORLDVIEW
 70
     1
  9
$SHADEDGE
 70
     3
  9
$SHADEDIF
 70
    70
  9
$TILEMODE
 70
     1
  9
$MAXACTVP
 70
    64
  9
$PINSBASE
 10
0.0
 20
0.0
 30
0.0
  9
$PLIMCHECK
 70
     0
  9
$PEXTMIN
 10
1.00000000000000E+20
 20
1.00000000000000E+20
 30
1.00000000000000E+20
  9
$PEXTMAX
 10
-1.00000000000000E+20
 20
-1.00000000000000E+20
 30
-1.00000000000000E+20
  9
$PLIMMIN
 10
0.0
 20
0.0
  9
$PLIMMAX
 10
12.0
 20
9.0
  9
$UNITMODE
 70
     0
  9
$VISRETAIN
 70
     1
  9
$PLINEGEN
 70
     0
  9
$PSLTSCALE
 70
     1
  9
$TREEDEPTH
 70
  3020
  9
$CMLSTYLE
  2
Standard
  9
$CMLJUST
 70
     0
  9
$CMLSCALE
 40
1.0
  9
$PROXYGRAPHICS
 70
     1
  9
$MEASUREMENT
 70
     1
  9
$CELWEIGHT
370
    -1
  9
$ENDCAPS
280
     0
  9
$JOINSTYLE
280
     0
  9
$LWDISPLAY
290
     0
  9
$INSUNITS
 70
     1
  9
$HYPERLINKBASE
  1

  9
$STYLESHEET
  1

  9
$XEDIT
290
     1
  9
$CEPSNTYPE
380
     0
  9
$PSTYLEMODE
290
     1
  9
$FINGERPRINTGUID
  2
{25EAF4F9-BFAC-48D0-899F-F39E8D60FB5F}
  9
$VERSIONGUID
  2
{FAEB1C32-E019-11D5-929B-00C0DF256EC4}
  9
$EXTNAMES
290
     1
  9
$PSVPSCALE
 40
0.0
  9
$OLESTARTUP
290
     0
  0
ENDSEC
  0
SECTION
  2
CLASSES
  0
CLASS
  1
ACDBDICTIONARYWDFLT
  2
AcDbDictionaryWithDefault
  3
ObjectDBX Classes
 90
        0
280
     0
281
     0
  0
CLASS
  1

  2
exOdDbCircle
  3

 90
        0
280
     0
281
     1
  0
CLASS
  1

  2
exOdDbSpline
  3

 90
        0
280
     0
281
     1
  0
CLASS
  1

  2
exOdDbPolyline
  3

 90
        0
280
     0
281
     1
  0
CLASS
  1
ACDBPLACEHOLDER
  2
AcDbPlaceHolder
  3
ObjectDBX Classes
 90
        0
280
     0
281
     0
  0
CLASS
  1
LAYOUT
  2
AcDbLayout
  3
ObjectDBX Classes
 90
        0
280
     0
281
     0
  0
ENDSEC
  0
SECTION
  2
TABLES
  0
TABLE
  2
VPORT
  5
8
330
0
100
AcDbSymbolTable
 70
     1
  0
VPORT
  5
29
330
8
100
AcDbSymbolTableRecord
100
AcDbViewportTableRecord
  2
*Active
 70
     0
 10
0.0
 20
0.0
 11
1.0
 21
1.0
 12
1343.176181315137
 22
-513.5529434758257
 13
0.0
 23
0.0
 14
0.5
 24
0.5
 15
0.5
 25
0.5
 16
0.0
 26
0.0
 36
1.0
 17
0.0
 27
0.0
 37
0.0
 40
451.0000000000001
 41
1.60267857142857
 42
50.0
 43
0.0
 44
0.0
 50
0.0
 51
0.0
 71
     0
 72
   100
 73
     1
 74
     3
 75
     0
 76
     0
 77
     0
 78
     0
281
     0
 65
     1
110
0.0
120
0.0
130
0.0
111
1.0
121
0.0
131
0.0
112
0.0
122
1.0
132
0.0
 79
     0
146
0.0
  0
ENDTAB
  0
TABLE
  2
LTYPE
  5
5
330
0
100
AcDbSymbolTable
 70
     8
  0
LTYPE
  5
14
330
5
100
AcDbSymbolTableRecord
100
AcDbLinetypeTableRecord
  2
ByBlock
 70
     0
  3

 72
    65
 73
     0
 40
0.0
  0
LTYPE
  5
15
330
5
100
AcDbSymbolTableRecord
100
AcDbLinetypeTableRecord
  2
ByLayer
 70
     0
  3

 72
    65
 73
     0
 40
0.0
  0
LTYPE
  5
16
330
5
100
AcDbSymbolTableRecord
100
AcDbLinetypeTableRecord
  2
Continuous
 70
     0
  3
Solid line
 72
    65
 73
     0
 40
0.0
  0
LTYPE
  5
2A
330
5
100
AcDbSymbolTableRecord
100
AcDbLinetypeTableRecord
  2
DASHED
 70
     0
  3
Dashed
 72
    65
 73
     2
 40
15.0
 49
7.0
 74
     0
 49
-8.0
 74
     0
  0
LTYPE
  5
2B
330
5
100
AcDbSymbolTableRecord
100
AcDbLinetypeTableRecord
  2
DOTTED
 70
     0
  3
Dotted
 72
    65
 73
     2
 40
1.0
 49
0.0
 74
     0
 49
-1.0
 74
     0
  0
LTYPE
  5
2C
330
5
100
AcDbSymbolTableRecord
100
AcDbLinetypeTableRecord
  2
DOT_CENTER
 70
     0
  3
Dot_Center
 72
    65
 73
     4
 40
14.0
 49
12.0
 74
     0
 49
-1.0
 74
     0
 49
0.0
 74
     0
 49
-1.0
 74
     0
  0
LTYPE
  5
2D
330
5
100
AcDbSymbolTableRecord
100
AcDbLinetypeTableRecord
  2
LONG_DASHED
 70
     0
  3
Long_Dashed
 72
    65
 73
     2
 40
15.0
 49
10.0
 74
     0
 49
-5.0
 74
     0
  0
LTYPE
  5
2E
330
5
100
AcDbSymbolTableRecord
100
AcDbLinetypeTableRecord
  2
DASH_CENTER
 70
     0
  3
Dash_Center
 72
    65
 73
     4
 40
14.0
 49
11.0
 74
     0
 49
-1.0
 74
     0
 49
1.0
 74
     0
 49
-1.0
 74
     0
  0
LTYPE
  5
2F
330
5
100
AcDbSymbolTableRecord
100
AcDbLinetypeTableRecord
  2
PHANTOM
 70
     0
  3
Phantom
 72
    65
 73
     6
 40
13.0
 49
10.0
 74
     0
 49
-1.0
 74
     0
 49
0.0
 74
     0
 49
-1.0
 74
     0
 49
0.0
 74
     0
 49
-1.0
 74
     0
  0
LTYPE
  5
30
330
5
100
AcDbSymbolTableRecord
100
AcDbLinetypeTableRecord
  2
CENTER_DASH_DASH
 70
     0
  3
Center_Dash_Dash
 72
    65
 73
     6
 40
14.0
 49
9.0
 74
     0
 49
-1.0
 74
     0
 49
1.0
 74
     0
 49
-1.0
 74
     0
 49
1.0
 74
     0
 49
-1.0
 74
     0
  0
ENDTAB
  0
TABLE
  2
LAYER
  5
2
330
0
100
AcDbSymbolTable
 70
     2
  0
LAYER
  5
10
330
2
100
AcDbSymbolTableRecord
100
AcDbLayerTableRecord
  2
0
 70
     0
 62
     7
  6
Continuous
370
    -3
390
F
  0
LAYER
  5
31
330
2
100
AcDbSymbolTableRecord
100
AcDbLayerTableRecord
  2
1
 70
     0
 62
     7
  6
Continuous
370
    -3
390
F
  0
ENDTAB
  0
TABLE
  2
STYLE
  5
3
330
0
100
AcDbSymbolTable
 70
    11
  0
STYLE
  5
11
330
3
100
AcDbSymbolTableRecord
100
AcDbTextStyleTableRecord
  2
Standard
 70
     0
 40
0.0
 41
1.0
 50
0.0
 71
     0
 42
0.2
  3
txt
  4

  0
STYLE
  5
1D4
330
3
100
AcDbSymbolTableRecord
100
AcDbTextStyleTableRecord
  2
CONVERTER_11
 70
     0
 40
0.0
 41
0.81
 50
0.0
 71
     0
 42
0.2
  3
txt.shx
  4

  0
STYLE
  5
1D6
330
3
100
AcDbSymbolTableRecord
100
AcDbTextStyleTableRecord
  2
CONVERTER_12
 70
     0
 40
0.0
 41
1.045
 50
0.0
 71
     0
 42
0.2
  3
complex.shx
  4

  0
STYLE
  5
1E4
330
3
100
AcDbSymbolTableRecord
100
AcDbTextStyleTableRecord
  2
CONVERTER_13
 70
     0
 40
0.0
 41
0.9
 50
0.0
 71
     0
 42
0.2
  3
txt.shx
  4

  0
STYLE
  5
368
330
3
100
AcDbSymbolTableRecord
100
AcDbTextStyleTableRecord
  2
CONVERTER_14
 70
     0
 40
0.0
 41
0.99
 50
0.0
 71
     0
 42
0.2
  3
txt.shx
  4

  0
STYLE
  5
383
330
3
100
AcDbSymbolTableRecord
100
AcDbTextStyleTableRecord
  2
CONVERTER_15
 70
     0
 40
0.0
 41
0.675
 50
0.0
 71
     0
 42
0.2
  3
txt.shx
  4

  0
STYLE
  5
38D
330
3
100
AcDbSymbolTableRecord
100
AcDbTextStyleTableRecord
  2
CONVERTER_16
 70
     0
 40
0.0
 41
0.819
 50
0.0
 71
     0
 42
0.2
  3
txt.shx
  4

  0
STYLE
  5
44F
330
3
100
AcDbSymbolTableRecord
100
AcDbTextStyleTableRecord
  2
CONVERTER_17
 70
     0
 40
0.0
 41
0.765
 50
0.0
 71
     0
 42
0.2
  3
txt.shx
  4

  0
STYLE
  5
451
330
3
100
AcDbSymbolTableRecord
100
AcDbTextStyleTableRecord
  2
CONVERTER_18
 70
     0
 40
0.0
 41
0.72
 50
0.0
 71
     0
 42
0.2
  3
txt.shx
  4

  0
STYLE
  5
45C
330
3
100
AcDbSymbolTableRecord
100
AcDbTextStyleTableRecord
  2
CONVERTER_19
 70
     0
 40
0.0
 41
0.54
 50
0.0
 71
     0
 42
0.2
  3
txt.shx
  4

  0
STYLE
  5
48E
330
3
100
AcDbSymbolTableRecord
100
AcDbTextStyleTableRecord
  2
CONVERTER_20
 70
     0
 40
0.0
 41
0.66696267749507
 50
0.0
 71
     0
 42
0.2
  3
txt.shx
  4

  0
ENDTAB
  0
TABLE
  2
VIEW
  5
6
330
0
100
AcDbSymbolTable
 70
     0
  0
ENDTAB
  0
TABLE
  2
UCS
  5
7
330
0
100
AcDbSymbolTable
 70
     0
  0
ENDTAB
  0
TABLE
  2
APPID
  5
9
330
0
100
AcDbSymbolTable
 70
     1
  0
APPID
  5
12
330
9
100
AcDbSymbolTableRecord
100
AcDbRegAppTableRecord
  2
ACAD
 70
     0
  0
ENDTAB
  0
TABLE
  2
DIMSTYLE
  5
A
330
0
100
AcDbSymbolTable
 70
    20
100
AcDbDimStyleTable
  0
DIMSTYLE
105
27
330
A
100
AcDbSymbolTableRecord
100
AcDbDimStyleTableRecord
  2
Standard
 70
     0
340
11
  0
DIMSTYLE
105
1E8
102
{ACAD_REACTORS
330
1E9
102
}
330
A
100
AcDbSymbolTableRecord
100
AcDbDimStyleTableRecord
  2
ME10_DIM_10
 70
     0
 41
4.66666666666667
 42
0.0
 44
2.66666666666667
 73
     0
 74
     0
 77
     1
 78
     8
140
4.66666666666667
147
2.66666666666667
172
     1
173
     1
176
     3
177
     3
178
     4
271
     2
340
1E4
  0
DIMSTYLE
105
1F3
102
{ACAD_REACTORS
330
1F4
102
}
330
A
100
AcDbSymbolTableRecord
100
AcDbDimStyleTableRecord
  2
ME10_DIM_11
 70
     0
  3
-GEZE TS 3000 V
 41
4.66666666666667
 42
0.0
 44
2.66666666666667
 73
     0
 74
     0
 77
     1
 78
     8
140
4.66666666666667
147
2.66666666666667
172
     1
173
     1
176
     3
177
     3
178
     4
271
     2
340
1E4
  0
DIMSTYLE
105
1FE
102
{ACAD_REACTORS
330
1FF
102
}
330
A
100
AcDbSymbolTableRecord
100
AcDbDimStyleTableRecord
  2
ME10_DIM_12
 70
     0
  3
-GEZE TS 5000
 41
4.66666666666667
 42
0.0
 44
2.66666666666667
 73
     0
 74
     0
 77
     1
 78
     8
140
4.66666666666667
147
2.66666666666667
172
     1
173
     1
176
     3
177
     3
178
     4
271
     2
340
1E4
  0
DIMSTYLE
105
209
102
{ACAD_REACTORS
330
20A
102
}
330
A
100
AcDbSymbolTableRecord
100
AcDbDimStyleTableRecord
  2
ME10_DIM_13
 70
     0
 41
4.66666666666667
 42
0.0
 44
2.66666666666667
 73
     0
 74
     0
 77
     1
 78
     8
140
4.66666666666667
147
2.66666666666667
172
     1
173
     1
176
     3
177
     3
178
     4
271
     2
340
1E4
  0
DIMSTYLE
105
216
102
{ACAD_REACTORS
330
217
102
}
330
A
100
AcDbSymbolTableRecord
100
AcDbDimStyleTableRecord
  2
ME10_DIM_14
 70
     0
 41
4.66666666666667
 42
0.0
 44
2.66666666666667
 73
     0
 74
     0
 77
     1
 78
     8
140
4.66666666666667
147
2.66666666666667
172
     1
173
     1
176
     3
177
     3
178
     4
271
     2
340
1E4
  0
DIMSTYLE
105
221
102
{ACAD_REACTORS
330
222
102
}
330
A
100
AcDbSymbolTableRecord
100
AcDbDimStyleTableRecord
  2
ME10_DIM_15
 70
     0
 41
4.66666666666667
 42
0.0
 44
2.66666666666667
 73
     0
 74
     0
 77
     1
 78
     8
140
4.66666666666667
147
2.66666666666667
172
     1
173
     1
176
     3
177
     3
178
     4
271
     2
340
1E4
  0
DIMSTYLE
105
22E
102
{ACAD_REACTORS
330
22F
102
}
330
A
100
AcDbSymbolTableRecord
100
AcDbDimStyleTableRecord
  2
ME10_DIM_16
 70
     0
  3
min.<>
 41
4.66666666666667
 42
0.0
 44
2.66666666666667
 73
     0
 74
     0
 77
     1
 78
     8
140
4.66666666666667
147
2.66666666666667
172
     1
173
     1
176
     3
177
     3
178
     4
271
     2
340
1E4
  0
DIMSTYLE
105
23B
102
{ACAD_REACTORS
330
23C
102
}
330
A
100
AcDbSymbolTableRecord
100
AcDbDimStyleTableRecord
  2
ME10_DIM_17
 70
     0
 41
4.66666666666667
 42
0.0
 44
2.66666666666667
 73
     0
 74
     0
 77
     1
 78
     8
140
4.66666666666667
147
2.66666666666667
172
     1
173
     1
176
     3
177
     3
178
     4
271
     2
340
1E4
  0
DIMSTYLE
105
246
102
{ACAD_REACTORS
330
247
102
}
330
A
100
AcDbSymbolTableRecord
100
AcDbDimStyleTableRecord
  2
ME10_DIM_18
 70
     0
 41
4.66666666666667
 42
0.0
 44
2.66666666666667
 47
0.2
 48
0.2
 71
     1
 73
     0
 74
     0
 77
     1
 78
     8
140
4.66666666666667
146
0.6
147
2.66666666666667
172
     1
173
     1
176
     3
177
     3
178
     4
271
     2
272
     1
340
1E4
  0
DIMSTYLE
105
58A
102
{ACAD_REACTORS
330
58B
102
}
330
A
100
AcDbSymbolTableRecord
100
AcDbDimStyleTableRecord
  2
ME10_DIM_19
 70
     0
  3
(<>)
 41
3.5
 42
0.0
 44
2.0
 73
     0
 74
     0
 77
     1
 78
     8
140
3.5
147
2.0
172
     1
173
     1
176
     3
177
     3
178
     4
271
     2
340
1E4
  0
DIMSTYLE
105
596
102
{ACAD_REACTORS
330
597
102
}
330
A
100
AcDbSymbolTableRecord
100
AcDbDimStyleTableRecord
  2
ME10_DIM_20
 70
     0
  3
max.<>
 41
3.5
 42
0.0
 44
2.0
 73
     0
 74
     0
 77
     1
 78
     8
140
3.5
147
2.0
172
     1
173
     1
176
     3
177
     3
178
     4
271
     2
340
1E4
  0
DIMSTYLE
105
5A2
102
{ACAD_REACTORS
330
5A3
102
}
330
A
100
AcDbSymbolTableRecord
100
AcDbDimStyleTableRecord
  2
ME10_DIM_21
 70
     0
  3
max.<>
 41
3.5
 42
0.0
 44
2.0
 73
     0
 74
     0
 77
     1
 78
     8
140
3.5
147
2.0
172
     1
173
     1
176
     3
177
     3
178
     4
271
     2
340
1E4
  0
DIMSTYLE
105
5AD
102
{ACAD_REACTORS
330
5AE
102
}
330
A
100
AcDbSymbolTableRecord
100
AcDbDimStyleTableRecord
  2
ME10_DIM_22
 70
     0
 41
3.5
 42
0.0
 44
2.0
 73
     0
 74
     0
 77
     1
 78
     8
140
3.5
147
2.0
172
     1
173
     1
176
     3
177
     3
178
     4
271
     2
340
1E4
  0
DIMSTYLE
105
5B8
102
{ACAD_REACTORS
330
5B9
102
}
330
A
100
AcDbSymbolTableRecord
100
AcDbDimStyleTableRecord
  2
ME10_DIM_23
 70
     0
 41
3.5
 42
0.0
 44
2.0
 73
     0
 74
     0
 77
     1
 78
     8
140
3.5
147
2.0
172
     1
173
     1
176
     3
177
     3
178
     4
271
     2
340
1E4
  0
DIMSTYLE
105
5C3
102
{ACAD_REACTORS
330
5C4
102
}
330
A
100
AcDbSymbolTableRecord
100
AcDbDimStyleTableRecord
  2
ME10_DIM_24
 70
     0
  3
(<>)
 41
3.5
 42
0.0
 44
2.0
 73
     0
 74
     0
 77
     1
 78
     8
140
3.5
147
2.0
172
     1
173
     1
176
     3
177
     3
178
     4
271
     2
340
1E4
  0
DIMSTYLE
105
5CE
102
{ACAD_REACTORS
330
5CF
102
}
330
A
100
AcDbSymbolTableRecord
100
AcDbDimStyleTableRecord
  2
ME10_DIM_25
 70
     0
 41
3.5
 42
0.0
 44
2.0
 73
     0
 74
     0
 77
     1
 78
     8
140
3.5
147
2.0
172
     1
173
     1
176
     3
177
     3
178
     4
271
     2
340
1E4
  0
DIMSTYLE
105
5D9
102
{ACAD_REACTORS
330
5DA
102
}
330
A
100
AcDbSymbolTableRecord
100
AcDbDimStyleTableRecord
  2
ME10_DIM_26
 70
     0
 41
3.5
 42
0.0
 44
2.0
 73
     0
 74
     0
 77
     1
 78
     8
140
3.5
147
2.0
172
     1
173
     1
176
     3
177
     3
178
     4
271
     2
340
1E4
  0
DIMSTYLE
105
5E4
102
{ACAD_REACTORS
330
5E5
102
}
330
A
100
AcDbSymbolTableRecord
100
AcDbDimStyleTableRecord
  2
ME10_DIM_27
 70
     0
 41
3.5
 42
0.0
 44
2.0
 73
     0
 74
     0
 77
     1
 78
     8
140
3.5
147
2.0
172
     1
173
     1
176
     3
177
     3
178
     4
271
     2
340
1E4
  0
DIMSTYLE
105
5EF
102
{ACAD_REACTORS
330
5F0
102
}
330
A
100
AcDbSymbolTableRecord
100
AcDbDimStyleTableRecord
  2
ME10_DIM_28
 70
     0
 41
3.5
 42
0.0
 44
2.0
 73
     0
 74
     0
 77
     1
 78
     8
140
3.5
147
2.0
172
     1
173
     1
176
     3
177
     3
178
     4
271
     2
340
1E4
  0
ENDTAB
  0
TABLE
  2
BLOCK_RECORD
  5
1
330
0
100
AcDbSymbolTable
 70
    28
  0
BLOCK_RECORD
  5
1F
330
1
100
AcDbSymbolTableRecord
100
AcDbBlockTableRecord
  2
*Model_Space
340
22
  0
BLOCK_RECORD
  5
1B
330
1
100
AcDbSymbolTableRecord
100
AcDbBlockTableRecord
  2
*Paper_Space
340
1E
  0
BLOCK_RECORD
  5
23
330
1
100
AcDbSymbolTableRecord
100
AcDbBlockTableRecord
  2
*Paper_Space0
340
26
  0
BLOCK_RECORD
  5
32
330
1
100
AcDbSymbolTableRecord
100
AcDbBlockTableRecord
  2
0_5Vorder
340
0
102
{BLKREFS
331
36
102
}
  0
BLOCK_RECORD
  5
35
330
1
100
AcDbSymbolTableRecord
100
AcDbBlockTableRecord
  2
TOP__1
340
0
102
{BLKREFS
331
3D
102
}
  0
BLOCK_RECORD
  5
39
330
1
100
AcDbSymbolTableRecord
100
AcDbBlockTableRecord
  2
UEBERSICHT
340
0
102
{BLKREFS
331
3E
102
}
  0
BLOCK_RECORD
  5
3C
330
1
100
AcDbSymbolTableRecord
100
AcDbBlockTableRecord
  2
20520-0-35
340
0
102
{BLKREFS
331
45
102
}
  0
BLOCK_RECORD
  5
41
330
1
100
AcDbSymbolTableRecord
100
AcDbBlockTableRecord
  2
Profil_re
340
0
102
{BLKREFS
331
46
102
}
  0
BLOCK_RECORD
  5
44
330
1
100
AcDbSymbolTableRecord
100
AcDbBlockTableRecord
  2
TOP__2
340
0
102
{BLKREFS
331
50
102
}
  0
BLOCK_RECORD
  5
49
330
1
100
AcDbSymbolTableRecord
100
AcDbBlockTableRecord
  2
a2kl
340
0
102
{BLKREFS
331
4D
102
}
  0
BLOCK_RECORD
  5
4C
330
1
100
AcDbSymbolTableRecord
100
AcDbBlockTableRecord
  2
rahmen
340
0
102
{BLKREFS
331
51
102
}
  0
BLOCK_RECORD
  5
1DE
330
1
100
AcDbSymbolTableRecord
100
AcDbBlockTableRecord
  2
*D9
340
0
  0
BLOCK_RECORD
  5
1EA
330
1
100
AcDbSymbolTableRecord
100
AcDbBlockTableRecord
  2
*D10
340
0
  0
BLOCK_RECORD
  5
1F5
330
1
100
AcDbSymbolTableRecord
100
AcDbBlockTableRecord
  2
*D11
340
0
  0
BLOCK_RECORD
  5
200
330
1
100
AcDbSymbolTableRecord
100
AcDbBlockTableRecord
  2
*D12
340
0
  0
BLOCK_RECORD
  5
20B
330
1
100
AcDbSymbolTableRecord
100
AcDbBlockTableRecord
  2
*D13
340
0
  0
BLOCK_RECORD
  5
218
330
1
100
AcDbSymbolTableRecord
100
AcDbBlockTableRecord
  2
*D14
340
0
  0
BLOCK_RECORD
  5
223
330
1
100
AcDbSymbolTableRecord
100
AcDbBlockTableRecord
  2
*D15
340
0
  0
BLOCK_RECORD
  5
230
330
1
100
AcDbSymbolTableRecord
100
AcDbBlockTableRecord
  2
*D16
340
0
  0
BLOCK_RECORD
  5
23D
330
1
100
AcDbSymbolTableRecord
100
AcDbBlockTableRecord
  2
*D17
340
0
  0
BLOCK_RECORD
  5
581
330
1
100
AcDbSymbolTableRecord
100
AcDbBlockTableRecord
  2
*D18
340
0
  0
BLOCK_RECORD
  5
58C
330
1
100
AcDbSymbolTableRecord
100
AcDbBlockTableRecord
  2
*D19
340
0
  0
BLOCK_RECORD
  5
598
330
1
100
AcDbSymbolTableRecord
100
AcDbBlockTableRecord
  2
*D20
340
0
  0
BLOCK_RECORD
  5
5A4
330
1
100
AcDbSymbolTableRecord
100
AcDbBlockTableRecord
  2
*D21
340
0
  0
BLOCK_RECORD
  5
5AF
330
1
100
AcDbSymbolTableRecord
100
AcDbBlockTableRecord
  2
*D22
340
0
  0
BLOCK_RECORD
  5
5BA
330
1
100
AcDbSymbolTableRecord
100
AcDbBlockTableRecord
  2
*D23
340
0
  0
BLOCK_RECORD
  5
5C5
330
1
100
AcDbSymbolTableRecord
100
AcDbBlockTableRecord
  2
*D24
340
0
  0
BLOCK_RECORD
  5
5D0
330
1
100
AcDbSymbolTableRecord
100
AcDbBlockTableRecord
  2
*D25
340
0
  0
BLOCK_RECORD
  5
5DB
330
1
100
AcDbSymbolTableRecord
100
AcDbBlockTableRecord
  2
*D26
340
0
  0
BLOCK_RECORD
  5
5E6
330
1
100
AcDbSymbolTableRecord
100
AcDbBlockTableRecord
  2
*D27
340
0
  0
ENDTAB
  0
ENDSEC
  0
SECTION
  2
BLOCKS
  0
BLOCK
  5
20
330
1F
100
AcDbEntity
  8
0
100
AcDbBlockBegin
  2
*Model_Space
 70
     0
 71
     0
 10
0.0
 20
0.0
 30
0.0
  3
*Model_Space
  1

  0
ENDBLK
  5
21
330
1F
100
AcDbEntity
  8
0
100
AcDbBlockEnd
  0
BLOCK
  5
1C
330
1B
100
AcDbEntity
 67
     1
  8
0
100
AcDbBlockBegin
  2
*Paper_Space
 70
     0
 71
     0
 10
0.0
 20
0.0
 30
0.0
  3
*Paper_Space
  1

  0
ENDBLK
  5
1D
330
1B
100
AcDbEntity
 67
     1
  8
0
100
AcDbBlockEnd
  0
BLOCK
  5
24
330
23
100
AcDbEntity
  8
0
100
AcDbBlockBegin
  2
*Paper_Space0
 70
     0
 71
     0
 10
0.0
 20
0.0
 30
0.0
  3
*Paper_Space0
  1

  0
ENDBLK
  5
25
330
23
100
AcDbEntity
  8
0
100
AcDbBlockEnd
  0
BLOCK
  5
33
330
32
100
AcDbEntity
  8
0
100
AcDbBlockBegin
  2
0_5Vorder
 70
     0
 71
     0
 10
2041.684619226677
 20
-697.3500777812441
 30
0.0
  3
0_5Vorder
  1

  0
LINE
  5
52
330
32
100
AcDbEntity
  8
0
  6
DASH_CENTER
 62
     3
100
AcDbLine
 10
1640.457937206023
 20
-493.2946103588468
 30
0.0
 11
2113.509649056037
 21
-493.2946103588468
 31
0.0
  0
ENDBLK
  5
34
330
32
100
AcDbEntity
  8
0
100
AcDbBlockEnd
  0
BLOCK
  5
37
330
35
100
AcDbEntity
  8
0
100
AcDbBlockBegin
  2
TOP__1
 70
     0
 71
     0
 10
4468.144933884887
 20
-5623.327752713717
 30
0.0
  3
TOP__1
  1

  0
INSERT
  5
36
330
35
100
AcDbEntity
  8
1
100
AcDbBlockReference
  2
0_5Vorder
 10
1531.263464420008
 20
-523.0125583359331
 30
0.0
 41
0.75
 42
0.75
 43
0.75
  0
ENDBLK
  5
38
330
35
100
AcDbEntity
  8
0
100
AcDbBlockEnd
  0
BLOCK
  5
3A
330
39
100
AcDbEntity
  8
0
100
AcDbBlockBegin
  2
UEBERSICHT
 70
     0
 71
     0
 10
1469.01947366161
 20
-714.2927383588475
 30
0.0
  3
UEBERSICHT
  1

  0
POINT
  5
53
330
39
100
AcDbEntity
  8
1
 62
     3
 60
     1
100
AcDbPoint
 10
1639.953135872691
 20
-526.0427383588469
 30
0.0
  0
POINT
  5
54
330
39
100
AcDbEntity
  8
1
 62
     3
 60
     1
100
AcDbPoint
 10
1639.953135872691
 20
-523.292738358847
 30
0.0
  0
LINE
  5
55
330
39
100
AcDbEntity
  8
1
  6
DASH_CENTER
 62
     3
100
AcDbLine
 10
1639.953070934247
 20
-586.0427383588469
 30
0.0
 11
1865.957937206024
 21
-586.0427383588469
 31
0.0
  0
LINE
  5
56
330
39
100
AcDbEntity
  8
1
  6
DASH_CENTER
 62
     3
100
AcDbLine
 10
1865.957937206024
 20
-586.0427383588469
 30
0.0
 11
1865.957937206024
 21
-519.2927383588469
 31
0.0
  0
LINE
  5
57
330
39
100
AcDbEntity
  8
0
  6
Continuous
 62
     1
100
AcDbLine
 10
1708.954111872691
 20
-526.0427383588469
 30
0.0
 11
1708.954111872691
 21
-519.2927383588469
 31
0.0
  0
LINE
  5
58
330
39
100
AcDbEntity
  8
1
  6
Continuous
 62
     1
100
AcDbLine
 10
1926.953135872691
 20
-526.0427383588469
 30
0.0
 11
1639.953135872691
 21
-526.0427383588469
 31
0.0
  0
LINE
  5
59
330
39
100
AcDbEntity
  8
1
  6
Continuous
 62
     1
100
AcDbLine
 10
1926.953135872691
 20
-526.0427383588469
 30
0.0
 11
1926.953135872691
 21
-586.0427383588469
 31
0.0
  0
LINE
  5
5A
330
39
100
AcDbEntity
  8
1
  6
Continuous
 62
     1
100
AcDbLine
 10
1639.953135872691
 20
-586.0427383588469
 30
0.0
 11
1639.953135872691
 21
-526.0427383588469
 31
0.0
  0
LINE
  5
5B
330
39
100
AcDbEntity
  8
1
  6
Continuous
 62
     1
100
AcDbLine
 10
1926.953135872691
 20
-586.0427383588469
 30
0.0
 11
1639.953135872691
 21
-586.0427383588469
 31
0.0
  0
LINE
  5
5C
330
39
100
AcDbEntity
  8
0
  6
Continuous
 62
     4
100
AcDbLine
 10
1896.794271894443
 20
-576.6867061850792
 30
0.0
 11
1896.794271894443
 21
-572.0868205445042
 31
0.0
  0
LINE
  5
5D
330
39
100
AcDbEntity
  8
0
  6
Continuous
 62
     4
100
AcDbLine
 10
1903.566693400516
 20
-576.6867061850792
 30
0.0
 11
1896.794271894443
 21
-576.6867061850792
 31
0.0
  0
LINE
  5
5E
330
39
100
AcDbEntity
  8
0
  6
Continuous
 62
     4
100
AcDbLine
 10
1903.566693400516
 20
-576.3877117185459
 30
0.0
 11
1903.566693400516
 21
-576.6867061850792
 31
0.0
  0
LINE
  5
5F
330
39
100
AcDbEntity
  8
0
  6
Continuous
 62
     4
100
AcDbLine
 10
1897.974076654895
 20
-576.3877117185459
 30
0.0
 11
1903.566693400516
 21
-576.3877117185459
 31
0.0
  0
LINE
  5
60
330
39
100
AcDbEntity
  8
0
  6
Continuous
 62
     4
100
AcDbLine
 10
1897.974076654895
 20
-574.5361901019553
 30
0.0
 11
1897.974076654895
 21
-576.3877117185459
 31
0.0
  0
LINE
  5
61
330
39
100
AcDbEntity
  8
0
  6
Continuous
 62
     4
100
AcDbLine
 10
1903.566693400516
 20
-574.5361901019553
 30
0.0
 11
1897.974076654895
 21
-574.5361901019553
 31
0.0
  0
LINE
  5
62
330
39
100
AcDbEntity
  8
0
  6
Continuous
 62
     4
100
AcDbLine
 10
1903.566693400516
 20
-574.237195635423
 30
0.0
 11
1903.566693400516
 21
-574.5361901019553
 31
0.0
  0
LINE
  5
63
330
39
100
AcDbEntity
  8
0
  6
Continuous
 62
     4
100
AcDbLine
 10
1897.974076654895
 20
-574.237195635423
 30
0.0
 11
1903.566693400516
 21
-574.237195635423
 31
0.0
  0
LINE
  5
64
330
39
100
AcDbEntity
  8
0
  6
Continuous
 62
     4
100
AcDbLine
 10
1897.974076654895
 20
-572.3858160109814
 30
0.0
 11
1897.974076654895
 21
-574.237195635423
 31
0.0
  0
LINE
  5
65
330
39
100
AcDbEntity
  8
0
  6
Continuous
 62
     4
100
AcDbLine
 10
1903.566693400516
 20
-572.3858160109814
 30
0.0
 11
1897.974076654895
 21
-572.3858160109814
 31
0.0
  0
LINE
  5
66
330
39
100
AcDbEntity
  8
0
  6
Continuous
 62
     4
100
AcDbLine
 10
1903.566693400516
 20
-572.0868205445042
 30
0.0
 11
1903.566693400516
 21
-572.3858160109814
 31
0.0
  0
LINE
  5
67
330
39
100
AcDbEntity
  8
0
  6
Continuous
 62
     4
100
AcDbLine
 10
1896.794271894443
 20
-572.0868205445042
 30
0.0
 11
1903.566693400516
 21
-572.0868205445042
 31
0.0
  0
LINE
  5
68
330
39
100
AcDbEntity
  8
0
  6
Continuous
 62
     4
100
AcDbLine
 10
1888.833179118211
 20
-572.3858160109814
 30
0.0
 11
1888.833179118211
 21
-572.0868205445042
 31
0.0
  0
LINE
  5
69
330
39
100
AcDbEntity
  8
0
  6
Continuous
 62
     4
100
AcDbLine
 10
1894.931691889347
 20
-572.3858160109814
 30
0.0
 11
1888.833179118211
 21
-572.3858160109814
 31
0.0
  0
LINE
  5
6A
330
39
100
AcDbEntity
  8
0
  6
Continuous
 62
     4
100
AcDbLine
 10
1888.833179118211
 20
-576.2380739930488
 30
0.0
 11
1894.931691889347
 21
-572.3858160109814
 31
0.0
  0
LINE
  5
6B
330
39
100
AcDbEntity
  8
0
  6
Continuous
 62
     4
100
AcDbLine
 10
1888.833179118211
 20
-576.6867061850792
 30
0.0
 11
1888.833179118211
 21
-576.2380739930488
 31
0.0
  0
LINE
  5
6C
330
39
100
AcDbEntity
  8
0
  6
Continuous
 62
     4
100
AcDbLine
 10
1895.605597624448
 20
-576.6867061850792
 30
0.0
 11
1888.833179118211
 21
-576.6867061850792
 31
0.0
  0
LINE
  5
6D
330
39
100
AcDbEntity
  8
0
  6
Continuous
 62
     4
100
AcDbLine
 10
1895.605597624448
 20
-576.3877117185459
 30
0.0
 11
1895.605597624448
 21
-576.6867061850792
 31
0.0
  0
LINE
  5
6E
330
39
100
AcDbEntity
  8
0
  6
Continuous
 62
     4
100
AcDbLine
 10
1889.50708885309
 20
-576.3877117185459
 30
0.0
 11
1895.605597624448
 21
-576.3877117185459
 31
0.0
  0
LINE
  5
6F
330
39
100
AcDbEntity
  8
0
  6
Continuous
 62
     4
100
AcDbLine
 10
1895.605597624448
 20
-572.5354537364785
 30
0.0
 11
1889.50708885309
 21
-576.3877117185459
 31
0.0
  0
LINE
  5
70
330
39
100
AcDbEntity
  8
0
  6
Continuous
 62
     4
100
AcDbLine
 10
1895.605597624448
 20
-572.0868205445042
 30
0.0
 11
1895.605597624448
 21
-572.5354537364785
 31
0.0
  0
LINE
  5
71
330
39
100
AcDbEntity
  8
0
  6
Continuous
 62
     4
100
AcDbLine
 10
1888.833179118211
 20
-572.0868205445042
 30
0.0
 11
1895.605597624448
 21
-572.0868205445042
 31
0.0
  0
LINE
  5
72
330
39
100
AcDbEntity
  8
0
  6
Continuous
 62
     4
100
AcDbLine
 10
1880.872079342364
 20
-576.6867061850792
 30
0.0
 11
1880.872079342364
 21
-572.0868205445042
 31
0.0
  0
LINE
  5
73
330
39
100
AcDbEntity
  8
0
  6
Continuous
 62
     4
100
AcDbLine
 10
1887.644501848381
 20
-576.6867061850792
 30
0.0
 11
1880.872079342364
 21
-576.6867061850792
 31
0.0
  0
LINE
  5
74
330
39
100
AcDbEntity
  8
0
  6
Continuous
 62
     4
100
AcDbLine
 10
1887.644501848381
 20
-576.3877117185459
 30
0.0
 11
1887.644501848381
 21
-576.6867061850792
 31
0.0
  0
LINE
  5
75
330
39
100
AcDbEntity
  8
0
  6
Continuous
 62
     4
100
AcDbLine
 10
1882.051885102761
 20
-576.3877117185459
 30
0.0
 11
1887.644501848381
 21
-576.3877117185459
 31
0.0
  0
LINE
  5
76
330
39
100
AcDbEntity
  8
0
  6
Continuous
 62
     4
100
AcDbLine
 10
1882.051885102761
 20
-574.5361901019553
 30
0.0
 11
1882.051885102761
 21
-576.3877117185459
 31
0.0
  0
LINE
  5
77
330
39
100
AcDbEntity
  8
0
  6
Continuous
 62
     4
100
AcDbLine
 10
1887.644501848381
 20
-574.5361901019553
 30
0.0
 11
1882.051885102761
 21
-574.5361901019553
 31
0.0
  0
LINE
  5
78
330
39
100
AcDbEntity
  8
0
  6
Continuous
 62
     4
100
AcDbLine
 10
1887.644501848381
 20
-574.237195635423
 30
0.0
 11
1887.644501848381
 21
-574.5361901019553
 31
0.0
  0
LINE
  5
79
330
39
100
AcDbEntity
  8
0
  6
Continuous
 62
     4
100
AcDbLine
 10
1882.051885102761
 20
-574.237195635423
 30
0.0
 11
1887.644501848381
 21
-574.237195635423
 31
0.0
  0
LINE
  5
7A
330
39
100
AcDbEntity
  8
0
  6
Continuous
 62
     4
100
AcDbLine
 10
1882.051885102761
 20
-572.3858160109814
 30
0.0
 11
1882.051885102761
 21
-574.237195635423
 31
0.0
  0
LINE
  5
7B
330
39
100
AcDbEntity
  8
0
  6
Continuous
 62
     4
100
AcDbLine
 10
1887.644501848381
 20
-572.3858160109814
 30
0.0
 11
1882.051885102761
 21
-572.3858160109814
 31
0.0
  0
LINE
  5
7C
330
39
100
AcDbEntity
  8
0
  6
Continuous
 62
     4
100
AcDbLine
 10
1887.644501848381
 20
-572.0868205445042
 30
0.0
 11
1887.644501848381
 21
-572.3858160109814
 31
0.0
  0
LINE
  5
7D
330
39
100
AcDbEntity
  8
0
  6
Continuous
 62
     4
100
AcDbLine
 10
1880.872079342364
 20
-572.0868205445042
 30
0.0
 11
1887.644501848381
 21
-572.0868205445042
 31
0.0
  0
LINE
  5
7E
330
39
100
AcDbEntity
  8
0
  6
Continuous
 62
     4
100
AcDbLine
 10
1872.523098015166
 20
-572.6999346411942
 30
0.0
 11
1872.421524631859
 21
-572.8152162664767
 31
0.0
  0
LINE
  5
7F
330
39
100
AcDbEntity
  8
0
  6
Continuous
 62
     4
100
AcDbLine
 10
1872.650962944631
 20
-572.5765894617991
 30
0.0
 11
1872.523098015166
 21
-572.6999346411942
 31
0.0
  0
LINE
  5
80
330
39
100
AcDbEntity
  8
0
  6
Continuous
 62
     4
100
AcDbLine
 10
1872.788554336254
 20
-572.4654436078201
 30
0.0
 11
1872.650962944631
 21
-572.5765894617991
 31
0.0
  0
LINE
  5
81
330
39
100
AcDbEntity
  8
0
  6
Continuous
 62
     4
100
AcDbLine
 10
1872.93482424798
 20
-572.3673460323137
 30
0.0
 11
1872.788554336254
 21
-572.4654436078201
 31
0.0
  0
LINE
  5
82
330
39
100
AcDbEntity
  8
0
  6
Continuous
 62
     4
100
AcDbLine
 10
1873.088657741465
 20
-572.2830426940266
 30
0.0
 11
1872.93482424798
 21
-572.3673460323137
 31
0.0
  0
LINE
  5
83
330
39
100
AcDbEntity
  8
0
  6
Continuous
 62
     4
100
AcDbLine
 10
1873.24888688129
 20
-572.2131735575733
 30
0.0
 11
1873.088657741465
 21
-572.2830426940266
 31
0.0
  0
LINE
  5
84
330
39
100
AcDbEntity
  8
0
  6
Continuous
 62
     4
100
AcDbLine
 10
1873.41428873508
 20
-572.158272593427
 30
0.0
 11
1873.24888688129
 21
-572.2131735575733
 31
0.0
  0
LINE
  5
85
330
39
100
AcDbEntity
  8
0
  6
Continuous
 62
     4
100
AcDbLine
 10
1873.583607372284
 20
-572.1187557785845
 30
0.0
 11
1873.41428873508
 21
-572.158272593427
 31
0.0
  0
LINE
  5
86
330
39
100
AcDbEntity
  8
0
  6
Continuous
 62
     4
100
AcDbLine
 10
1873.755552864231
 20
-572.094925096347
 30
0.0
 11
1873.583607372284
 21
-572.1187557785845
 31
0.0
  0
LINE
  5
87
330
39
100
AcDbEntity
  8
0
  6
Continuous
 62
     4
100
AcDbLine
 10
1873.92881828319
 20
-572.0868205445042
 30
0.0
 11
1873.755552864231
 21
-572.094925096347
 31
0.0
  0
LINE
  5
88
330
39
100
AcDbEntity
  8
0
  6
Continuous
 62
     4
100
AcDbLine
 10
1872.421524631859
 20
-575.9583104631058
 30
0.0
 11
1872.421524631859
 21
-572.8152162664767
 31
0.0
  0
LINE
  5
89
330
39
100
AcDbEntity
  8
0
  6
Continuous
 62
     4
100
AcDbLine
 10
1873.779552537124
 20
-576.6807985117541
 30
0.0
 11
1873.92881828319
 21
-576.6867061850792
 31
0.0
  0
LINE
  5
8A
330
39
100
AcDbEntity
  8
0
  6
Continuous
 62
     4
100
AcDbLine
 10
1873.607333060327
 20
-576.6591617082033
 30
0.0
 11
1873.779552537124
 21
-576.6807985117541
 31
0.0
  0
LINE
  5
8B
330
39
100
AcDbEntity
  8
0
  6
Continuous
 62
     4
100
AcDbLine
 10
1873.437561448171
 20
-576.621804773926
 30
0.0
 11
1873.607333060327
 21
-576.6591617082033
 31
0.0
  0
LINE
  5
8C
330
39
100
AcDbEntity
  8
0
  6
Continuous
 62
     4
100
AcDbLine
 10
1873.271526629382
 20
-576.5690136931091
 30
0.0
 11
1873.437561448171
 21
-576.621804773926
 31
0.0
  0
LINE
  5
8D
330
39
100
AcDbEntity
  8
0
  6
Continuous
 62
     4
100
AcDbLine
 10
1873.110495533902
 20
-576.5011894435795
 30
0.0
 11
1873.271526629382
 21
-576.5690136931091
 31
0.0
  0
LINE
  5
8E
330
39
100
AcDbEntity
  8
0
  6
Continuous
 62
     4
100
AcDbLine
 10
1872.955692094053
 20
-576.4188489967512
 30
0.0
 11
1873.110495533902
 21
-576.5011894435795
 31
0.0
  0
LINE
  5
8F
330
39
100
AcDbEntity
  8
0
  6
Continuous
 62
     4
100
AcDbLine
 10
1872.808294244697
 20
-576.3226183180097
 30
0.0
 11
1872.955692094053
 21
-576.4188489967512
 31
0.0
  0
LINE
  5
90
330
39
100
AcDbEntity
  8
0
  6
Continuous
 62
     4
100
AcDbLine
 10
1872.669424923742
 20
-576.2132293668803
 30
0.0
 11
1872.808294244697
 21
-576.3226183180097
 31
0.0
  0
LINE
  5
91
330
39
100
AcDbEntity
  8
0
  6
Continuous
 62
     4
100
AcDbLine
 10
1872.540141072737
 20
-576.0915150973017
 30
0.0
 11
1872.669424923742
 21
-576.2132293668803
 31
0.0
  0
LINE
  5
92
330
39
100
AcDbEntity
  8
0
  6
Continuous
 62
     4
100
AcDbLine
 10
1872.421524631859
 20
-575.9583104631058
 30
0.0
 11
1872.540141072737
 21
-576.0915150973017
 31
0.0
  0
LINE
  5
93
330
39
100
AcDbEntity
  8
0
  6
Continuous
 62
     4
100
AcDbLine
 10
1877.686649486766
 20
-576.6867061850792
 30
0.0
 11
1873.92881828319
 21
-576.6867061850792
 31
0.0
  0
LINE
  5
94
330
39
100
AcDbEntity
  8
0
  6
Continuous
 62
     4
100
AcDbLine
 10
1879.092371754679
 20
-576.0735920883892
 30
0.0
 11
1879.193945137986
 21
-575.9583104631058
 31
0.0
  0
LINE
  5
95
330
39
100
AcDbEntity
  8
0
  6
Continuous
 62
     4
100
AcDbLine
 10
1878.96450582527
 20
-576.1969382677273
 30
0.0
 11
1879.092371754679
 21
-576.0735920883892
 31
0.0
  0
LINE
  5
96
330
39
100
AcDbEntity
  8
0
  6
Continuous
 62
     4
100
AcDbLine
 10
1878.826915433592
 20
-576.3080831217615
 30
0.0
 11
1878.96450582527
 21
-576.1969382677273
 31
0.0
  0
LINE
  5
97
330
39
100
AcDbEntity
  8
0
  6
Continuous
 62
     4
100
AcDbLine
 10
1878.680645521865
 20
-576.4061806972688
 30
0.0
 11
1878.826915433592
 21
-576.3080831217615
 31
0.0
  0
LINE
  5
98
330
39
100
AcDbEntity
  8
0
  6
Continuous
 62
     4
100
AcDbLine
 10
1878.526811028436
 20
-576.4904850354999
 30
0.0
 11
1878.680645521865
 21
-576.4061806972688
 31
0.0
  0
LINE
  5
99
330
39
100
AcDbEntity
  8
0
  6
Continuous
 62
     4
100
AcDbLine
 10
1878.36658588839
 20
-576.5603531720092
 30
0.0
 11
1878.526811028436
 21
-576.4904850354999
 31
0.0
  0
LINE
  5
9A
330
39
100
AcDbEntity
  8
0
  6
Continuous
 62
     4
100
AcDbLine
 10
1878.201180034821
 20
-576.6152541361555
 30
0.0
 11
1878.36658588839
 21
-576.5603531720092
 31
0.0
  0
LINE
  5
9B
330
39
100
AcDbEntity
  8
0
  6
Continuous
 62
     4
100
AcDbLine
 10
1878.031862397562
 20
-576.654770950998
 30
0.0
 11
1878.201180034821
 21
-576.6152541361555
 31
0.0
  0
LINE
  5
9C
330
39
100
AcDbEntity
  8
0
  6
Continuous
 62
     4
100
AcDbLine
 10
1877.859914905725
 20
-576.6786026331795
 30
0.0
 11
1878.031862397562
 21
-576.654770950998
 31
0.0
  0
LINE
  5
9D
330
39
100
AcDbEntity
  8
0
  6
Continuous
 62
     4
100
AcDbLine
 10
1877.686649486766
 20
-576.6867061850792
 30
0.0
 11
1877.859914905725
 21
-576.6786026331795
 31
0.0
  0
LINE
  5
9E
330
39
100
AcDbEntity
  8
0
  6
Continuous
 62
     4
100
AcDbLine
 10
1879.193945137986
 20
-574.237195635423
 30
0.0
 11
1879.193945137986
 21
-575.9583104631058
 31
0.0
  0
LINE
  5
9F
330
39
100
AcDbEntity
  8
0
  6
Continuous
 62
     4
100
AcDbLine
 10
1876.135356268475
 20
-574.237195635423
 30
0.0
 11
1879.193945137986
 21
-574.237195635423
 31
0.0
  0
LINE
  5
A0
330
39
100
AcDbEntity
  8
0
  6
Continuous
 62
     4
100
AcDbLine
 10
1876.135356268475
 20
-574.5361901019553
 30
0.0
 11
1876.135356268475
 21
-574.237195635423
 31
0.0
  0
LINE
  5
A1
330
39
100
AcDbEntity
  8
0
  6
Continuous
 62
     4
100
AcDbLine
 10
1878.014138377645
 20
-574.5361901019553
 30
0.0
 11
1876.135356268475
 21
-574.5361901019553
 31
0.0
  0
LINE
  5
A2
330
39
100
AcDbEntity
  8
0
  6
Continuous
 62
     4
100
AcDbLine
 10
1878.014138377645
 20
-576.3877117185459
 30
0.0
 11
1878.014138377645
 21
-574.5361901019553
 31
0.0
  0
LINE
  5
A3
330
39
100
AcDbEntity
  8
0
  6
Continuous
 62
     4
100
AcDbLine
 10
1873.6013313922
 20
-576.3877117185459
 30
0.0
 11
1878.014138377645
 21
-576.3877117185459
 31
0.0
  0
LINE
  5
A4
330
39
100
AcDbEntity
  8
0
  6
Continuous
 62
     4
100
AcDbLine
 10
1873.6013313922
 20
-572.3858160109814
 30
0.0
 11
1873.6013313922
 21
-576.3877117185459
 31
0.0
  0
LINE
  5
A5
330
39
100
AcDbEntity
  8
0
  6
Continuous
 62
     4
100
AcDbLine
 10
1878.014138377645
 20
-572.3858160109814
 30
0.0
 11
1873.6013313922
 21
-572.3858160109814
 31
0.0
  0
LINE
  5
A6
330
39
100
AcDbEntity
  8
0
  6
Continuous
 62
     4
100
AcDbLine
 10
1878.014138377645
 20
-572.9607842170192
 30
0.0
 11
1878.014138377645
 21
-572.3858160109814
 31
0.0
  0
LINE
  5
A7
330
39
100
AcDbEntity
  8
0
  6
Continuous
 62
     4
100
AcDbLine
 10
1879.193945137986
 20
-572.9607842170192
 30
0.0
 11
1878.014138377645
 21
-572.9607842170192
 31
0.0
  0
LINE
  5
A8
330
39
100
AcDbEntity
  8
0
  6
Continuous
 62
     4
100
AcDbLine
 10
1879.193945137986
 20
-572.8152162664767
 30
0.0
 11
1879.193945137986
 21
-572.9607842170192
 31
0.0
  0
LINE
  5
A9
330
39
100
AcDbEntity
  8
0
  6
Continuous
 62
     4
100
AcDbLine
 10
1877.835916232777
 20
-572.0927292177723
 30
0.0
 11
1877.686649486766
 21
-572.0868205445042
 31
0.0
  0
LINE
  5
AA
330
39
100
AcDbEntity
  8
0
  6
Continuous
 62
     4
100
AcDbLine
 10
1878.008135709574
 20
-572.1143650213792
 30
0.0
 11
1877.835916232777
 21
-572.0927292177723
 31
0.0
  0
LINE
  5
AB
330
39
100
AcDbEntity
  8
0
  6
Continuous
 62
     4
100
AcDbLine
 10
1878.177909321619
 20
-572.1517229556014
 30
0.0
 11
1878.008135709574
 21
-572.1143650213792
 31
0.0
  0
LINE
  5
AC
330
39
100
AcDbEntity
  8
0
  6
Continuous
 62
     4
100
AcDbLine
 10
1878.343941140574
 20
-572.2045130364734
 30
0.0
 11
1878.177909321619
 21
-572.1517229556014
 31
0.0
  0
LINE
  5
AD
330
39
100
AcDbEntity
  8
0
  6
Continuous
 62
     4
100
AcDbLine
 10
1878.504975235888
 20
-572.2723362860581
 30
0.0
 11
1878.343941140574
 21
-572.2045130364734
 31
0.0
  0
LINE
  5
AE
330
39
100
AcDbEntity
  8
0
  6
Continuous
 62
     4
100
AcDbLine
 10
1878.659776675848
 20
-572.3546777328313
 30
0.0
 11
1878.504975235888
 21
-572.2723362860581
 31
0.0
  0
LINE
  5
AF
330
39
100
AcDbEntity
  8
0
  6
Continuous
 62
     4
100
AcDbLine
 10
1878.807175525148
 20
-572.4509094115176
 30
0.0
 11
1878.659776675848
 21
-572.3546777328313
 31
0.0
  0
LINE
  5
B0
330
39
100
AcDbEntity
  8
0
  6
Continuous
 62
     4
100
AcDbLine
 10
1878.946045846049
 20
-572.5602983626461
 30
0.0
 11
1878.807175525148
 21
-572.4509094115176
 31
0.0
  0
LINE
  5
B1
330
39
100
AcDbEntity
  8
0
  6
Continuous
 62
     4
100
AcDbLine
 10
1879.075330696998
 20
-572.6820126322257
 30
0.0
 11
1878.946045846049
 21
-572.5602983626461
 31
0.0
  0
LINE
  5
B2
330
39
100
AcDbEntity
  8
0
  6
Continuous
 62
     4
100
AcDbLine
 10
1879.193945137986
 20
-572.8152162664767
 30
0.0
 11
1879.075330696998
 21
-572.6820126322257
 31
0.0
  0
LINE
  5
B3
330
39
100
AcDbEntity
  8
0
  6
Continuous
 62
     4
100
AcDbLine
 10
1873.92881828319
 20
-572.0868205445042
 30
0.0
 11
1877.686649486766
 21
-572.0868205445042
 31
0.0
  0
LINE
  5
B4
330
39
100
AcDbEntity
  8
0
  6
Continuous
 62
     4
100
AcDbLine
 10
1869.139636110127
 20
-570.9132534391294
 30
0.0
 11
1869.0825592663
 21
-570.976931917907
 31
0.0
  0
LINE
  5
B5
330
39
100
AcDbEntity
  8
0
  6
Continuous
 62
     4
100
AcDbLine
 10
1869.25825555084
 20
-570.7972958512239
 30
0.0
 11
1869.139636110127
 21
-570.9132534391294
 31
0.0
  0
LINE
  5
B6
330
39
100
AcDbEntity
  8
0
  6
Continuous
 62
     4
100
AcDbLine
 10
1869.38589649269
 20
-570.6928086290438
 30
0.0
 11
1869.25825555084
 21
-570.7972958512239
 31
0.0
  0
LINE
  5
B7
330
39
100
AcDbEntity
  8
0
  6
Continuous
 62
     4
100
AcDbLine
 10
1869.521587989371
 20
-570.6005877285745
 30
0.0
 11
1869.38589649269
 21
-570.6928086290438
 31
0.0
  0
LINE
  5
B8
330
39
100
AcDbEntity
  8
0
  6
Continuous
 62
     4
100
AcDbLine
 10
1869.664298097944
 20
-570.5213331111092
 30
0.0
 11
1869.521587989371
 21
-570.6005877285745
 31
0.0
  0
LINE
  5
B9
330
39
100
AcDbEntity
  8
0
  6
Continuous
 62
     4
100
AcDbLine
 10
1869.812939878515
 20
-570.4556497431952
 30
0.0
 11
1869.664298097944
 21
-570.5213331111092
 31
0.0
  0
LINE
  5
BA
330
39
100
AcDbEntity
  8
0
  6
Continuous
 62
     4
100
AcDbLine
 10
1869.966381393674
 20
-570.4040365972426
 30
0.0
 11
1869.812939878515
 21
-570.4556497431952
 31
0.0
  0
LINE
  5
BB
330
39
100
AcDbEntity
  8
0
  6
Continuous
 62
     4
100
AcDbLine
 10
1870.123455707952
 20
-570.3668866515202
 30
0.0
 11
1869.966381393674
 21
-570.4040365972426
 31
0.0
  0
LINE
  5
BC
330
39
100
AcDbEntity
  8
0
  6
Continuous
 62
     4
100
AcDbLine
 10
1870.282967887421
 20
-570.3444848902675
 30
0.0
 11
1870.123455707952
 21
-570.3668866515202
 31
0.0
  0
LINE
  5
BD
330
39
100
AcDbEntity
  8
0
  6
Continuous
 62
     4
100
AcDbLine
 10
1870.443702999268
 20
-570.3369233083997
 30
0.0
 11
1870.282967887421
 21
-570.3444848902675
 31
0.0
  0
LINE
  5
BE
330
39
100
AcDbEntity
  8
0
  6
Continuous
 62
     4
100
AcDbLine
 10
1869.045203331967
 20
-577.6517628204367
 30
0.0
 11
1869.045203331967
 21
-571.0790692700277
 31
0.0
  0
LINE
  5
BF
330
39
100
AcDbEntity
  8
0
  6
Continuous
 62
     4
100
AcDbLine
 10
1870.304989669686
 20
-578.3309322644702
 30
0.0
 11
1870.443702999268
 21
-578.3365059562623
 31
0.0
  0
LINE
  5
C0
330
39
100
AcDbEntity
  8
0
  6
Continuous
 62
     4
100
AcDbLine
 10
1870.145243503153
 20
-578.3105703904187
 30
0.0
 11
1870.304989669686
 21
-578.3309322644702
 31
0.0
  0
LINE
  5
C1
330
39
100
AcDbEntity
  8
0
  6
Continuous
 62
     4
100
AcDbLine
 10
1869.987767211104
 20
-578.2754313335001
 30
0.0
 11
1870.145243503153
 21
-578.3105703904187
 31
0.0
  0
LINE
  5
C2
330
39
100
AcDbEntity
  8
0
  6
Continuous
 62
     4
100
AcDbLine
 10
1869.833761727131
 20
-578.2257850787839
 30
0.0
 11
1869.987767211104
 21
-578.2754313335001
 31
0.0
  0
LINE
  5
C3
330
39
100
AcDbEntity
  8
0
  6
Continuous
 62
     4
100
AcDbLine
 10
1869.684397986483
 20
-578.1620076054808
 30
0.0
 11
1869.833761727131
 21
-578.2257850787839
 31
0.0
  0
LINE
  5
C4
330
39
100
AcDbEntity
  8
0
  6
Continuous
 62
     4
100
AcDbLine
 10
1869.540812926292
 20
-578.0845848867168
 30
0.0
 11
1869.684397986483
 21
-578.1620076054808
 31
0.0
  0
LINE
  5
C5
330
39
100
AcDbEntity
  8
0
  6
Continuous
 62
     4
100
AcDbLine
 10
1869.404099486122
 20
-577.99410688987
 30
0.0
 11
1869.540812926292
 21
-578.0845848867168
 31
0.0
  0
LINE
  5
C6
330
39
100
AcDbEntity
  8
0
  6
Continuous
 62
     4
100
AcDbLine
 10
1869.275297608466
 20
-577.8912615768961
 30
0.0
 11
1869.404099486122
 21
-577.99410688987
 31
0.0
  0
LINE
  5
C7
330
39
100
AcDbEntity
  8
0
  6
Continuous
 62
     4
100
AcDbLine
 10
1869.155388239084
 20
-577.7768319045038
 30
0.0
 11
1869.275297608466
 21
-577.8912615768961
 31
0.0
  0
LINE
  5
C8
330
39
100
AcDbEntity
  8
0
  6
Continuous
 62
     4
100
AcDbLine
 10
1869.045203331967
 20
-577.6517628204367
 30
0.0
 11
1869.155388239084
 21
-577.7768319045038
 31
0.0
  0
LINE
  5
C9
330
39
100
AcDbEntity
  8
0
  6
Continuous
 62
     4
100
AcDbLine
 10
1905.544734020998
 20
-578.3365059562623
 30
0.0
 11
1870.443702999268
 21
-578.3365059562623
 31
0.0
  0
LINE
  5
CA
330
39
100
AcDbEntity
  8
0
  6
Continuous
 62
     4
100
AcDbLine
 10
1906.84884590765
 20
-577.7603488159677
 30
0.0
 11
1906.943238688022
 21
-577.6517628204367
 31
0.0
  0
LINE
  5
CB
330
39
100
AcDbEntity
  8
0
  6
Continuous
 62
     4
100
AcDbLine
 10
1906.730215467546
 20
-577.8763094037051
 30
0.0
 11
1906.84884590765
 21
-577.7603488159677
 31
0.0
  0
LINE
  5
CC
330
39
100
AcDbEntity
  8
0
  6
Continuous
 62
     4
100
AcDbLine
 10
1906.602567526082
 20
-577.9807986257758
 30
0.0
 11
1906.730215467546
 21
-577.8763094037051
 31
0.0
  0
LINE
  5
CD
330
39
100
AcDbEntity
  8
0
  6
Continuous
 62
     4
100
AcDbLine
 10
1906.46687802929
 20
-578.0730235260246
 30
0.0
 11
1906.602567526082
 21
-577.9807986257758
 31
0.0
  0
LINE
  5
CE
330
39
100
AcDbEntity
  8
0
  6
Continuous
 62
     4
100
AcDbLine
 10
1906.324162920994
 20
-578.1522791434347
 30
0.0
 11
1906.46687802929
 21
-578.0730235260246
 31
0.0
  0
LINE
  5
CF
330
39
100
AcDbEntity
  8
0
  6
Continuous
 62
     4
100
AcDbLine
 10
1906.175520140479
 20
-578.2179645112376
 30
0.0
 11
1906.324162920994
 21
-578.1522791434347
 31
0.0
  0
LINE
  5
D0
330
39
100
AcDbEntity
  8
0
  6
Continuous
 62
     4
100
AcDbLine
 10
1906.022078625319
 20
-578.2695786571342
 30
0.0
 11
1906.175520140479
 21
-578.2179645112376
 31
0.0
  0
LINE
  5
D1
330
39
100
AcDbEntity
  8
0
  6
Continuous
 62
     4
100
AcDbLine
 10
1905.864990311817
 20
-578.3067286028584
 30
0.0
 11
1906.022078625319
 21
-578.2695786571342
 31
0.0
  0
LINE
  5
D2
330
39
100
AcDbEntity
  8
0
  6
Continuous
 62
     4
100
AcDbLine
 10
1905.705476132456
 20
-578.3291333639438
 30
0.0
 11
1905.864990311817
 21
-578.3067286028584
 31
0.0
  0
LINE
  5
D3
330
39
100
AcDbEntity
  8
0
  6
Continuous
 62
     4
100
AcDbLine
 10
1905.544734020998
 20
-578.3365059562623
 30
0.0
 11
1905.705476132456
 21
-578.3291333639438
 31
0.0
  0
LINE
  5
D4
330
39
100
AcDbEntity
  8
0
  6
Continuous
 62
     4
100
AcDbLine
 10
1906.943238688022
 20
-571.0216634443916
 30
0.0
 11
1906.943238688022
 21
-577.6517628204367
 31
0.0
  0
LINE
  5
D5
330
39
100
AcDbEntity
  8
0
  6
Continuous
 62
     4
100
AcDbLine
 10
1905.683367355004
 20
-570.342487000745
 30
0.0
 11
1905.544734020998
 21
-570.3369193086212
 31
0.0
  0
LINE
  5
D6
330
39
100
AcDbEntity
  8
0
  6
Continuous
 62
     4
100
AcDbLine
 10
1905.843125520872
 20
-570.3628428751283
 30
0.0
 11
1905.683367355004
 21
-570.342487000745
 31
0.0
  0
LINE
  5
D7
330
39
100
AcDbEntity
  8
0
  6
Continuous
 62
     4
100
AcDbLine
 10
1906.000617812037
 20
-570.3979739324898
 30
0.0
 11
1905.843125520872
 21
-570.3628428751283
 31
0.0
  0
LINE
  5
D8
330
39
100
AcDbEntity
  8
0
  6
Continuous
 62
     4
100
AcDbLine
 10
1906.154632295512
 20
-570.4476181873163
 30
0.0
 11
1906.000617812037
 21
-570.3979739324898
 31
0.0
  0
LINE
  5
D9
330
39
100
AcDbEntity
  8
0
  6
Continuous
 62
     4
100
AcDbLine
 10
1906.304007035552
 20
-570.5113896609512
 30
0.0
 11
1906.154632295512
 21
-570.4476181873163
 31
0.0
  0
LINE
  5
DA
330
39
100
AcDbEntity
  8
0
  6
Continuous
 62
     4
100
AcDbLine
 10
1906.447607094913
 20
-570.5888103798254
 30
0.0
 11
1906.304007035552
 21
-570.5113896609512
 31
0.0
  0
LINE
  5
DB
330
39
100
AcDbEntity
  8
0
  6
Continuous
 62
     4
100
AcDbLine
 10
1906.584326534752
 20
-570.6792873767274
 30
0.0
 11
1906.447607094913
 21
-570.5888103798254
 31
0.0
  0
LINE
  5
DC
330
39
100
AcDbEntity
  8
0
  6
Continuous
 62
     4
100
AcDbLine
 10
1906.713149411246
 20
-570.7821336896452
 30
0.0
 11
1906.584326534752
 21
-570.6792873767274
 31
0.0
  0
LINE
  5
DD
330
39
100
AcDbEntity
  8
0
  6
Continuous
 62
     4
100
AcDbLine
 10
1906.833068780076
 20
-570.8965633620385
 30
0.0
 11
1906.713149411246
 21
-570.7821336896452
 31
0.0
  0
LINE
  5
DE
330
39
100
AcDbEntity
  8
0
  6
Continuous
 62
     4
100
AcDbLine
 10
1906.943238688022
 20
-571.0216634443916
 30
0.0
 11
1906.833068780076
 21
-570.8965633620385
 31
0.0
  0
LINE
  5
DF
330
39
100
AcDbEntity
  8
0
  6
Continuous
 62
     4
100
AcDbLine
 10
1870.443702999268
 20
-570.3369233083997
 30
0.0
 11
1905.544734020998
 21
-570.3369193086212
 31
0.0
  0
LINE
  5
E0
330
39
100
AcDbEntity
  8
0
  6
Continuous
 62
     4
100
AcDbLine
 10
1870.744546363561
 20
-571.4828579417647
 30
0.0
 11
1870.743389427537
 21
-571.5111273785526
 31
0.0
  0
LINE
  5
E1
330
39
100
AcDbEntity
  8
0
  6
Continuous
 62
     4
100
AcDbLine
 10
1870.748008172135
 20
-571.4548034930888
 30
0.0
 11
1870.744546363561
 21
-571.4828579417647
 31
0.0
  0
LINE
  5
E2
330
39
100
AcDbEntity
  8
0
  6
Continuous
 62
     4
100
AcDbLine
 10
1870.753748854693
 20
-571.4271780206911
 30
0.0
 11
1870.748008172135
 21
-571.4548034930888
 31
0.0
  0
LINE
  5
E3
330
39
100
AcDbEntity
  8
0
  6
Continuous
 62
     4
100
AcDbLine
 10
1870.761725413614
 20
-571.4001905130174
 30
0.0
 11
1870.753748854693
 21
-571.4271780206911
 31
0.0
  0
LINE
  5
E4
330
39
100
AcDbEntity
  8
0
  6
Continuous
 62
     4
100
AcDbLine
 10
1870.771875852326
 20
-571.3740479586197
 30
0.0
 11
1870.761725413614
 21
-571.4001905130174
 31
0.0
  0
LINE
  5
E5
330
39
100
AcDbEntity
  8
0
  6
Continuous
 62
     4
100
AcDbLine
 10
1870.784123175086
 20
-571.3489483465503
 30
0.0
 11
1870.771875852326
 21
-571.3740479586197
 31
0.0
  0
LINE
  5
E6
330
39
100
AcDbEntity
  8
0
  6
Continuous
 62
     4
100
AcDbLine
 10
1870.798374387039
 20
-571.3250826662481
 30
0.0
 11
1870.784123175086
 21
-571.3489483465503
 31
0.0
  0
LINE
  5
E7
330
39
100
AcDbEntity
  8
0
  6
Continuous
 62
     4
100
AcDbLine
 10
1870.814521494154
 20
-571.3026349075392
 30
0.0
 11
1870.798374387039
 21
-571.3250826662481
 31
0.0
  0
LINE
  5
E8
330
39
100
AcDbEntity
  8
0
  6
Continuous
 62
     4
100
AcDbLine
 10
1870.832441503233
 20
-571.2817730611362
 30
0.0
 11
1870.814521494154
 21
-571.3026349075392
 31
0.0
  0
LINE
  5
E9
330
39
100
AcDbEntity
  8
0
  6
Continuous
 62
     4
100
AcDbLine
 10
1870.851997421851
 20
-571.2626551182987
 30
0.0
 11
1870.832441503233
 21
-571.2817730611362
 31
0.0
  0
LINE
  5
EA
330
39
100
AcDbEntity
  8
0
  6
Continuous
 62
     4
100
AcDbLine
 10
1870.873040258248
 20
-571.245428070901
 30
0.0
 11
1870.851997421851
 21
-571.2626551182987
 31
0.0
  0
LINE
  5
EB
330
39
100
AcDbEntity
  8
0
  6
Continuous
 62
     4
100
AcDbLine
 10
1870.895411021214
 20
-571.2302249115885
 30
0.0
 11
1870.873040258248
 21
-571.245428070901
 31
0.0
  0
LINE
  5
EC
330
39
100
AcDbEntity
  8
0
  6
Continuous
 62
     4
100
AcDbLine
 10
1870.91893772026
 20
-571.2171596340579
 30
0.0
 11
1870.895411021214
 21
-571.2302249115885
 31
0.0
  0
LINE
  5
ED
330
39
100
AcDbEntity
  8
0
  6
Continuous
 62
     4
100
AcDbLine
 10
1870.943443365174
 20
-571.20633023289
 30
0.0
 11
1870.91893772026
 21
-571.2171596340579
 31
0.0
  0
LINE
  5
EE
330
39
100
AcDbEntity
  8
0
  6
Continuous
 62
     4
100
AcDbLine
 10
1870.968739966351
 20
-571.1978217033859
 30
0.0
 11
1870.943443365174
 21
-571.20633023289
 31
0.0
  0
LINE
  5
EF
330
39
100
AcDbEntity
  8
0
  6
Continuous
 62
     4
100
AcDbLine
 10
1870.994635534405
 20
-571.1916970420609
 30
0.0
 11
1870.968739966351
 21
-571.1978217033859
 31
0.0
  0
LINE
  5
F0
330
39
100
AcDbEntity
  8
0
  6
Continuous
 62
     4
100
AcDbLine
 10
1871.020933080233
 20
-571.1880032463162
 30
0.0
 11
1870.994635534405
 21
-571.1916970420609
 31
0.0
  0
LINE
  5
F1
330
39
100
AcDbEntity
  8
0
  6
Continuous
 62
     4
100
AcDbLine
 10
1871.047432614891
 20
-571.1868993073606
 30
0.0
 11
1871.020933080233
 21
-571.1880032463162
 31
0.0
  0
LINE
  5
F2
330
39
100
AcDbEntity
  8
0
  6
Continuous
 62
     4
100
AcDbLine
 10
1870.743389427537
 20
-577.1624348787557
 30
0.0
 11
1870.743389427537
 21
-571.5111273785526
 31
0.0
  0
LINE
  5
F3
330
39
100
AcDbEntity
  8
0
  6
Continuous
 62
     4
100
AcDbLine
 10
1871.020944079624
 20
-577.4854280182356
 30
0.0
 11
1871.047432614891
 21
-577.4866619500028
 31
0.0
  0
LINE
  5
F4
330
39
100
AcDbEntity
  8
0
  6
Continuous
 62
     4
100
AcDbLine
 10
1870.99465753319
 20
-577.4817352224356
 30
0.0
 11
1871.020944079624
 21
-577.4854280182356
 31
0.0
  0
LINE
  5
F5
330
39
100
AcDbEntity
  8
0
  6
Continuous
 62
     4
100
AcDbLine
 10
1870.968771964581
 20
-577.4756135609452
 30
0.0
 11
1870.99465753319
 21
-577.4817352224356
 31
0.0
  0
LINE
  5
F6
330
39
100
AcDbEntity
  8
0
  6
Continuous
 62
     4
100
AcDbLine
 10
1870.943486362797
 20
-577.4671080312739
 30
0.0
 11
1870.968771964581
 21
-577.4756135609452
 31
0.0
  0
LINE
  5
F7
330
39
100
AcDbEntity
  8
0
  6
Continuous
 62
     4
100
AcDbLine
 10
1870.91899071733
 20
-577.4562836298303
 30
0.0
 11
1870.943486362797
 21
-577.4671080312739
 31
0.0
  0
LINE
  5
F8
330
39
100
AcDbEntity
  8
0
  6
Continuous
 62
     4
100
AcDbLine
 10
1870.895473017786
 20
-577.4432233520222
 30
0.0
 11
1870.91899071733
 21
-577.4562836298303
 31
0.0
  0
LINE
  5
F9
330
39
100
AcDbEntity
  8
0
  6
Continuous
 62
     4
100
AcDbLine
 10
1870.873111254322
 20
-577.428025192434
 30
0.0
 11
1870.895473017786
 21
-577.4432233520222
 31
0.0
  0
LINE
  5
FA
330
39
100
AcDbEntity
  8
0
  6
Continuous
 62
     4
100
AcDbLine
 10
1870.852076417484
 20
-577.4108071445391
 30
0.0
 11
1870.873111254322
 21
-577.428025192434
 31
0.0
  0
LINE
  5
FB
330
39
100
AcDbEntity
  8
0
  6
Continuous
 62
     4
100
AcDbLine
 10
1870.832528498422
 20
-577.3916972012596
 30
0.0
 11
1870.852076417484
 21
-577.4108071445391
 31
0.0
  0
LINE
  5
FC
330
39
100
AcDbEntity
  8
0
  6
Continuous
 62
     4
100
AcDbLine
 10
1870.814616488901
 20
-577.3708433544127
 30
0.0
 11
1870.832528498422
 21
-577.3916972012596
 31
0.0
  0
LINE
  5
FD
330
39
100
AcDbEntity
  8
0
  6
Continuous
 62
     4
100
AcDbLine
 10
1870.798476381399
 20
-577.3484035952617
 30
0.0
 11
1870.814616488901
 21
-577.3708433544127
 31
0.0
  0
LINE
  5
FE
330
39
100
AcDbEntity
  8
0
  6
Continuous
 62
     4
100
AcDbLine
 10
1870.78423016917
 20
-577.3245479144073
 30
0.0
 11
1870.798476381399
 21
-577.3484035952617
 31
0.0
  0
LINE
  5
FF
330
39
100
AcDbEntity
  8
0
  6
Continuous
 62
     4
100
AcDbLine
 10
1870.771987846132
 20
-577.2994583017846
 30
0.0
 11
1870.78423016917
 21
-577.3245479144073
 31
0.0
  0
LINE
  5
100
330
39
100
AcDbEntity
  8
0
  6
Continuous
 62
     4
100
AcDbLine
 10
1870.761841407199
 20
-577.2733267467795
 30
0.0
 11
1870.771987846132
 21
-577.2994583017846
 31
0.0
  0
LINE
  5
101
330
39
100
AcDbEntity
  8
0
  6
Continuous
 62
     4
100
AcDbLine
 10
1870.753868848057
 20
-577.2463502384965
 30
0.0
 11
1870.761841407199
 21
-577.2733267467795
 31
0.0
  0
LINE
  5
102
330
39
100
AcDbEntity
  8
0
  6
Continuous
 62
     4
100
AcDbLine
 10
1870.748130165389
 20
-577.2187357654914
 30
0.0
 11
1870.753868848057
 21
-577.2463502384965
 31
0.0
  0
LINE
  5
103
330
39
100
AcDbEntity
  8
0
  6
Continuous
 62
     4
100
AcDbLine
 10
1870.744669356761
 20
-577.1906923162071
 30
0.0
 11
1870.748130165389
 21
-577.2187357654914
 31
0.0
  0
LINE
  5
104
330
39
100
AcDbEntity
  8
0
  6
Continuous
 62
     4
100
AcDbLine
 10
1870.743389427537
 20
-577.1624348787557
 30
0.0
 11
1870.744669356761
 21
-577.1906923162071
 31
0.0
  0
LINE
  5
105
330
39
100
AcDbEntity
  8
0
  6
Continuous
 62
     4
100
AcDbLine
 10
1904.941007405208
 20
-577.4866619500028
 30
0.0
 11
1871.047432614891
 21
-577.4866619500028
 31
0.0
  0
LINE
  5
106
330
39
100
AcDbEntity
  8
0
  6
Continuous
 62
     4
100
AcDbLine
 10
1905.243892656593
 20
-577.1907043155436
 30
0.0
 11
1905.245052592452
 21
-577.1624348787557
 31
0.0
  0
LINE
  5
107
330
39
100
AcDbEntity
  8
0
  6
Continuous
 62
     4
100
AcDbLine
 10
1905.24042884813
 20
-577.2187587642195
 30
0.0
 11
1905.243892656593
 21
-577.1907043155436
 31
0.0
  0
LINE
  5
108
330
39
100
AcDbEntity
  8
0
  6
Continuous
 62
     4
100
AcDbLine
 10
1905.234685165739
 20
-577.2463842366162
 30
0.0
 11
1905.24042884813
 21
-577.2187587642195
 31
0.0
  0
LINE
  5
109
330
39
100
AcDbEntity
  8
0
  6
Continuous
 62
     4
100
AcDbLine
 10
1905.226712606596
 20
-577.2733717442909
 30
0.0
 11
1905.234685165739
 21
-577.2463842366162
 31
0.0
  0
LINE
  5
10A
330
39
100
AcDbEntity
  8
0
  6
Continuous
 62
     4
100
AcDbLine
 10
1905.216566167664
 20
-577.2995142986886
 30
0.0
 11
1905.226712606596
 21
-577.2733717442909
 31
0.0
  0
LINE
  5
10B
330
39
100
AcDbEntity
  8
0
  6
Continuous
 62
     4
100
AcDbLine
 10
1905.204313845178
 20
-577.324613910758
 30
0.0
 11
1905.216566167664
 21
-577.2995142986886
 31
0.0
  0
LINE
  5
10C
330
39
100
AcDbEntity
  8
0
  6
Continuous
 62
     4
100
AcDbLine
 10
1905.190062633226
 20
-577.3484795910592
 30
0.0
 11
1905.204313845178
 21
-577.324613910758
 31
0.0
  0
LINE
  5
10D
330
39
100
AcDbEntity
  8
0
  6
Continuous
 62
     4
100
AcDbLine
 10
1905.173912526277
 20
-577.3709283497121
 30
0.0
 11
1905.190062633226
 21
-577.3484795910592
 31
0.0
  0
LINE
  5
10E
330
39
100
AcDbEntity
  8
0
  6
Continuous
 62
     4
100
AcDbLine
 10
1905.155999516811
 20
-577.3917911960618
 30
0.0
 11
1905.173912526277
 21
-577.3709283497121
 31
0.0
  0
LINE
  5
10F
330
39
100
AcDbEntity
  8
0
  6
Continuous
 62
     4
100
AcDbLine
 10
1905.136446598027
 20
-577.4109081389545
 30
0.0
 11
1905.155999516811
 21
-577.3917911960618
 31
0.0
  0
LINE
  5
110
330
39
100
AcDbEntity
  8
0
  6
Continuous
 62
     4
100
AcDbLine
 10
1905.11540576152
 20
-577.4281341864073
 30
0.0
 11
1905.136446598027
 21
-577.4109081389545
 31
0.0
  0
LINE
  5
111
330
39
100
AcDbEntity
  8
0
  6
Continuous
 62
     4
100
AcDbLine
 10
1905.09302999883
 20
-577.4433373457198
 30
0.0
 11
1905.11540576152
 21
-577.4281341864073
 31
0.0
  0
LINE
  5
112
330
39
100
AcDbEntity
  8
0
  6
Continuous
 62
     4
100
AcDbLine
 10
1905.069494300282
 20
-577.4564036231952
 30
0.0
 11
1905.09302999883
 21
-577.4433373457198
 31
0.0
  0
LINE
  5
113
330
39
100
AcDbEntity
  8
0
  6
Continuous
 62
     4
100
AcDbLine
 10
1905.044990655258
 20
-577.4672320244183
 30
0.0
 11
1905.069494300282
 21
-577.4564036231952
 31
0.0
  0
LINE
  5
114
330
39
100
AcDbEntity
  8
0
  6
Continuous
 62
     4
100
AcDbLine
 10
1905.019700053749
 20
-577.4757415538672
 30
0.0
 11
1905.044990655258
 21
-577.4672320244183
 31
0.0
  0
LINE
  5
115
330
39
100
AcDbEntity
  8
0
  6
Continuous
 62
     4
100
AcDbLine
 10
1904.993807485527
 20
-577.4818662151922
 30
0.0
 11
1905.019700053749
 21
-577.4757415538672
 31
0.0
  0
LINE
  5
116
330
39
100
AcDbEntity
  8
0
  6
Continuous
 62
     4
100
AcDbLine
 10
1904.967502940088
 20
-577.4855590109921
 30
0.0
 11
1904.993807485527
 21
-577.4818662151922
 31
0.0
  0
LINE
  5
117
330
39
100
AcDbEntity
  8
0
  6
Continuous
 62
     4
100
AcDbLine
 10
1904.941007405208
 20
-577.4866619500028
 30
0.0
 11
1904.967502940088
 21
-577.4855590109921
 31
0.0
  0
LINE
  5
118
330
39
100
AcDbEntity
  8
0
  6
Continuous
 62
     4
100
AcDbLine
 10
1905.245052592452
 20
-571.5111233787732
 30
0.0
 11
1905.245052592452
 21
-577.1624348787557
 31
0.0
  0
LINE
  5
119
330
39
100
AcDbEntity
  8
0
  6
Continuous
 62
     4
100
AcDbLine
 10
1904.967494940531
 20
-571.188132239183
 30
0.0
 11
1904.941007405208
 21
-571.1868973074709
 31
0.0
  0
LINE
  5
11A
330
39
100
AcDbEntity
  8
0
  6
Continuous
 62
     4
100
AcDbLine
 10
1904.9937844868
 20
-571.1918240350371
 30
0.0
 11
1904.967494940531
 21
-571.188132239183
 31
0.0
  0
LINE
  5
11B
330
39
100
AcDbEntity
  8
0
  6
Continuous
 62
     4
100
AcDbLine
 10
1905.019670055408
 20
-571.1979456965294
 30
0.0
 11
1904.9937844868
 21
-571.1918240350371
 31
0.0
  0
LINE
  5
11C
330
39
100
AcDbEntity
  8
0
  6
Continuous
 62
     4
100
AcDbLine
 10
1905.044952657358
 20
-571.2064522261446
 30
0.0
 11
1905.019670055408
 21
-571.1979456965294
 31
0.0
  0
LINE
  5
11D
330
39
100
AcDbEntity
  8
0
  6
Continuous
 62
     4
100
AcDbLine
 10
1905.069448302826
 20
-571.2172756276443
 30
0.0
 11
1905.044952657358
 21
-571.2064522261446
 31
0.0
  0
LINE
  5
11E
330
39
100
AcDbEntity
  8
0
  6
Continuous
 62
     4
100
AcDbLine
 10
1905.092969002203
 20
-571.2303359054506
 30
0.0
 11
1905.069448302826
 21
-571.2172756276443
 31
0.0
  0
LINE
  5
11F
330
39
100
AcDbEntity
  8
0
  6
Continuous
 62
     4
100
AcDbLine
 10
1905.115321766164
 20
-571.2455330650948
 30
0.0
 11
1905.092969002203
 21
-571.2303359054506
 31
0.0
  0
LINE
  5
120
330
39
100
AcDbEntity
  8
0
  6
Continuous
 62
     4
100
AcDbLine
 10
1905.136362602671
 20
-571.2627541128243
 30
0.0
 11
1905.115321766164
 21
-571.2455330650948
 31
0.0
  0
LINE
  5
121
330
39
100
AcDbEntity
  8
0
  6
Continuous
 62
     4
100
AcDbLine
 10
1905.155907521898
 20
-571.2818620562132
 30
0.0
 11
1905.136362602671
 21
-571.2627541128243
 31
0.0
  0
LINE
  5
122
330
39
100
AcDbEntity
  8
0
  6
Continuous
 62
     4
100
AcDbLine
 10
1905.173820531364
 20
-571.3027149031161
 30
0.0
 11
1905.155907521898
 21
-571.2818620562132
 31
0.0
  0
LINE
  5
123
330
39
100
AcDbEntity
  8
0
  6
Continuous
 62
     4
100
AcDbLine
 10
1905.189971638258
 20
-571.325155662212
 30
0.0
 11
1905.173820531364
 21
-571.3027149031161
 31
0.0
  0
LINE
  5
124
330
39
100
AcDbEntity
  8
0
  6
Continuous
 62
     4
100
AcDbLine
 10
1905.204206851095
 20
-571.3490113430673
 30
0.0
 11
1905.189971638258
 21
-571.325155662212
 31
0.0
  0
LINE
  5
125
330
39
100
AcDbEntity
  8
0
  6
Continuous
 62
     4
100
AcDbLine
 10
1905.216444174409
 20
-571.3741009556882
 30
0.0
 11
1905.204206851095
 21
-571.3490113430673
 31
0.0
  0
LINE
  5
126
330
39
100
AcDbEntity
  8
0
  6
Continuous
 62
     4
100
AcDbLine
 10
1905.226597612955
 20
-571.4002325106951
 30
0.0
 11
1905.216444174409
 21
-571.3741009556882
 31
0.0
  0
LINE
  5
127
330
39
100
AcDbEntity
  8
0
  6
Continuous
 62
     4
100
AcDbLine
 10
1905.234570172098
 20
-571.4272090189772
 30
0.0
 11
1905.226597612955
 21
-571.4002325106951
 31
0.0
  0
LINE
  5
128
330
39
100
AcDbEntity
  8
0
  6
Continuous
 62
     4
100
AcDbLine
 10
1905.240306854877
 20
-571.4548234919832
 30
0.0
 11
1905.234570172098
 21
-571.4272090189772
 31
0.0
  0
LINE
  5
129
330
39
100
AcDbEntity
  8
0
  6
Continuous
 62
     4
100
AcDbLine
 10
1905.243770663339
 20
-571.4828659413226
 30
0.0
 11
1905.240306854877
 21
-571.4548234919832
 31
0.0
  0
LINE
  5
12A
330
39
100
AcDbEntity
  8
0
  6
Continuous
 62
     4
100
AcDbLine
 10
1905.245052592452
 20
-571.5111233787732
 30
0.0
 11
1905.243770663339
 21
-571.4828659413226
 31
0.0
  0
LINE
  5
12B
330
39
100
AcDbEntity
  8
0
  6
Continuous
 62
     4
100
AcDbLine
 10
1871.047432614891
 20
-571.1868993073606
 30
0.0
 11
1904.941007405208
 21
-571.1868973074709
 31
0.0
  0
LINE
  5
12C
330
39
100
AcDbEntity
  8
0
  6
Continuous
 62
     4
100
AcDbLine
 10
1869.045203331967
 20
-571.0790692700277
 30
0.0
 11
1869.0825592663
 21
-570.976931917907
 31
0.0
  0
LINE
  5
12D
330
39
100
AcDbEntity
  8
0
  6
Continuous
 62
     1
100
AcDbLine
 10
1541.957774539357
 20
-696.292738358847
 30
0.0
 11
1599.957774539357
 21
-696.292738358847
 31
0.0
  0
LINE
  5
12E
330
39
100
AcDbEntity
  8
0
  6
Continuous
 62
     1
100
AcDbLine
 10
1522.957774539357
 20
-624.292738358847
 30
0.0
 11
1599.957774539357
 21
-624.292738358847
 31
0.0
  0
LINE
  5
12F
330
39
100
AcDbEntity
  8
0
  6
Continuous
 62
     1
100
AcDbLine
 10
1551.957774539357
 20
-696.292738358847
 30
0.0
 11
1551.957774539357
 21
-714.292738358847
 31
0.0
  0
LINE
  5
130
330
39
100
AcDbEntity
  8
0
  6
Continuous
 62
     1
100
AcDbLine
 10
1551.957774539357
 20
-523.292738358847
 30
0.0
 11
1551.957774539357
 21
-624.292738358847
 31
0.0
  0
LINE
  5
131
330
39
100
AcDbEntity
  8
0
  6
Continuous
 62
     1
100
AcDbLine
 10
1546.957774539357
 20
-696.2925756921808
 30
0.0
 11
1546.95781587269
 21
-714.292738358847
 31
0.0
  0
LINE
  5
132
330
39
100
AcDbEntity
  8
0
  6
Continuous
 62
     1
100
AcDbLine
 10
1546.957774539357
 20
-518.2927383588469
 30
0.0
 11
1546.957774539357
 21
-624.292738358847
 31
0.0
  0
LINE
  5
133
330
39
100
AcDbEntity
  8
0
  6
Continuous
 62
     1
100
AcDbLine
 10
1489.79208387269
 20
-461.12607169218
 30
0.0
 11
1489.79208387269
 21
-714.292738358847
 31
0.0
  0
LINE
  5
134
330
39
100
AcDbEntity
  8
0
  6
Continuous
 62
     1
100
AcDbLine
 10
1489.79208387269
 20
-461.12607169218
 30
0.0
 11
2123.957937206024
 21
-461.12607169218
 31
0.0
  0
LINE
  5
135
330
39
100
AcDbEntity
  8
0
  6
Continuous
 62
     1
100
AcDbLine
 10
1546.957774539357
 20
-518.2927383588469
 30
0.0
 11
1489.79208387269
 21
-461.12607169218
 31
0.0
  0
LINE
  5
136
330
39
100
AcDbEntity
  8
0
  6
Continuous
 62
     1
100
AcDbLine
 10
1730.953135872691
 20
-518.2927383588469
 30
0.0
 11
2123.957937206024
 21
-518.2927383588469
 31
0.0
  0
LINE
  5
137
330
39
100
AcDbEntity
  8
0
  6
Continuous
 62
     1
100
AcDbLine
 10
1546.957774539357
 20
-518.2927383588469
 30
0.0
 11
1708.954111872691
 21
-518.2927383588469
 31
0.0
  0
LINE
  5
138
330
39
100
AcDbEntity
  8
0
  6
Continuous
 62
     1
100
AcDbLine
 10
1926.953135872691
 20
-523.2927383588469
 30
0.0
 11
2123.957937206024
 21
-523.292738358847
 31
0.0
  0
LINE
  5
139
330
39
100
AcDbEntity
  8
0
  6
Continuous
 62
     1
100
AcDbLine
 10
2088.45240387269
 20
-485.9932583588472
 30
0.0
 11
2088.452241206024
 21
-504.9941543588468
 31
0.0
  0
LINE
  5
13A
330
39
100
AcDbEntity
  8
0
  6
Continuous
 62
     1
100
AcDbLine
 10
2086.452729206024
 20
-485.9932583588472
 30
0.0
 11
2086.452729206024
 21
-506.4927703588466
 31
0.0
  0
LINE
  5
13B
330
39
100
AcDbEntity
  8
0
  6
DASH_CENTER
 62
     3
100
AcDbLine
 10
1581.957774539357
 20
-672.292738358847
 30
0.0
 11
1581.957774539357
 21
-692.292738358847
 31
0.0
  0
LINE
  5
13C
330
39
100
AcDbEntity
  8
0
  6
DASH_CENTER
 62
     3
100
AcDbLine
 10
1571.957774539357
 20
-682.292738358847
 30
0.0
 11
1591.957897206024
 21
-682.292738358847
 31
0.0
  0
LINE
  5
13D
330
39
100
AcDbEntity
  8
0
  6
DASH_CENTER
 62
     3
100
AcDbLine
 10
1571.957774539357
 20
-638.2926570255144
 30
0.0
 11
1591.957897206024
 21
-638.2926570255144
 31
0.0
  0
LINE
  5
13E
330
39
100
AcDbEntity
  8
0
  6
DASH_CENTER
 62
     3
100
AcDbLine
 10
1581.957774539357
 20
-628.2926570255144
 30
0.0
 11
1581.957774539357
 21
-648.292738358847
 31
0.0
  0
LINE
  5
13F
330
39
100
AcDbEntity
  8
0
  6
Continuous
 62
     1
100
AcDbLine
 10
1585.953135872691
 20
-679.2864716921807
 30
0.0
 11
1578.951670539357
 21
-686.2880996921807
 31
0.0
  0
LINE
  5
140
330
39
100
AcDbEntity
  8
0
  6
Continuous
 62
     1
100
AcDbLine
 10
1584.96302387269
 20
-678.29664369218
 30
0.0
 11
1577.961681206024
 21
-685.2978650255149
 31
0.0
  0
LINE
  5
141
330
39
100
AcDbEntity
  8
0
  6
Continuous
 62
     1
100
AcDbLine
 10
1585.952891872691
 20
-635.285983692181
 30
0.0
 11
1578.951061206024
 21
-642.2876930255146
 31
0.0
  0
LINE
  5
142
330
39
100
AcDbEntity
  8
0
  6
Continuous
 62
     1
100
AcDbLine
 10
1584.962535872691
 20
-634.2963183588475
 30
0.0
 11
1577.961437206024
 21
-641.2974583588478
 31
0.0
  0
LINE
  5
143
330
39
100
AcDbEntity
  8
0
  6
Continuous
 62
     1
100
AcDbLine
 10
1553.957774539357
 20
-696.292738358847
 30
0.0
 11
1553.957774539357
 21
-624.292738358847
 31
0.0
  0
LINE
  5
144
330
39
100
AcDbEntity
  8
0
  6
Continuous
 62
     1
100
AcDbLine
 10
1522.957774539357
 20
-700.292738358847
 30
0.0
 11
1522.957774539357
 21
-620.2926570255144
 31
0.0
  0
LINE
  5
145
330
39
100
AcDbEntity
  8
0
  6
Continuous
 62
     1
100
AcDbLine
 10
1536.957774539357
 20
-700.292738358847
 30
0.0
 11
1536.957774539357
 21
-620.2926570255144
 31
0.0
  0
LINE
  5
146
330
39
100
AcDbEntity
  8
0
  6
Continuous
 62
     1
100
AcDbLine
 10
1536.957774539357
 20
-696.292738358847
 30
0.0
 11
1522.957774539357
 21
-696.292738358847
 31
0.0
  0
LINE
  5
147
330
39
100
AcDbEntity
  8
0
  6
Continuous
 62
     1
100
AcDbLine
 10
1541.957774539357
 20
-660.292738358847
 30
0.0
 11
1522.957774539357
 21
-660.292738358847
 31
0.0
  0
LINE
  5
148
330
39
100
AcDbEntity
  8
0
  6
Continuous
 62
     1
100
AcDbLine
 10
1541.957774539357
 20
-696.292738358847
 30
0.0
 11
1541.957774539357
 21
-660.292738358847
 31
0.0
  0
LINE
  5
149
330
39
100
AcDbEntity
  8
0
  6
Continuous
 62
     1
100
AcDbLine
 10
1599.957774539357
 20
-624.292738358847
 30
0.0
 11
1599.957774539357
 21
-696.292738358847
 31
0.0
  0
LINE
  5
14A
330
39
100
AcDbEntity
  8
0
  6
Continuous
 62
     1
100
AcDbLine
 10
1536.957774539357
 20
-620.2926570255144
 30
0.0
 11
1522.957774539357
 21
-620.2926570255144
 31
0.0
  0
LINE
  5
14B
330
39
100
AcDbEntity
  8
0
  6
Continuous
 62
     1
100
AcDbLine
 10
1522.957774539357
 20
-700.292738358847
 30
0.0
 11
1536.957774539357
 21
-700.292738358847
 31
0.0
  0
LINE
  5
14C
330
39
100
AcDbEntity
  8
0
  6
DASH_CENTER
 62
     3
100
AcDbLine
 10
1649.957449206024
 20
-489.2928196921805
 30
0.0
 11
1649.957449206024
 21
-503.2922490255134
 31
0.0
  0
LINE
  5
14D
330
39
100
AcDbEntity
  8
0
  6
DASH_CENTER
 62
     3
100
AcDbLine
 10
1642.957205206024
 20
-496.2927383588469
 30
0.0
 11
1656.956961206024
 21
-496.2927383588469
 31
0.0
  0
LINE
  5
14E
330
39
100
AcDbEntity
  8
0
  6
Continuous
 62
     1
100
AcDbLine
 10
1708.954111872691
 20
-515.9419727893776
 30
0.0
 11
1708.954111872691
 21
-509.9423794560447
 31
0.0
  0
LINE
  5
14F
330
39
100
AcDbEntity
  8
0
  6
DASH_CENTER
 62
     3
100
AcDbLine
 10
2078.446543872691
 20
-489.2928196921805
 30
0.0
 11
2078.446543872691
 21
-503.2922490255134
 31
0.0
  0
LINE
  5
150
330
39
100
AcDbEntity
  8
0
  6
DASH_CENTER
 62
     3
100
AcDbLine
 10
2071.447031872691
 20
-496.2927383588469
 30
0.0
 11
2085.446055872691
 21
-496.2927383588469
 31
0.0
  0
LINE
  5
151
330
39
100
AcDbEntity
  8
0
  6
Continuous
 62
     1
100
AcDbLine
 10
2060.935475872691
 20
-509.9423794560447
 30
0.0
 11
2060.935475872691
 21
-515.9419727893776
 31
0.0
  0
LINE
  5
152
330
39
100
AcDbEntity
  8
0
  6
Continuous
 62
     4
100
AcDbLine
 10
2044.935965206024
 20
-509.9423794560447
 30
0.0
 11
2044.935965206024
 21
-506.6424127893781
 31
0.0
  0
LINE
  5
153
330
39
100
AcDbEntity
  8
0
  6
Continuous
 62
     4
100
AcDbLine
 10
2054.935475872691
 20
-509.9423794560447
 30
0.0
 11
2054.935475872691
 21
-506.6424127893781
 31
0.0
  0
LINE
  5
154
330
39
100
AcDbEntity
  8
0
  6
Continuous
 62
     1
100
AcDbLine
 10
1639.957937206024
 20
-504.9920383588471
 30
0.0
 11
1639.957937206024
 21
-485.9932583588472
 31
0.0
  0
LINE
  5
155
330
39
100
AcDbEntity
  8
0
  6
Continuous
 62
     4
100
AcDbLine
 10
1703.703949206024
 20
-586.4793436921802
 30
0.0
 11
1703.703949206024
 21
-586.0427383588469
 31
0.0
  0
LINE
  5
156
330
39
100
AcDbEntity
  8
0
  6
Continuous
 62
     4
100
AcDbLine
 10
1736.202647872691
 20
-586.4793436921802
 30
0.0
 11
1736.202647872691
 21
-586.0427383588469
 31
0.0
  0
LINE
  5
157
330
39
100
AcDbEntity
  8
0
  6
Continuous
 62
     4
100
AcDbLine
 10
1711.953461206024
 20
-591.2426903588469
 30
0.0
 11
1703.703949206024
 21
-586.4793436921802
 31
0.0
  0
LINE
  5
158
330
39
100
AcDbEntity
  8
0
  6
Continuous
 62
     4
100
AcDbLine
 10
1727.953135872691
 20
-591.2426903588469
 30
0.0
 11
1736.202647872691
 21
-586.4793436921802
 31
0.0
  0
LINE
  5
159
330
39
100
AcDbEntity
  8
0
  6
Continuous
 62
     4
100
AcDbLine
 10
1711.953461206024
 20
-591.2426903588469
 30
0.0
 11
1727.953135872691
 21
-591.2426903588469
 31
0.0
  0
LINE
  5
15A
330
39
100
AcDbEntity
  8
0
  6
Continuous
 62
     1
100
AcDbLine
 10
2060.935475872691
 20
-515.9419727893776
 30
0.0
 11
1708.954111872691
 21
-515.9419727893776
 31
0.0
  0
LINE
  5
15B
330
39
100
AcDbEntity
  8
0
  6
Continuous
 62
     4
100
AcDbLine
 10
2045.685802539358
 20
-516.9418914560449
 30
0.0
 11
2044.686290539357
 21
-515.9419727893776
 31
0.0
  0
LINE
  5
15C
330
39
100
AcDbEntity
  8
0
  6
Continuous
 62
     4
100
AcDbLine
 10
2054.185802539358
 20
-516.9418914560449
 30
0.0
 11
2055.185313206024
 21
-515.9419727893776
 31
0.0
  0
LINE
  5
15D
330
39
100
AcDbEntity
  8
0
  6
Continuous
 62
     4
100
AcDbLine
 10
2045.685802539358
 20
-516.9418914560449
 30
0.0
 11
2054.185802539358
 21
-516.9418914560449
 31
0.0
  0
LINE
  5
15E
330
39
100
AcDbEntity
  8
0
  6
DASH_CENTER
 62
     3
100
AcDbLine
 10
2049.935802539358
 20
-519.9414847893779
 30
0.0
 11
2049.935802539358
 21
-499.9424607893782
 31
0.0
  0
LINE
  5
15F
330
39
100
AcDbEntity
  8
0
  6
Continuous
 62
     1
100
AcDbLine
 10
1708.954111872691
 20
-509.9423794560447
 30
0.0
 11
2060.935475872691
 21
-509.9423794560447
 31
0.0
  0
LINE
  5
160
330
39
100
AcDbEntity
  8
0
  6
Continuous
 62
     4
100
AcDbLine
 10
1651.583262539358
 20
-494.6665170255139
 30
0.0
 11
1648.330821206024
 21
-497.918958358847
 31
0.0
  0
LINE
  5
161
330
39
100
AcDbEntity
  8
0
  6
Continuous
 62
     4
100
AcDbLine
 10
1648.330821206024
 20
-494.6665170255139
 30
0.0
 11
1651.583262539358
 21
-497.918958358847
 31
0.0
  0
LINE
  5
162
330
39
100
AcDbEntity
  8
0
  6
Continuous
 62
     1
100
AcDbLine
 10
1641.457530539357
 20
-506.4920383588471
 30
0.0
 11
1641.957693206025
 21
-506.4920383588471
 31
0.0
  0
LINE
  5
163
330
39
100
AcDbEntity
  8
0
  6
Continuous
 62
     1
100
AcDbLine
 10
1641.957693206025
 20
-485.9932583588472
 30
0.0
 11
1639.957937206024
 21
-485.9932583588472
 31
0.0
  0
LINE
  5
164
330
39
100
AcDbEntity
  8
0
  6
Continuous
 62
     4
100
AcDbLine
 10
2080.072194539358
 20
-494.6665170255139
 30
0.0
 11
2076.819753206024
 21
-497.9187143588472
 31
0.0
  0
LINE
  5
165
330
39
100
AcDbEntity
  8
0
  6
Continuous
 62
     4
100
AcDbLine
 10
2076.819753206024
 20
-494.6665170255139
 30
0.0
 11
2080.072194539358
 21
-497.9187143588472
 31
0.0
  0
LINE
  5
166
330
39
100
AcDbEntity
  8
0
  6
Continuous
 62
     1
100
AcDbLine
 10
2086.452729206024
 20
-485.9932583588472
 30
0.0
 11
2088.45240387269
 21
-485.9932583588472
 31
0.0
  0
LINE
  5
167
330
39
100
AcDbEntity
  8
0
  6
Continuous
 62
     1
100
AcDbLine
 10
1641.957693206025
 20
-506.6424127893781
 30
0.0
 11
2087.031987820827
 21
-506.6424127893781
 31
0.0
  0
LINE
  5
168
330
39
100
AcDbEntity
  8
0
  6
Continuous
 62
     1
100
AcDbLine
 10
1641.957693206025
 20
-485.9932583588472
 30
0.0
 11
1641.957693206025
 21
-506.4920383588471
 31
0.0
  0
LINE
  5
169
330
39
100
AcDbEntity
  8
0
  6
Continuous
 62
     1
100
AcDbLine
 10
2086.452729206024
 20
-486.1436327893782
 30
0.0
 11
1641.957693206025
 21
-486.1436327893782
 31
0.0
  0
LINE
  5
16A
330
39
100
AcDbEntity
  8
0
  6
DASH_CENTER
 62
     3
100
AcDbLine
 10
1719.953135872691
 20
-506.9419727893776
 30
0.0
 11
1719.953135872691
 21
-598.6854621227114
 31
0.0
  0
LINE
  5
16B
330
39
100
AcDbEntity
  8
0
  6
Continuous
 62
     4
100
AcDbLine
 10
1708.954111872691
 20
-517.7056447893776
 30
0.0
 11
1730.953135872691
 21
-517.7056447893776
 31
0.0
  0
LINE
  5
16C
330
39
100
AcDbEntity
  8
0
  6
Continuous
 62
     4
100
AcDbLine
 10
1730.953135872691
 20
-517.7056447893776
 30
0.0
 11
1729.934825206025
 21
-515.9419727893776
 31
0.0
  0
LINE
  5
16D
330
39
100
AcDbEntity
  8
0
  6
Continuous
 62
     4
100
AcDbLine
 10
1709.972503872691
 20
-515.9419727893776
 30
0.0
 11
1708.954111872691
 21
-517.7056447893776
 31
0.0
  0
LINE
  5
16E
330
39
100
AcDbEntity
  8
0
  6
DASH_CENTER
 62
     3
100
AcDbLine
 10
1529.957774539357
 20
-586.5428196921815
 30
0.0
 11
1529.957774539357
 21
-714.2926570255144
 31
0.0
  0
LINE
  5
16F
330
39
100
AcDbEntity
  8
0
  6
DASH_CENTER
 62
     3
100
AcDbLine
 10
2123.958587872691
 20
-714.2926570255144
 30
0.0
 11
1474.291107872691
 21
-714.2926570255144
 31
0.0
  0
LINE
  5
170
330
39
100
AcDbEntity
  8
0
  6
DASH_CENTER
 62
     3
100
AcDbLine
 10
2123.958587872691
 20
-457.3261036921807
 30
0.0
 11
2123.958587872691
 21
-714.2926570255144
 31
0.0
  0
LINE
  5
171
330
39
100
AcDbEntity
  8
0
  6
Continuous
 62
     3
100
AcDbLine
 10
1623.203135872687
 20
-504.2927383588478
 30
0.0
 11
1623.203135872687
 21
-503.9335150578802
 31
0.0
  0
LINE
  5
172
330
39
100
AcDbEntity
  8
0
  6
DASH_CENTER
 62
     3
100
AcDbLine
 10
1620.20681065328
 20
-475.3987336763268
 30
0.0
 11
1620.20681065328
 21
-503.1867430413761
 31
0.0
  0
LINE
  5
173
330
39
100
AcDbEntity
  8
0
  6
Continuous
 62
     3
100
AcDbLine
 10
1621.154474697037
 20
-504.1853725761296
 30
0.0
 11
1623.203135872687
 21
-504.2927383588478
 31
0.0
  0
LINE
  5
174
330
39
100
AcDbEntity
  8
0
  6
Continuous
 62
     3
100
AcDbLine
 10
1621.154474697037
 20
-474.4001041415661
 30
0.0
 11
1623.203135872687
 21
-474.292738358846
 31
0.0
  0
LINE
  5
175
330
39
100
AcDbEntity
  8
0
  6
DASH_CENTER
 62
     3
100
AcDbLine
 10
1623.203135872687
 20
-504.2927383588478
 30
0.0
 11
1623.203135872687
 21
-474.292738358846
 31
0.0
  0
LINE
  5
176
330
39
100
AcDbEntity
  8
0
  6
DASH_CENTER
 62
     3
100
AcDbLine
 10
2105.203135872689
 20
-504.2927383588478
 30
0.0
 11
2055.235802539353
 21
-504.2927383588478
 31
0.0
  0
LINE
  5
177
330
39
100
AcDbEntity
  8
0
  6
DASH_CENTER
 62
     3
100
AcDbLine
 10
2105.203135872689
 20
-474.292738358846
 30
0.0
 11
1623.203135872687
 21
-474.292738358846
 31
0.0
  0
LINE
  5
178
330
39
100
AcDbEntity
  8
0
  6
Continuous
 62
     3
100
AcDbLine
 10
2044.435802539354
 20
-508.9423794560437
 30
0.0
 11
2043.185802539359
 21
-508.9423794560437
 31
0.0
  0
LINE
  5
179
330
39
100
AcDbEntity
  8
0
  6
DASH_CENTER
 62
     3
100
AcDbLine
 10
2055.435802539361
 20
-508.9423794560437
 30
0.0
 11
2044.435802539354
 21
-508.9423794560437
 31
0.0
  0
LINE
  5
17A
330
39
100
AcDbEntity
  8
0
  6
Continuous
 62
     3
100
AcDbLine
 10
2056.685802539356
 20
-508.9423794560437
 30
0.0
 11
2055.435802539361
 21
-508.9423794560437
 31
0.0
  0
LINE
  5
17B
330
39
100
AcDbEntity
  8
0
  6
DASH_CENTER
 62
     3
100
AcDbLine
 10
2045.935802539342
 20
-507.4423794560528
 30
0.0
 11
2045.935802539392
 21
-504.2927383588478
 31
0.0
  0
LINE
  5
17C
330
39
100
AcDbEntity
  8
0
  6
DASH_CENTER
 62
     3
100
AcDbLine
 10
2053.935802539345
 20
-507.4423794560237
 30
0.0
 11
2053.935802539345
 21
-504.2927383588478
 31
0.0
  0
LINE
  5
17D
330
39
100
AcDbEntity
  8
0
  6
DASH_CENTER
 62
     3
100
AcDbLine
 10
2062.685802539365
 20
-504.2927383588478
 30
0.0
 11
2062.685802539356
 21
-508.4409297734786
 31
0.0
  0
LINE
  5
17E
330
39
100
AcDbEntity
  8
0
  6
DASH_CENTER
 62
     3
100
AcDbLine
 10
1616.775860617605
 20
-489.292738358846
 30
0.0
 11
1640.457937206023
 21
-489.292738358846
 31
0.0
  0
LINE
  5
17F
330
39
100
AcDbEntity
  8
0
  6
DASH_CENTER
 62
     3
100
AcDbLine
 10
2037.185802539359
 20
-508.4409297734786
 30
0.0
 11
2037.18580253935
 21
-504.2927383588478
 31
0.0
  0
LINE
  5
180
330
39
100
AcDbEntity
  8
1
  6
Continuous
 62
     3
100
AcDbLine
 10
2056.685802539356
 20
-508.4419727893804
 30
0.0
 11
2056.735802539361
 21
-508.4419727893804
 31
0.0
  0
LINE
  5
181
330
39
100
AcDbEntity
  8
1
  6
DASH_CENTER
 62
     3
100
AcDbLine
 10
2105.203135872689
 20
-474.292738358846
 30
0.0
 11
2105.203135872689
 21
-504.2927383588478
 31
0.0
  0
LINE
  5
182
330
39
100
AcDbEntity
  8
1
  6
Continuous
 62
     3
100
AcDbLine
 10
2055.235802539353
 20
-504.2927383588478
 30
0.0
 11
2055.235802539353
 21
-506.0419727893789
 31
0.0
  0
LINE
  5
183
330
39
100
AcDbEntity
  8
0
  6
Continuous
 62
     3
100
AcDbLine
 10
2055.235802539353
 20
-504.2927383588478
 30
0.0
 11
2044.635802539353
 21
-504.2927383588478
 31
0.0
  0
LINE
  5
184
330
39
100
AcDbEntity
  8
1
  6
Continuous
 62
     3
100
AcDbLine
 10
2055.735802539353
 20
-506.5419727893789
 30
0.0
 11
2056.735802539357
 21
-506.5419727893789
 31
0.0
  0
LINE
  5
185
330
39
100
AcDbEntity
  8
0
  6
DASH_CENTER
 62
     3
100
AcDbLine
 10
2056.735802539357
 20
-506.5419727893789
 30
0.0
 11
2056.735802539361
 21
-508.4419727893804
 31
0.0
  0
LINE
  5
186
330
39
100
AcDbEntity
  8
1
  6
Continuous
 62
     3
100
AcDbLine
 10
2044.635802539353
 20
-504.2927383588478
 30
0.0
 11
2044.635802539353
 21
-506.0419727893789
 31
0.0
  0
LINE
  5
187
330
39
100
AcDbEntity
  8
0
  6
DASH_CENTER
 62
     3
100
AcDbLine
 10
2044.635802539353
 20
-504.2927383588478
 30
0.0
 11
2037.18580253935
 21
-504.2927383588478
 31
0.0
  0
LINE
  5
188
330
39
100
AcDbEntity
  8
1
  6
Continuous
 62
     3
100
AcDbLine
 10
2044.135802539353
 20
-506.5419727893789
 30
0.0
 11
2043.13580253936
 21
-506.5419727893789
 31
0.0
  0
LINE
  5
189
330
39
100
AcDbEntity
  8
1
  6
DOT_CENTER
 62
     3
100
AcDbLine
 10
1653.257937206023
 20
-496.292738358846
 30
0.0
 11
1646.657937206024
 21
-496.292738358846
 31
0.0
  0
LINE
  5
18A
330
39
100
AcDbEntity
  8
1
  6
DOT_CENTER
 62
     3
100
AcDbLine
 10
1649.957937206023
 20
-492.9927383588467
 30
0.0
 11
1649.957937206023
 21
-499.5927383588471
 31
0.0
  0
LINE
  5
18B
330
39
100
AcDbEntity
  8
1
  6
DOT_CENTER
 62
     3
100
AcDbLine
 10
1653.257937206023
 20
-482.292738358846
 30
0.0
 11
1646.657937206024
 21
-482.292738358846
 31
0.0
  0
LINE
  5
18C
330
39
100
AcDbEntity
  8
1
  6
DOT_CENTER
 62
     3
100
AcDbLine
 10
1649.957937206023
 20
-478.9927383588467
 30
0.0
 11
1649.957937206023
 21
-485.5927383588471
 31
0.0
  0
LINE
  5
18D
330
39
100
AcDbEntity
  8
1
  6
DOT_CENTER
 62
     3
100
AcDbLine
 10
2081.757937206023
 20
-496.292738358846
 30
0.0
 11
2075.157937206022
 21
-496.292738358846
 31
0.0
  0
LINE
  5
18E
330
39
100
AcDbEntity
  8
1
  6
DOT_CENTER
 62
     3
100
AcDbLine
 10
2078.457937206023
 20
-492.9927383588467
 30
0.0
 11
2078.457937206023
 21
-499.5927383588471
 31
0.0
  0
LINE
  5
18F
330
39
100
AcDbEntity
  8
1
  6
DOT_CENTER
 62
     3
100
AcDbLine
 10
2081.757937206023
 20
-482.292738358846
 30
0.0
 11
2075.157937206022
 21
-482.292738358846
 31
0.0
  0
LINE
  5
190
330
39
100
AcDbEntity
  8
1
  6
DOT_CENTER
 62
     3
100
AcDbLine
 10
2078.457937206023
 20
-478.9927383588467
 30
0.0
 11
2078.457937206023
 21
-485.5927383588471
 31
0.0
  0
LINE
  5
191
330
39
100
AcDbEntity
  8
1
  6
DOT_CENTER
 62
     3
100
AcDbLine
 10
1641.207937206023
 20
-489.292738358846
 30
0.0
 11
1624.707937206023
 21
-489.292738358846
 31
0.0
  0
LINE
  5
192
330
39
100
AcDbEntity
  8
1
  6
DOT_CENTER
 62
     3
100
AcDbLine
 10
1632.957937206023
 20
-481.042738358846
 30
0.0
 11
1632.957937206023
 21
-497.542738358846
 31
0.0
  0
LINE
  5
193
330
39
100
AcDbEntity
  8
1
  6
Continuous
 62
     3
100
AcDbLine
 10
2026.008377406284
 20
-453.6297105518449
 30
0.0
 11
2037.860229258135
 21
-480.1308499609929
 31
0.0
  0
LINE
  5
194
330
39
100
AcDbEntity
  8
1
  6
Continuous
 62
     3
100
AcDbLine
 10
2003.341710739617
 20
-468.9359790200622
 30
0.0
 11
2015.193562591468
 21
-492.1308499609929
 31
0.0
  0
LINE
  5
195
330
39
100
AcDbEntity
  8
0
  6
Continuous
 62
     3
100
AcDbLine
 10
1918.299819292027
 20
-560.1521192612335
 30
0.0
 11
1936.186330580715
 21
-572.836126509276
 31
0.0
  0
LINE
  5
196
330
39
100
AcDbEntity
  8
0
  6
Continuous
 62
     3
100
AcDbLine
 10
1918.299819292027
 20
-523.2927383588469
 30
0.0
 11
1936.186330580715
 21
-538.6260716921802
 31
0.0
  0
LINE
  5
197
330
39
100
AcDbEntity
  8
0
  6
Continuous
 62
     3
100
AcDbLine
 10
1837.741886136268
 20
-577.4854525945667
 30
0.0
 11
1827.852997247381
 21
-596.8187859279001
 31
0.0
  0
LINE
  5
198
330
39
100
AcDbEntity
  8
1
  6
DASH_CENTER
 62
     3
100
AcDbLine
 10
2043.185802539359
 20
-509.9423794560437
 30
0.0
 11
2056.685802539356
 21
-509.9423794560437
 31
0.0
  0
LINE
  5
199
330
39
100
AcDbEntity
  8
0
  6
DASH_CENTER
 62
     3
100
AcDbLine
 10
2108.203135872689
 20
-503.1867430413761
 30
0.0
 11
2108.203135872689
 21
-475.3987336763268
 31
0.0
  0
LINE
  5
19A
330
39
100
AcDbEntity
  8
0
  6
DASH_CENTER
 62
     3
100
AcDbLine
 10
2107.255471828926
 20
-474.4001041415661
 30
0.0
 11
2105.203135872689
 21
-474.292738358846
 31
0.0
  0
LINE
  5
19B
330
39
100
AcDbEntity
  8
0
  6
Continuous
 62
     3
100
AcDbLine
 10
2107.255471828926
 20
-504.1853725761296
 30
0.0
 11
2105.203135872689
 21
-504.2927383588478
 31
0.0
  0
LINE
  5
19C
330
39
100
AcDbEntity
  8
0
  6
Continuous
 62
     3
100
AcDbLine
 10
2037.185802539359
 20
-509.2419727893796
 30
0.0
 11
2037.185802539359
 21
-508.4409297734786
 31
0.0
  0
LINE
  5
19D
330
39
100
AcDbEntity
  8
0
  6
DASH_CENTER
 62
     3
100
AcDbLine
 10
2043.135802539355
 20
-509.2419727893796
 30
0.0
 11
2043.13580253936
 21
-506.5419727893789
 31
0.0
  0
LINE
  5
19E
330
39
100
AcDbEntity
  8
0
  6
DASH_CENTER
 62
     3
100
AcDbLine
 10
2056.735802539362
 20
-509.2419727893796
 30
0.0
 11
2062.685802539354
 21
-509.2419727893796
 31
0.0
  0
LINE
  5
19F
330
39
100
AcDbEntity
  8
0
  6
DASH_CENTER
 62
     3
100
AcDbLine
 10
2037.185802539359
 20
-509.2419727893796
 30
0.0
 11
2043.135802539355
 21
-509.2419727893796
 31
0.0
  0
LINE
  5
1A0
330
39
100
AcDbEntity
  8
1
  6
Continuous
 62
     3
100
AcDbLine
 10
2056.685802539356
 20
-508.9423794560437
 30
0.0
 11
2056.685802539356
 21
-509.9423794560437
 31
0.0
  0
LINE
  5
1A1
330
39
100
AcDbEntity
  8
1
  6
Continuous
 62
     3
100
AcDbLine
 10
2043.185802539359
 20
-508.9423794560437
 30
0.0
 11
2043.185802539359
 21
-509.9423794560437
 31
0.0
  0
LINE
  5
1A2
330
39
100
AcDbEntity
  8
0
  6
Continuous
 62
     3
100
AcDbLine
 10
2056.735802539361
 20
-508.4419727893804
 30
0.0
 11
2056.735802539362
 21
-509.2419727893796
 31
0.0
  0
LINE
  5
1A3
330
39
100
AcDbEntity
  8
0
  6
Continuous
 62
     3
100
AcDbLine
 10
2062.685802539356
 20
-508.4409297734786
 30
0.0
 11
2062.685802539354
 21
-509.2419727893796
 31
0.0
  0
LINE
  5
1A4
330
39
100
AcDbEntity
  8
0
  6
Continuous
 62
     1
100
AcDbLine
 10
1730.953135872691
 20
-517.7056447893776
 30
0.0
 11
1730.953135872691
 21
-519.2927383588469
 31
0.0
  0
LINE
  5
1A5
330
39
100
AcDbEntity
  8
0
  6
DASH_CENTER
 62
     3
100
AcDbLine
 10
2037.18580253935
 20
-504.2927383588478
 30
0.0
 11
1623.203135872687
 21
-504.2927383588478
 31
0.0
  0
LINE
  5
1A6
330
39
100
AcDbEntity
  8
1
  6
Continuous
 62
     1
100
AcDbLine
 10
1639.953135872691
 20
-526.0427383588469
 30
0.0
 11
1639.953135872691
 21
-523.292738358847
 31
0.0
  0
LINE
  5
1A7
330
39
100
AcDbEntity
  8
1
  6
Continuous
 62
     1
100
AcDbLine
 10
1926.953135872691
 20
-526.0427383588469
 30
0.0
 11
1926.953135872691
 21
-519.2927383588469
 31
0.0
  0
LINE
  5
1A8
330
39
100
AcDbEntity
  8
1
  6
Continuous
 62
     1
100
AcDbLine
 10
1926.953135872691
 20
-519.2927383588469
 30
0.0
 11
1865.957937206024
 21
-519.2927383588469
 31
0.0
  0
LINE
  5
1A9
330
39
100
AcDbEntity
  8
1
  6
Continuous
 62
     1
100
AcDbLine
 10
1639.953135872691
 20
-519.2927383588469
 30
0.0
 11
1708.954111872691
 21
-519.2927383588469
 31
0.0
  0
LINE
  5
1AA
330
39
100
AcDbEntity
  8
0
  6
Continuous
 62
     1
100
AcDbLine
 10
1708.954111872691
 20
-519.2927383588469
 30
0.0
 11
1708.954111872691
 21
-517.7056447893776
 31
0.0
  0
LINE
  5
1AB
330
39
100
AcDbEntity
  8
0
  6
Continuous
 62
     1
100
AcDbLine
 10
1730.953135872691
 20
-519.2927383588469
 30
0.0
 11
1730.953135872691
 21
-526.0427383588469
 31
0.0
  0
LINE
  5
1AC
330
39
100
AcDbEntity
  8
1
  6
Continuous
 62
     1
100
AcDbLine
 10
1551.957774539357
 20
-523.292738358847
 30
0.0
 11
1639.953135872691
 21
-523.292738358847
 31
0.0
  0
LINE
  5
1AD
330
39
100
AcDbEntity
  8
1
  6
Continuous
 62
     1
100
AcDbLine
 10
1639.953135872691
 20
-523.292738358847
 30
0.0
 11
1639.953135872691
 21
-519.2927383588469
 31
0.0
  0
LINE
  5
1AE
330
39
100
AcDbEntity
  8
1
  6
Continuous
 62
     1
100
AcDbLine
 10
1865.957937206024
 20
-519.2927383588469
 30
0.0
 11
1730.953135872691
 21
-519.2927383588469
 31
0.0
  0
LINE
  5
1AF
330
39
100
AcDbEntity
  8
0
  6
Continuous
 62
     3
100
AcDbLine
 10
1648.55056171207
 20
-523.2927383588469
 30
0.0
 11
1627.186330580714
 21
-541.6260716921803
 31
0.0
  0
ARC
  5
1B0
330
39
100
AcDbEntity
  8
0
  6
Continuous
 62
     1
100
AcDbCircle
 10
2086.952241206024
 20
-504.9941543588468
 30
0.0
 40
1.500005333333639
100
AcDbArc
 50
-86.95247776981714
 51
0.0
  0
ARC
  5
1B1
330
39
100
AcDbEntity
  8
0
  6
Continuous
 62
     1
100
AcDbCircle
 10
1581.957774539358
 20
-638.2926570255144
 30
0.0
 40
5.000064000000208
100
AcDbArc
 50
-126.9655759999971
 51
36.96464300000139
  0
ARC
  5
1B2
330
39
100
AcDbEntity
  8
0
  6
Continuous
 62
     1
100
AcDbCircle
 10
1581.957774539358
 20
-638.2926570255144
 30
0.0
 40
4.999954666667792
100
AcDbArc
 50
-143.0609070000022
 51
-126.9655760000046
  0
ARC
  5
1B3
330
39
100
AcDbEntity
  8
0
  6
Continuous
 62
     1
100
AcDbCircle
 10
1581.957774539358
 20
-638.2926570255144
 30
0.0
 40
4.999930666666279
100
AcDbArc
 50
53.06127899999509
 51
-143.0609069999989
  0
ARC
  5
1B4
330
39
100
AcDbEntity
  8
0
  6
Continuous
 62
     1
100
AcDbCircle
 10
1581.957774539358
 20
-638.2926570255144
 30
0.0
 40
5.000103999999069
100
AcDbArc
 50
36.9646430000095
 51
53.06127900000702
  0
ARC
  5
1B5
330
39
100
AcDbEntity
  8
0
  6
Continuous
 62
     1
100
AcDbCircle
 10
1581.957774539357
 20
-682.292738358847
 30
0.0
 40
4.999957333333694
100
AcDbArc
 50
-126.9577449999858
 51
36.95923499999022
  0
ARC
  5
1B6
330
39
100
AcDbEntity
  8
0
  6
Continuous
 62
     1
100
AcDbCircle
 10
1581.957774539357
 20
-682.292738358847
 30
0.0
 40
4.999954666666699
100
AcDbArc
 50
-143.0562439999838
 51
-126.9577449999969
  0
ARC
  5
1B7
330
39
100
AcDbEntity
  8
0
  6
Continuous
 62
     1
100
AcDbCircle
 10
1581.957774539357
 20
-682.292738358847
 30
0.0
 40
5.000029333333488
100
AcDbArc
 50
53.05512599998693
 51
-143.0562439999963
  0
ARC
  5
1B8
330
39
100
AcDbEntity
  8
0
  6
Continuous
 62
     1
100
AcDbCircle
 10
1581.957774539357
 20
-682.292738358847
 30
0.0
 40
5.000054666666595
100
AcDbArc
 50
36.95923499998108
 51
53.05512599998776
  0
ARC
  5
1B9
330
39
100
AcDbEntity
  8
0
  6
Continuous
 62
     1
100
AcDbCircle
 10
1641.457530539357
 20
-504.9920383588471
 30
0.0
 40
1.499593333332996
100
AcDbArc
 50
180.0
 51
-90.0
  0
ARC
  5
1BA
330
39
100
AcDbEntity
  8
0
  6
Continuous
 62
     1
100
AcDbCircle
 10
2086.952241206024
 20
-504.9941543588468
 30
0.0
 40
1.500005333333264
100
AcDbArc
 50
-90.16164100000533
 51
-86.95247776981714
  0
ARC
  5
1BB
330
39
100
AcDbEntity
  8
0
  6
Continuous
 62
     3
100
AcDbCircle
 10
1621.206810653284
 20
-503.1867430413761
 30
0.0
 40
1.000000000004093
100
AcDbArc
 50
180.0
 51
-93.00000000024285
  0
ARC
  5
1BC
330
39
100
AcDbEntity
  8
0
  6
Continuous
 62
     3
100
AcDbCircle
 10
1621.206810653284
 20
-475.3987336763268
 30
0.0
 40
1.000000000006347
100
AcDbArc
 50
93.00000000022136
 51
180.0
  0
ARC
  5
1BD
330
39
100
AcDbEntity
  8
0
  6
Continuous
 62
     3
100
AcDbCircle
 10
2044.435802539337
 20
-507.4423794560291
 30
0.0
 40
1.500000000013311
100
AcDbArc
 50
-19.58151096900199
 51
-0.00000000090541
  0
ARC
  5
1BE
330
39
100
AcDbEntity
  8
0
  6
Continuous
 62
     3
100
AcDbCircle
 10
2055.435802539365
 20
-507.4423794560237
 30
0.0
 40
1.500000000020009
100
AcDbArc
 50
180.0
 51
-90.00000000015633
  0
ARC
  5
1BF
330
39
100
AcDbEntity
  8
0
  6
Continuous
 62
     3
100
AcDbCircle
 10
2044.435802539339
 20
-507.442379456031
 30
0.0
 40
1.500000000012676
100
AcDbArc
 50
-89.99999999942679
 51
-19.58151096895863
  0
ARC
  5
1C0
330
39
100
AcDbEntity
  8
0
  6
DASH_CENTER
 62
     3
100
AcDbCircle
 10
2107.203135872693
 20
-475.3987336763268
 30
0.0
 40
0.9999999999959073
100
AcDbArc
 50
0.0
 51
87.00000000058525
  0
ARC
  5
1C1
330
39
100
AcDbEntity
  8
0
  6
DASH_CENTER
 62
     3
100
AcDbCircle
 10
2107.203135872693
 20
-503.1867430413761
 30
0.0
 40
0.9999999999984565
100
AcDbArc
 50
-87.00000000056377
 51
0.0
  0
CIRCLE
  5
1C2
330
39
100
AcDbEntity
  8
0
  6
Continuous
 62
     4
100
AcDbCircle
 10
2078.446543872691
 20
-496.2927383588469
 30
0.0
 40
5.199715999998716
  0
CIRCLE
  5
1C3
330
39
100
AcDbEntity
  8
0
  6
Continuous
 62
     4
100
AcDbCircle
 10
1649.957449206024
 20
-496.2927383588469
 30
0.0
 40
5.19971600000008
  0
CIRCLE
  5
1C4
330
39
100
AcDbEntity
  8
1
  6
DASHED
 62
     3
100
AcDbCircle
 10
1649.957937206023
 20
-496.292738358846
 30
0.0
 40
3.0
  0
CIRCLE
  5
1C5
330
39
100
AcDbEntity
  8
1
  6
DASHED
 62
     3
100
AcDbCircle
 10
1649.957937206023
 20
-482.292738358846
 30
0.0
 40
3.0
  0
CIRCLE
  5
1C6
330
39
100
AcDbEntity
  8
1
  6
DASHED
 62
     3
100
AcDbCircle
 10
2078.457937206023
 20
-496.292738358846
 30
0.0
 40
3.0
  0
CIRCLE
  5
1C7
330
39
100
AcDbEntity
  8
1
  6
DASHED
 62
     3
100
AcDbCircle
 10
2078.457937206023
 20
-482.292738358846
 30
0.0
 40
3.0
  0
CIRCLE
  5
1C8
330
39
100
AcDbEntity
  8
1
  6
DASH_CENTER
 62
     3
100
AcDbCircle
 10
1632.957937206023
 20
-489.292738358846
 30
0.0
 40
7.5
  0
CIRCLE
  5
1C9
330
39
100
AcDbEntity
  8
1
  6
Continuous
 62
     1
100
AcDbCircle
 10
2037.860229258135
 20
-480.1308499609929
 30
0.0
 40
0.6666666666701531
  0
CIRCLE
  5
1CA
330
39
100
AcDbEntity
  8
1
  6
Continuous
 62
     1
100
AcDbCircle
 10
2015.193562591468
 20
-492.1308499609929
 30
0.0
 40
0.6666666666710626
  0
CIRCLE
  5
1CB
330
39
100
AcDbEntity
  8
1
  6
Continuous
 62
     1
100
AcDbCircle
 10
1918.299819292027
 20
-560.1521192612335
 30
0.0
 40
0.6666666666681067
  0
CIRCLE
  5
1CC
330
39
100
AcDbEntity
  8
1
  6
Continuous
 62
     1
100
AcDbCircle
 10
1918.299819292027
 20
-523.2927383588469
 30
0.0
 40
0.6666666666681067
  0
CIRCLE
  5
1CD
330
39
100
AcDbEntity
  8
1
  6
Continuous
 62
     1
100
AcDbCircle
 10
1837.741886136268
 20
-577.4854525945667
 30
0.0
 40
0.6666666666678793
  0
CIRCLE
  5
1CE
330
39
100
AcDbEntity
  8
1
  6
Continuous
 62
     1
100
AcDbCircle
 10
1648.55056171207
 20
-523.2927383588469
 30
0.0
 40
0.6666666666678793
  0
XLINE
  5
1CF
330
39
100
AcDbEntity
  8
1
  6
DOT_CENTER
 62
     3
 60
     1
100
AcDbXline
 10
1639.953135872691
 20
-523.292738358847
 30
0.0
 11
0.0
 21
1.0
 31
0.0
  0
ARC
  5
1D0
330
39
100
AcDbEntity
  8
1
  6
Continuous
 62
     3
100
AcDbCircle
 10
2044.135802539353
 20
-506.0419727893789
 30
0.0
 40
0.5
100
AcDbArc
 50
-90.0
 51
0.0
  0
ARC
  5
1D1
330
39
100
AcDbEntity
  8
1
  6
Continuous
 62
     3
100
AcDbCircle
 10
2055.735802539353
 20
-506.0419727893789
 30
0.0
 40
0.5
100
AcDbArc
 50
180.0
 51
-90.0
  0
SOLID
  5
1D2
330
39
100
AcDbEntity
  8
1
 62
     3
100
AcDbTrace
 10
1629.272906680824
 20
-477.6698833884554
 30
0.0
 11
1630.467496704739
 21
-477.3821377276669
 31
0.0
 12
1630.963024335958
 22
-482.0629166016484
 32
0.0
 13
1630.963024335958
 23
-482.0629166016484
 33
0.0
  0
LEADER
  5
1D3
330
39
100
AcDbEntity
  8
1
  6
Continuous
 62
     3
100
AcDbLeader
  3
Standard
 71
     0
 76
     3
 10
1630.963024335958
 20
-482.0629166016484
 30
0.0
 10
1623.8683325586
 20
-452.6089606436079
 30
0.0
 10
1538.58221847746
 20
-452.6089606436079
 30
0.0
  0
TEXT
  5
1D5
330
39
100
AcDbEntity
  8
1
 62
     4
100
AcDbText
 10
1561.35010086592
 20
-458.3120942475564
 30
0.0
 40
4.0
  1
E-Gleitschiene
 41
0.81
  7
CONVERTER_11
100
AcDbText
  0
MTEXT
  5
1D7
330
39
100
AcDbEntity
  8
0
 62
     4
100
AcDbMText
 10
2024.071984788653
 20
-447.5454190373558
 30
0.0
 40
4.66666666666667
 41
0.0
 71
     1
 72
     1
  1
4
  7
CONVERTER_12
 73
     1
 44
0.60024009603842
  0
MTEXT
  5
1D8
330
39
100
AcDbEntity
  8
0
 62
     4
100
AcDbMText
 10
2001.405318121986
 20
-462.8516875055732
 30
0.0
 40
4.66666666666667
 41
0.0
 71
     1
 72
     1
  1
3
  7
CONVERTER_12
 73
     1
 44
0.60024009603842
  0
TEXT
  5
1D9
330
39
100
AcDbEntity
  8
0
 62
     4
100
AcDbText
 10
1938.584073375153
 20
-576.1454342265534
 30
0.0
 40
4.66666666666667
  1
1
 41
1.045
  7
CONVERTER_12
100
AcDbText
  0
TEXT
  5
1DA
330
39
100
AcDbEntity
  8
0
 62
     4
100
AcDbText
 10
1938.584073375153
 20
-541.9353794094575
 30
0.0
 40
4.66666666666667
  1
5
 41
1.045
  7
CONVERTER_12
100
AcDbText
  0
TEXT
  5
1DB
330
39
100
AcDbEntity
  8
0
 62
     4
100
AcDbText
 10
1824.917406708486
 20
-604.1280936451773
 30
0.0
 40
4.66666666666667
  1
2
 41
1.045
  7
CONVERTER_12
100
AcDbText
  0
MTEXT
  5
1DC
330
39
100
AcDbEntity
  8
1
 62
     4
100
AcDbMText
 10
1539.35010086592
 20
-450.9120942475564
 30
0.0
 40
4.0
 41
0.0
 71
     7
 72
     1
  1
{\Fgdt;n}15, Stromzuführung (24 V DV)
  7
CONVERTER_11
 73
     1
 44
1.02040816326531
  0
TEXT
  5
1DD
330
39
100
AcDbEntity
  8
0
 62
     4
100
AcDbText
 10
1623.584073375153
 20
-546.9353794094575
 30
0.0
 40
4.66666666666667
  1
6
 41
1.045
  7
CONVERTER_12
100
AcDbText
  0
DIMENSION
  5
1E9
330
39
100
AcDbEntity
  8
1
100
AcDbDimension
  2
*D9
 10
1529.957774539357
 20
-612.4150294225409
 30
0.0
 11
1577.62242546162
 21
-607.4150294225409
 31
0.0
 70
    32
  1
110
 71
     5
 42
-1.0
 53
0.00013888888889
  3
ME10_DIM_10
100
AcDbAlignedDimension
 13
1639.953135872691
 23
-586.0427383588469
 33
0.0
 14
1529.957774539357
 24
-586.5428196921815
 34
0.0
100
AcDbRotatedDimension
  0
DIMENSION
  5
1F4
330
39
100
AcDbEntity
  8
1
100
AcDbDimension
  2
*D10
 10
1639.953070934247
 20
-612.4150294225408
 30
0.0
 11
1749.75798926438
 21
-607.4150294225408
 31
0.0
 70
    33
  1
<>
 71
     5
 42
-1.0
 53
0.00013888888889
  3
ME10_DIM_11
100
AcDbAlignedDimension
 13
1865.957937206024
 23
-586.0427383588469
 33
0.0
 14
1639.953070934247
 24
-586.0427383588469
 34
0.0
  0
DIMENSION
  5
1FF
330
39
100
AcDbEntity
  8
1
100
AcDbDimension
  2
*D11
 10
1639.95313587269
 20
-625.6496396568054
 30
0.0
 11
1784.23716259138
 21
-620.6496396568054
 31
0.0
 70
    33
  1
<>
 71
     5
 42
-1.0
 53
0.00013888888889
  3
ME10_DIM_12
100
AcDbAlignedDimension
 13
1926.953135872691
 23
-586.0427383588469
 33
0.0
 14
1639.953135872691
 24
-586.0427383588469
 34
0.0
  0
DIMENSION
  5
20A
330
39
100
AcDbEntity
  8
1
100
AcDbDimension
  2
*D12
 10
1512.80790433685
 20
-523.2927383588475
 30
0.0
 11
1507.80790433685
 21
-509.0414317730454
 31
0.0
 70
    32
  1
<>
 71
     5
 42
-1.0
 53
90.0
  3
ME10_DIM_13
100
AcDbAlignedDimension
 13
1642.957205206024
 23
-496.2927383588469
 33
0.0
 14
1551.957774539357
 24
-523.292738358847
 34
0.0
 50
90.0
100
AcDbRotatedDimension
  0
DIMENSION
  5
217
330
39
100
AcDbEntity
  8
1
100
AcDbDimension
  2
*D13
 10
1604.02612959097
 20
-496.2927383588474
 30
0.0
 11
1599.02612959097
 21
-491.9846879166835
 31
0.0
 70
    32
  1
<>
 71
     5
 42
-1.0
 53
-90.0
  3
ME10_DIM_14
100
AcDbAlignedDimension
 13
1616.775860617605
 23
-489.292738358846
 33
0.0
 14
1642.957205206024
 24
-496.2927383588469
 34
0.0
 50
-90.0
100
AcDbRotatedDimension
  0
DIMENSION
  5
222
330
39
100
AcDbEntity
  8
1
100
AcDbDimension
  2
*D14
 10
1649.957449206023
 20
-451.0685181849054
 30
0.0
 11
1641.486243536489
 21
-446.0685181849054
 31
0.0
 70
    32
  1
<>
 71
     5
 42
-1.0
 53
0.00013888888889
  3
ME10_DIM_15
100
AcDbAlignedDimension
 13
1632.957937206023
 23
-481.042738358846
 33
0.0
 14
1649.957449206024
 24
-489.2928196921805
 34
0.0
100
AcDbRotatedDimension
  0
DIMENSION
  5
22F
330
39
100
AcDbEntity
  8
1
100
AcDbDimension
  2
*D15
 10
1523.40754854334
 20
-523.2927383588475
 30
0.0
 11
1518.40754854334
 21
-534.2927383588474
 31
0.0
 70
    32
  1
<>
 71
     5
 42
-1.0
 53
90.0
  3
ME10_DIM_16
100
AcDbAlignedDimension
 13
1546.957774539357
 23
-518.2927383588469
 33
0.0
 14
1551.957774539357
 24
-523.292738358847
 34
0.0
 50
90.0
100
AcDbRotatedDimension
  0
DIMENSION
  5
23C
330
39
100
AcDbEntity
  8
1
100
AcDbDimension
  2
*D16
 10
1529.957774539357
 20
-439.909907397646
 30
0.0
 11
1591.75994050317
 21
-434.909907397646
 31
0.0
 70
    32
  1
120
 71
     5
 42
-1.0
 53
0.00013888888889
  3
ME10_DIM_17
100
AcDbAlignedDimension
 13
1649.957449206024
 23
-489.2928196921805
 33
0.0
 14
1529.957774539357
 24
-586.5428196921815
 34
0.0
100
AcDbRotatedDimension
  0
DIMENSION
  5
247
330
39
100
AcDbEntity
  8
1
100
AcDbDimension
  2
*D17
 10
1649.957449206024
 20
-439.909907397646
 30
0.0
 11
1867.73701261587
 21
-434.909907397646
 31
0.0
 70
    32
  1
428.5
 71
     5
 42
-1.0
 53
0.00013888888889
  3
ME10_DIM_18
100
AcDbAlignedDimension
 13
2078.446543872691
 23
-489.2928196921805
 33
0.0
 14
1649.957449206024
 24
-489.2928196921805
 34
0.0
100
AcDbRotatedDimension
  0
ENDBLK
  5
3B
330
39
100
AcDbEntity
  8
0
100
AcDbBlockEnd
  0
BLOCK
  5
3F
330
3C
100
AcDbEntity
  8
0
100
AcDbBlockBegin
  2
20520-0-35
 70
     0
 71
     0
 10
1050.996766278667
 20
-719.540557136483
 30
0.0
  3
20520-0-35
  1

  0
INSERT
  5
3D
330
3C
100
AcDbEntity
  8
0
100
AcDbBlockReference
  2
TOP__1
 10
4468.144933884887
 20
-5623.327752713717
 30
0.0
  0
INSERT
  5
3E
330
3C
100
AcDbEntity
  8
1
100
AcDbBlockReference
  2
UEBERSICHT
 10
1101.764605246207
 20
-535.7195537691356
 30
0.0
 41
0.75
 42
0.75
 43
0.75
  0
LINE
  5
248
330
3C
100
AcDbEntity
  8
1
  6
DOT_CENTER
 62
     3
100
AcDbLine
 10
1332.664670960825
 20
-603.1914141134084
 30
0.0
 11
1332.664670960825
 21
-590.1679132139334
 31
0.0
  0
LINE
  5
249
330
3C
100
AcDbEntity
  8
0
  6
DASH_CENTER
 62
     3
100
AcDbLine
 10
1393.818794904518
 20
-583.4947607691356
 30
0.0
 11
1333.018745904518
 21
-583.4947607691356
 31
0.0
  0
LINE
  5
24A
330
3C
100
AcDbEntity
  8
1
  6
Continuous
 62
     1
100
AcDbLine
 10
1343.140980635328
 20
-602.4947607691356
 30
0.0
 11
1341.718330904518
 21
-604.9588623842737
 31
0.0
  0
LINE
  5
24B
330
3C
100
AcDbEntity
  8
1
  6
Continuous
 62
     1
100
AcDbLine
 10
1344.018745904518
 20
-596.9947607691356
 30
0.0
 11
1344.018745904518
 21
-601.9947607691356
 31
0.0
  0
LINE
  5
24C
330
3C
100
AcDbEntity
  8
1
  6
Continuous
 62
     1
100
AcDbLine
 10
1363.718330904518
 20
-604.9588623842737
 30
0.0
 11
1362.295681173709
 21
-602.4947607691356
 31
0.0
  0
LINE
  5
24D
330
3C
100
AcDbEntity
  8
1
  6
Continuous
 62
     1
100
AcDbLine
 10
1342.218330904518
 20
-613.2447607691356
 30
0.0
 11
1342.218330904518
 21
-612.4947607691356
 31
0.0
  0
LINE
  5
24E
330
3C
100
AcDbEntity
  8
1
  6
Continuous
 62
     4
100
AcDbLine
 10
1341.718330904518
 20
-611.9947607691356
 30
0.0
 11
1363.718330904518
 21
-611.9947607691356
 31
0.0
  0
LINE
  5
24F
330
3C
100
AcDbEntity
  8
1
  6
Continuous
 62
     4
100
AcDbLine
 10
1363.218330904518
 20
-612.4947607691356
 30
0.0
 11
1342.218330904518
 21
-612.4947607691356
 31
0.0
  0
LINE
  5
250
330
3C
100
AcDbEntity
  8
1
  6
Continuous
 62
     1
100
AcDbLine
 10
1342.218330904518
 20
-612.4947607691356
 30
0.0
 11
1341.718330904518
 21
-611.9947607691356
 31
0.0
  0
LINE
  5
251
330
3C
100
AcDbEntity
  8
1
  6
Continuous
 62
     1
100
AcDbLine
 10
1341.718330904518
 20
-611.9947607691356
 30
0.0
 11
1341.718330904518
 21
-604.9588623842737
 31
0.0
  0
LINE
  5
252
330
3C
100
AcDbEntity
  8
1
  6
Continuous
 62
     1
100
AcDbLine
 10
1363.718330904518
 20
-604.9588623842737
 30
0.0
 11
1363.718330904518
 21
-611.9947607691356
 31
0.0
  0
LINE
  5
253
330
3C
100
AcDbEntity
  8
1
  6
Continuous
 62
     1
100
AcDbLine
 10
1363.718330904518
 20
-611.9947607691356
 30
0.0
 11
1363.218330904518
 21
-612.4947607691356
 31
0.0
  0
LINE
  5
254
330
3C
100
AcDbEntity
  8
1
  6
Continuous
 62
     1
100
AcDbLine
 10
1363.218330904518
 20
-612.4947607691356
 30
0.0
 11
1363.218330904518
 21
-613.2447607691356
 31
0.0
  0
LINE
  5
255
330
3C
100
AcDbEntity
  8
1
  6
Continuous
 62
     1
100
AcDbLine
 10
1341.718330904518
 20
-604.9588623842737
 30
0.0
 11
1363.718330904518
 21
-604.9588623842737
 31
0.0
  0
LINE
  5
256
330
3C
100
AcDbEntity
  8
1
  6
Continuous
 62
     1
100
AcDbLine
 10
1351.218330904518
 20
-601.9947607691356
 30
0.0
 11
1352.218330904518
 21
-602.9947607691356
 31
0.0
  0
LINE
  5
257
330
3C
100
AcDbEntity
  8
1
  6
Continuous
 62
     1
100
AcDbLine
 10
1352.218330904518
 20
-602.9947607691356
 30
0.0
 11
1358.218330904518
 21
-602.9947607691356
 31
0.0
  0
LINE
  5
258
330
3C
100
AcDbEntity
  8
1
  6
Continuous
 62
     1
100
AcDbLine
 10
1358.218330904518
 20
-602.9947607691356
 30
0.0
 11
1359.218330904518
 21
-601.9947607691356
 31
0.0
  0
LINE
  5
259
330
3C
100
AcDbEntity
  8
1
  6
Continuous
 62
     1
100
AcDbLine
 10
1366.218330904518
 20
-601.9947607691356
 30
0.0
 11
1366.218330904518
 21
-596.9947607691356
 31
0.0
  0
LINE
  5
25A
330
3C
100
AcDbEntity
  8
1
  6
Continuous
 62
     1
100
AcDbLine
 10
1358.968330904518
 20
-595.8050685590288
 30
0.0
 11
1358.968330904518
 21
-596.9947607691356
 31
0.0
  0
LINE
  5
25B
330
3C
100
AcDbEntity
  8
1
  6
Continuous
 62
     1
100
AcDbLine
 10
1351.468330904518
 20
-596.9947607691356
 30
0.0
 11
1351.468330904518
 21
-595.8050685590288
 31
0.0
  0
LINE
  5
25C
330
3C
100
AcDbEntity
  8
1
  6
Continuous
 62
     4
100
AcDbLine
 10
1359.963289414539
 20
-593.8050685590288
 30
0.0
 11
1359.447353208881
 21
-595.8050685590288
 31
0.0
  0
LINE
  5
25D
330
3C
100
AcDbEntity
  8
1
  6
Continuous
 62
     4
100
AcDbLine
 10
1360.670396195725
 20
-593.8050685590288
 30
0.0
 11
1360.154459990067
 21
-595.8050685590288
 31
0.0
  0
LINE
  5
25E
330
3C
100
AcDbEntity
  8
1
  6
Continuous
 62
     1
100
AcDbLine
 10
1361.368227135413
 20
-595.8050685590288
 30
0.0
 11
1355.718330904518
 21
-595.8050685590288
 31
0.0
  0
LINE
  5
25F
330
3C
100
AcDbEntity
  8
1
  6
Continuous
 62
     1
100
AcDbLine
 10
1354.718330904518
 20
-595.8050685590288
 30
0.0
 11
1349.068434673623
 21
-595.8050685590288
 31
0.0
  0
LINE
  5
260
330
3C
100
AcDbEntity
  8
1
  6
Continuous
 62
     4
100
AcDbLine
 10
1350.989308600156
 20
-595.8050685590288
 30
0.0
 11
1350.473372394498
 21
-593.8050685590288
 31
0.0
  0
LINE
  5
261
330
3C
100
AcDbEntity
  8
1
  6
Continuous
 62
     4
100
AcDbLine
 10
1350.282201818969
 20
-595.8050685590288
 30
0.0
 11
1349.766265613311
 21
-593.8050685590288
 31
0.0
  0
LINE
  5
262
330
3C
100
AcDbEntity
  8
1
  6
Continuous
 62
     4
100
AcDbLine
 10
1355.718330904518
 20
-593.8050685590288
 30
0.0
 11
1355.718330904518
 21
-595.8050685590288
 31
0.0
  0
LINE
  5
263
330
3C
100
AcDbEntity
  8
1
  6
Continuous
 62
     1
100
AcDbLine
 10
1347.990390435986
 20
-593.8050685590288
 30
0.0
 11
1348.59858836323
 21
-595.4760786306915
 31
0.0
  0
LINE
  5
264
330
3C
100
AcDbEntity
  8
1
  6
Continuous
 62
     1
100
AcDbLine
 10
1361.838073445806
 20
-595.4760786306915
 30
0.0
 11
1362.446271373051
 21
-593.8050685590288
 31
0.0
  0
LINE
  5
265
330
3C
100
AcDbEntity
  8
1
  6
Continuous
 62
     4
100
AcDbLine
 10
1354.718330904518
 20
-595.8050685590288
 30
0.0
 11
1354.718330904518
 21
-593.8050685590288
 31
0.0
  0
LINE
  5
266
330
3C
100
AcDbEntity
  8
1
  6
Continuous
 62
     1
100
AcDbLine
 10
1364.518330904518
 20
-593.6947117691361
 30
0.0
 11
1364.518330904518
 21
-593.8050685590288
 31
0.0
  0
LINE
  5
267
330
3C
100
AcDbEntity
  8
1
  6
Continuous
 62
     1
100
AcDbLine
 10
1345.918330904517
 20
-593.8050685590288
 30
0.0
 11
1345.918330904517
 21
-593.6947117691361
 31
0.0
  0
LINE
  5
268
330
3C
100
AcDbEntity
  8
1
  6
Continuous
 62
     1
100
AcDbLine
 10
1364.518330904518
 20
-593.8050685590288
 30
0.0
 11
1345.918330904517
 21
-593.8050685590288
 31
0.0
  0
LINE
  5
269
330
3C
100
AcDbEntity
  8
1
  6
Continuous
 62
     1
100
AcDbLine
 10
1333.760450450453
 20
-613.2447607691356
 30
0.0
 11
1333.474267771835
 21
-614.0310412164763
 31
0.0
  0
LINE
  5
26A
330
3C
100
AcDbEntity
  8
1
  6
Continuous
 62
     1
100
AcDbLine
 10
1333.474267771835
 20
-614.0310412164763
 30
0.0
 11
1332.050557301056
 21
-613.5128529828999
 31
0.0
  0
LINE
  5
26B
330
3C
100
AcDbEntity
  8
1
  6
Continuous
 62
     1
100
AcDbLine
 10
1374.218330904518
 20
-673.2447607691356
 30
0.0
 11
1333.778268069262
 21
-673.2447607691356
 31
0.0
  0
LINE
  5
26C
330
3C
100
AcDbEntity
  8
1
  6
Continuous
 62
     1
100
AcDbLine
 10
1333.778268069262
 20
-673.2447607691356
 30
0.0
 11
1333.31967216233
 21
-671.9847788701845
 31
0.0
  0
LINE
  5
26D
330
3C
100
AcDbEntity
  8
1
  6
Continuous
 62
     1
100
AcDbLine
 10
1333.31967216233
 20
-671.9847788701845
 30
0.0
 11
1331.968216359418
 21
-672.4766685553714
 31
0.0
  0
LINE
  5
26E
330
3C
100
AcDbEntity
  8
1
  6
Continuous
 62
     1
100
AcDbLine
 10
1333.760450450453
 20
-613.2447607691356
 30
0.0
 11
1374.218330904518
 21
-613.2447607691356
 31
0.0
  0
LINE
  5
26F
330
3C
100
AcDbEntity
  8
1
  6
DOT_CENTER
 62
     3
100
AcDbLine
 10
1366.718330904518
 20
-640.4947607691356
 30
0.0
 11
1366.718330904518
 21
-649.4947607691356
 31
0.0
  0
LINE
  5
270
330
3C
100
AcDbEntity
  8
1
  6
DOT_CENTER
 62
     3
100
AcDbLine
 10
1338.718330904518
 20
-640.4947607691356
 30
0.0
 11
1338.718330904518
 21
-649.4947607691356
 31
0.0
  0
LINE
  5
271
330
3C
100
AcDbEntity
  8
1
  6
DASH_CENTER
 62
     3
100
AcDbLine
 10
1332.468409904519
 20
-644.9947607691356
 30
0.0
 11
1375.966248099371
 21
-644.9947607691356
 31
0.0
  0
LINE
  5
272
330
3C
100
AcDbEntity
  8
1
  6
DOT_CENTER
 62
     3
100
AcDbLine
 10
1352.018666904517
 20
-681.0230159109551
 30
0.0
 11
1352.018666904517
 21
-595.4268663848452
 31
0.0
  0
LINE
  5
273
330
3C
100
AcDbEntity
  8
0
  6
DASH_CENTER
 62
     3
100
AcDbLine
 10
1355.218330904518
 20
-605.9947607691356
 30
0.0
 11
1355.218330904518
 21
-589.0638527691353
 31
0.0
  0
LINE
  5
274
330
3C
100
AcDbEntity
  8
0
  6
Continuous
 62
     1
100
AcDbLine
 10
1344.718452904518
 20
-678.4447117691361
 30
0.0
 11
1360.718452904518
 21
-678.4447117691361
 31
0.0
  0
LINE
  5
275
330
3C
100
AcDbEntity
  8
0
  6
Continuous
 62
     1
100
AcDbLine
 10
1360.718452904518
 20
-678.4447117691361
 30
0.0
 11
1368.968452904518
 21
-673.6815287691352
 31
0.0
  0
LINE
  5
276
330
3C
100
AcDbEntity
  8
0
  6
Continuous
 62
     1
100
AcDbLine
 10
1344.718452904518
 20
-678.4447117691361
 30
0.0
 11
1336.468330904518
 21
-673.6815287691352
 31
0.0
  0
LINE
  5
277
330
3C
100
AcDbEntity
  8
0
  6
Continuous
 62
     4
100
AcDbLine
 10
1368.968452904518
 20
-673.6815287691352
 30
0.0
 11
1336.468330904518
 21
-673.6815287691352
 31
0.0
  0
LINE
  5
278
330
3C
100
AcDbEntity
  8
0
  6
Continuous
 62
     4
100
AcDbLine
 10
1368.968452904518
 20
-673.6815287691352
 30
0.0
 11
1368.968452904518
 21
-673.2447607691356
 31
0.0
  0
LINE
  5
279
330
3C
100
AcDbEntity
  8
0
  6
Continuous
 62
     4
100
AcDbLine
 10
1336.468330904518
 20
-673.6815287691352
 30
0.0
 11
1336.468330904518
 21
-673.2447607691356
 31
0.0
  0
LINE
  5
27A
330
3C
100
AcDbEntity
  8
0
  6
Continuous
 62
     3
100
AcDbLine
 10
1364.718330904518
 20
-593.1947117691361
 30
0.0
 11
1364.718330904518
 21
-591.4946997691359
 31
0.0
  0
LINE
  5
27B
330
3C
100
AcDbEntity
  8
0
  6
Continuous
 62
     3
100
AcDbLine
 10
1345.718330904518
 20
-593.1947117691361
 30
0.0
 11
1345.718330904518
 21
-591.4946997691359
 31
0.0
  0
LINE
  5
27C
330
3C
100
AcDbEntity
  8
0
  6
Continuous
 62
     3
100
AcDbLine
 10
1345.418343904518
 20
-591.1947117691361
 30
0.0
 11
1343.018333904518
 21
-591.1947117691361
 31
0.0
  0
LINE
  5
27D
330
3C
100
AcDbEntity
  8
0
  6
DASHED
 62
     3
100
AcDbLine
 10
1342.718330904518
 20
-590.8946637691351
 30
0.0
 11
1342.718330904518
 21
-584.4946997691359
 31
0.0
  0
LINE
  5
27E
330
3C
100
AcDbEntity
  8
0
  6
Continuous
 62
     3
100
AcDbLine
 10
1343.018333904518
 20
-584.1947117691361
 30
0.0
 11
1346.918343904518
 21
-584.1947117691361
 31
0.0
  0
LINE
  5
27F
330
3C
100
AcDbEntity
  8
0
  6
DASHED
 62
     3
100
AcDbLine
 10
1342.718330904518
 20
-576.2946877691356
 30
0.0
 11
1342.718330904518
 21
-581.3946027691354
 31
0.0
  0
LINE
  5
280
330
3C
100
AcDbEntity
  8
0
  6
Continuous
 62
     3
100
AcDbLine
 10
1343.018333904518
 20
-581.6946507691355
 30
0.0
 11
1346.918343904518
 21
-581.6946507691355
 31
0.0
  0
LINE
  5
281
330
3C
100
AcDbEntity
  8
0
  6
Continuous
 62
     3
100
AcDbLine
 10
1347.218330904518
 20
-581.9946387691361
 30
0.0
 11
1347.218330904518
 21
-583.8946637691351
 31
0.0
  0
LINE
  5
282
330
3C
100
AcDbEntity
  8
0
  6
DASHED
 62
     3
100
AcDbLine
 10
1343.018333904518
 20
-575.9946997691359
 30
0.0
 11
1367.418343904518
 21
-575.9946997691359
 31
0.0
  0
LINE
  5
283
330
3C
100
AcDbEntity
  8
0
  6
DASHED
 62
     3
100
AcDbLine
 10
1367.718330904518
 20
-576.2946877691356
 30
0.0
 11
1367.718330904518
 21
-581.3946027691354
 31
0.0
  0
LINE
  5
284
330
3C
100
AcDbEntity
  8
0
  6
Continuous
 62
     3
100
AcDbLine
 10
1367.418343904518
 20
-581.6946507691355
 30
0.0
 11
1363.518333904518
 21
-581.6946507691355
 31
0.0
  0
LINE
  5
285
330
3C
100
AcDbEntity
  8
0
  6
Continuous
 62
     3
100
AcDbLine
 10
1365.018333904518
 20
-591.1947117691361
 30
0.0
 11
1367.418343904518
 21
-591.1947117691361
 31
0.0
  0
LINE
  5
286
330
3C
100
AcDbEntity
  8
0
  6
DASHED
 62
     3
100
AcDbLine
 10
1367.718330904518
 20
-590.8946637691351
 30
0.0
 11
1367.718330904518
 21
-584.4946997691359
 31
0.0
  0
LINE
  5
287
330
3C
100
AcDbEntity
  8
0
  6
Continuous
 62
     3
100
AcDbLine
 10
1367.418343904518
 20
-584.1947117691361
 30
0.0
 11
1363.518333904518
 21
-584.1947117691361
 31
0.0
  0
LINE
  5
288
330
3C
100
AcDbEntity
  8
0
  6
Continuous
 62
     3
100
AcDbLine
 10
1363.218330904518
 20
-583.8946637691351
 30
0.0
 11
1363.218330904518
 21
-581.9946387691361
 31
0.0
  0
LINE
  5
289
330
3C
100
AcDbEntity
  8
0
  6
Continuous
 62
     1
100
AcDbLine
 10
1368.718330904518
 20
-593.6947117691361
 30
0.0
 11
1341.718330904518
 21
-593.6947117691361
 31
0.0
  0
LINE
  5
28A
330
3C
100
AcDbEntity
  8
0
  6
Continuous
 62
     1
100
AcDbLine
 10
1339.718330904518
 20
-591.6947117691361
 30
0.0
 11
1339.718330904518
 21
-574.9946997691359
 31
0.0
  0
LINE
  5
28B
330
3C
100
AcDbEntity
  8
0
  6
Continuous
 62
     1
100
AcDbLine
 10
1341.718330904518
 20
-572.9946997691359
 30
0.0
 11
1368.718330904518
 21
-572.9946997691359
 31
0.0
  0
LINE
  5
28C
330
3C
100
AcDbEntity
  8
0
  6
Continuous
 62
     1
100
AcDbLine
 10
1370.718330904518
 20
-574.9946997691359
 30
0.0
 11
1370.718330904518
 21
-591.6947117691361
 31
0.0
  0
LINE
  5
28D
330
3C
100
AcDbEntity
  8
1
  6
DASH_CENTER
 62
     3
100
AcDbLine
 10
1375.966248099371
 20
-643.4947607691356
 30
0.0
 11
1330.304245379899
 21
-643.4947607691356
 31
0.0
  0
LINE
  5
28E
330
3C
100
AcDbEntity
  8
1
  6
DASH_CENTER
 62
     3
100
AcDbLine
 10
1327.349414376616
 20
-665.4947607691356
 30
0.0
 11
1384.168430356005
 21
-665.4947607691356
 31
0.0
  0
LINE
  5
28F
330
3C
100
AcDbEntity
  8
1
  6
Continuous
 62
     4
100
AcDbLine
 10
1331.636868433072
 20
-672.6312740362473
 30
0.0
 11
1333.064043125184
 21
-672.1118249292213
 31
0.0
  0
LINE
  5
290
330
3C
100
AcDbEntity
  8
1
  6
Continuous
 62
     4
100
AcDbLine
 10
1333.125400359058
 20
-613.85406386252
 30
0.0
 11
1331.698225666946
 21
-613.3346147554939
 31
0.0
  0
LINE
  5
291
330
3C
100
AcDbEntity
  8
1
  6
Continuous
 62
     4
100
AcDbLine
 10
1333.296410430721
 20
-613.3842175521268
 30
0.0
 11
1333.125400359058
 21
-613.85406386252
 31
0.0
  0
LINE
  5
292
330
3C
100
AcDbEntity
  8
1
  6
Continuous
 62
     4
100
AcDbLine
 10
1331.869235738608
 20
-612.8647684450998
 30
0.0
 11
1333.296410430721
 21
-613.3842175521268
 31
0.0
  0
LINE
  5
293
330
3C
100
AcDbEntity
  8
1
  6
Continuous
 62
     4
100
AcDbLine
 10
1333.235053196847
 20
-672.5816712396145
 30
0.0
 11
1331.807878504735
 21
-673.1011203466405
 31
0.0
  0
LINE
  5
294
330
3C
100
AcDbEntity
  8
1
  6
Continuous
 62
     4
100
AcDbLine
 10
1333.064043125184
 20
-672.1118249292213
 30
0.0
 11
1333.235053196847
 21
-672.5816712396145
 31
0.0
  0
LINE
  5
295
330
3C
100
AcDbEntity
  8
1
  6
Continuous
 62
     1
100
AcDbLine
 10
1366.218330904518
 20
-601.9947607691356
 30
0.0
 11
1341.018666904517
 21
-601.9947607691356
 31
0.0
  0
LINE
  5
296
330
3C
100
AcDbEntity
  8
1
  6
Continuous
 62
     1
100
AcDbLine
 10
1366.218330904518
 20
-596.9947607691356
 30
0.0
 11
1341.018666904517
 21
-596.9947607691356
 31
0.0
  0
LINE
  5
297
330
3C
100
AcDbEntity
  8
1
  6
Continuous
 62
     1
100
AcDbLine
 10
1341.018666904517
 20
-601.9947607691356
 30
0.0
 11
1341.018666904517
 21
-596.9947607691356
 31
0.0
  0
LINE
  5
298
330
3C
100
AcDbEntity
  8
1
  6
Continuous
 62
     1
100
AcDbLine
 10
1375.218330904518
 20
-613.626726780386
 30
0.0
 11
1375.218330904518
 21
-672.8627947578861
 31
0.0
  0
LINE
  5
299
330
3C
100
AcDbEntity
  8
0
  6
DASH_CENTER
 62
     3
100
AcDbLine
 10
1321.669801461621
 20
-601.9947607691356
 30
0.0
 11
1343.664670960825
 21
-601.9947607691356
 31
0.0
  0
LINE
  5
29A
330
3C
100
AcDbEntity
  8
0
  6
DASH_CENTER
 62
     3
100
AcDbLine
 10
1321.669801461621
 20
-601.9947607691356
 30
0.0
 11
1321.669801461621
 21
-596.9947607691356
 31
0.0
  0
LINE
  5
29B
330
3C
100
AcDbEntity
  8
0
  6
Continuous
 62
     3
100
AcDbLine
 10
1326.164670960825
 20
-596.9947607691356
 30
0.0
 11
1326.164670960825
 21
-595.9947607691347
 31
0.0
  0
LINE
  5
29C
330
3C
100
AcDbEntity
  8
0
  6
Continuous
 62
     3
100
AcDbLine
 10
1339.164670960825
 20
-595.9947607691347
 30
0.0
 11
1338.164670960825
 21
-595.9947607691356
 31
0.0
  0
LINE
  5
29D
330
3C
100
AcDbEntity
  8
0
  6
Continuous
 62
     3
100
AcDbLine
 10
1338.164670960825
 20
-595.9947607691356
 30
0.0
 11
1337.918330904517
 21
-595.9947607691356
 31
0.0
  0
LINE
  5
29E
330
3C
100
AcDbEntity
  8
0
  6
DASH_CENTER
 62
     3
100
AcDbLine
 10
1331.866222539664
 20
-595.9947607691356
 30
0.0
 11
1327.164670960825
 21
-595.9947607691356
 31
0.0
  0
LINE
  5
29F
330
3C
100
AcDbEntity
  8
0
  6
Continuous
 62
     3
100
AcDbLine
 10
1328.664670960825
 20
-594.4947607691356
 30
0.0
 11
1328.664670960825
 21
-591.4947607691356
 31
0.0
  0
LINE
  5
2A0
330
3C
100
AcDbEntity
  8
0
  6
Continuous
 62
     3
100
AcDbLine
 10
1327.164670960825
 20
-595.9947607691356
 30
0.0
 11
1326.164670960825
 21
-595.9947607691347
 31
0.0
  0
LINE
  5
2A1
330
3C
100
AcDbEntity
  8
0
  6
Continuous
 62
     3
100
AcDbLine
 10
1329.564670960825
 20
-602.1447607691362
 30
0.0
 11
1335.764670960825
 21
-602.1447607691362
 31
0.0
  0
LINE
  5
2A2
330
3C
100
AcDbEntity
  8
0
  6
Continuous
 62
     3
100
AcDbLine
 10
1329.564670960825
 20
-602.1447607691362
 30
0.0
 11
1329.414670960825
 21
-601.9947607691356
 31
0.0
  0
LINE
  5
2A3
330
3C
100
AcDbEntity
  8
0
  6
Continuous
 62
     3
100
AcDbLine
 10
1335.764670960825
 20
-602.1447607691362
 30
0.0
 11
1335.914670960825
 21
-601.9947607691356
 31
0.0
  0
LINE
  5
2A4
330
3C
100
AcDbEntity
  8
0
  6
Continuous
 62
     3
100
AcDbLine
 10
1331.866222539664
 20
-596.7947607691358
 30
0.0
 11
1337.918330904517
 21
-596.7947607691358
 31
0.0
  0
LINE
  5
2A5
330
3C
100
AcDbEntity
  8
0
  6
DASH_CENTER
 62
     3
100
AcDbLine
 10
1337.918330904517
 20
-591.4947607691356
 30
0.0
 11
1337.918330904517
 21
-596.7947607691358
 31
0.0
  0
LINE
  5
2A6
330
3C
100
AcDbEntity
  8
0
  6
Continuous
 62
     3
100
AcDbLine
 10
1331.866222539664
 20
-591.4947607691356
 30
0.0
 11
1331.866222539664
 21
-596.7947607691358
 31
0.0
  0
LINE
  5
2A7
330
3C
100
AcDbEntity
  8
1
  6
Continuous
 62
     3
100
AcDbLine
 10
1339.164670960825
 20
-595.9947607691347
 30
0.0
 11
1339.164670960825
 21
-596.9947607691356
 31
0.0
  0
LINE
  5
2A8
330
3C
100
AcDbEntity
  8
1
  6
DASH_CENTER
 62
     3
100
AcDbLine
 10
1325.932104275918
 20
-591.4947607691402
 30
0.0
 11
1370.718330904518
 21
-591.4947607691356
 31
0.0
  0
LINE
  5
2A9
330
3C
100
AcDbEntity
  8
1
  6
DASH_CENTER
 62
     3
100
AcDbLine
 10
1325.932104275919
 20
-561.4947607691402
 30
0.0
 11
1370.718330904518
 21
-561.4947607691356
 31
0.0
  0
LINE
  5
2AA
330
3C
100
AcDbEntity
  8
1
  6
Continuous
 62
     3
100
AcDbLine
 10
1370.718330904518
 20
-561.4947607691356
 30
0.0
 11
1370.718330904518
 21
-591.4947607691356
 31
0.0
  0
LINE
  5
2AB
330
3C
100
AcDbEntity
  8
1
  6
DASH_CENTER
 62
     3
100
AcDbLine
 10
1321.669801461621
 20
-596.9947607691356
 30
0.0
 11
1344.018745904518
 21
-596.9947607691356
 31
0.0
  0
LINE
  5
2AC
330
3C
100
AcDbEntity
  8
1
  6
DASH_CENTER
 62
     3
100
AcDbLine
 10
1327.349414376616
 20
-621.4947607691356
 30
0.0
 11
1384.418140506477
 21
-621.4947607691356
 31
0.0
  0
LINE
  5
2AD
330
3C
100
AcDbEntity
  8
1
  6
DASH_CENTER
 62
     3
100
AcDbLine
 10
1162.849414376616
 20
-621.4947607691356
 30
0.0
 11
1219.918140506477
 21
-621.4947607691356
 31
0.0
  0
LINE
  5
2AE
330
3C
100
AcDbEntity
  8
1
  6
DOT_CENTER
 62
     3
100
AcDbLine
 10
1168.664670960825
 20
-603.1914141134084
 30
0.0
 11
1168.664670960825
 21
-590.1679132139334
 31
0.0
  0
LINE
  5
2AF
330
3C
100
AcDbEntity
  8
1
  6
DASH_CENTER
 62
     3
100
AcDbLine
 10
1157.669801461621
 20
-596.9947607691356
 30
0.0
 11
1180.018745904518
 21
-596.9947607691356
 31
0.0
  0
LINE
  5
2B0
330
3C
100
AcDbEntity
  8
1
  6
Continuous
 62
     3
100
AcDbLine
 10
1206.718330904518
 20
-561.4947607691356
 30
0.0
 11
1206.718330904518
 21
-591.4947607691356
 31
0.0
  0
LINE
  5
2B1
330
3C
100
AcDbEntity
  8
1
  6
DASH_CENTER
 62
     3
100
AcDbLine
 10
1161.932104275919
 20
-561.4947607691402
 30
0.0
 11
1206.718330904518
 21
-561.4947607691356
 31
0.0
  0
LINE
  5
2B2
330
3C
100
AcDbEntity
  8
1
  6
DASH_CENTER
 62
     3
100
AcDbLine
 10
1161.932104275918
 20
-591.4947607691402
 30
0.0
 11
1206.718330904518
 21
-591.4947607691356
 31
0.0
  0
LINE
  5
2B3
330
3C
100
AcDbEntity
  8
1
  6
Continuous
 62
     3
100
AcDbLine
 10
1175.164670960825
 20
-595.9947607691347
 30
0.0
 11
1175.164670960825
 21
-596.9947607691356
 31
0.0
  0
LINE
  5
2B4
330
3C
100
AcDbEntity
  8
0
  6
Continuous
 62
     3
100
AcDbLine
 10
1167.866222539664
 20
-591.4947607691356
 30
0.0
 11
1167.866222539664
 21
-596.7947607691358
 31
0.0
  0
LINE
  5
2B5
330
3C
100
AcDbEntity
  8
0
  6
DASH_CENTER
 62
     3
100
AcDbLine
 10
1173.918330904517
 20
-591.4947607691356
 30
0.0
 11
1173.918330904517
 21
-596.7947607691358
 31
0.0
  0
LINE
  5
2B6
330
3C
100
AcDbEntity
  8
0
  6
Continuous
 62
     3
100
AcDbLine
 10
1167.866222539664
 20
-596.7947607691358
 30
0.0
 11
1173.918330904517
 21
-596.7947607691358
 31
0.0
  0
LINE
  5
2B7
330
3C
100
AcDbEntity
  8
0
  6
Continuous
 62
     3
100
AcDbLine
 10
1171.764670960825
 20
-602.1447607691362
 30
0.0
 11
1171.914670960825
 21
-601.9947607691356
 31
0.0
  0
LINE
  5
2B8
330
3C
100
AcDbEntity
  8
0
  6
Continuous
 62
     3
100
AcDbLine
 10
1165.564670960825
 20
-602.1447607691362
 30
0.0
 11
1165.414670960825
 21
-601.9947607691356
 31
0.0
  0
LINE
  5
2B9
330
3C
100
AcDbEntity
  8
0
  6
Continuous
 62
     3
100
AcDbLine
 10
1165.564670960825
 20
-602.1447607691362
 30
0.0
 11
1171.764670960825
 21
-602.1447607691362
 31
0.0
  0
LINE
  5
2BA
330
3C
100
AcDbEntity
  8
0
  6
Continuous
 62
     3
100
AcDbLine
 10
1163.164670960825
 20
-595.9947607691356
 30
0.0
 11
1162.164670960825
 21
-595.9947607691347
 31
0.0
  0
LINE
  5
2BB
330
3C
100
AcDbEntity
  8
0
  6
Continuous
 62
     3
100
AcDbLine
 10
1164.664670960825
 20
-594.4947607691356
 30
0.0
 11
1164.664670960825
 21
-591.4947607691356
 31
0.0
  0
LINE
  5
2BC
330
3C
100
AcDbEntity
  8
0
  6
DASH_CENTER
 62
     3
100
AcDbLine
 10
1167.866222539664
 20
-595.9947607691356
 30
0.0
 11
1163.164670960825
 21
-595.9947607691356
 31
0.0
  0
LINE
  5
2BD
330
3C
100
AcDbEntity
  8
0
  6
Continuous
 62
     3
100
AcDbLine
 10
1174.164670960825
 20
-595.9947607691356
 30
0.0
 11
1173.918330904517
 21
-595.9947607691356
 31
0.0
  0
LINE
  5
2BE
330
3C
100
AcDbEntity
  8
0
  6
Continuous
 62
     3
100
AcDbLine
 10
1175.164670960825
 20
-595.9947607691347
 30
0.0
 11
1174.164670960825
 21
-595.9947607691356
 31
0.0
  0
LINE
  5
2BF
330
3C
100
AcDbEntity
  8
0
  6
Continuous
 62
     3
100
AcDbLine
 10
1162.164670960825
 20
-596.9947607691356
 30
0.0
 11
1162.164670960825
 21
-595.9947607691347
 31
0.0
  0
LINE
  5
2C0
330
3C
100
AcDbEntity
  8
0
  6
DASH_CENTER
 62
     3
100
AcDbLine
 10
1157.669801461621
 20
-601.9947607691356
 30
0.0
 11
1157.669801461621
 21
-596.9947607691356
 31
0.0
  0
LINE
  5
2C1
330
3C
100
AcDbEntity
  8
0
  6
DASH_CENTER
 62
     3
100
AcDbLine
 10
1157.669801461621
 20
-601.9947607691356
 30
0.0
 11
1179.664670960825
 21
-601.9947607691356
 31
0.0
  0
LINE
  5
2C2
330
3C
100
AcDbEntity
  8
1
  6
Continuous
 62
     1
100
AcDbLine
 10
1210.718330904518
 20
-613.626726780386
 30
0.0
 11
1210.718330904518
 21
-672.8627947578861
 31
0.0
  0
LINE
  5
2C3
330
3C
100
AcDbEntity
  8
1
  6
Continuous
 62
     1
100
AcDbLine
 10
1177.018666904517
 20
-601.9947607691356
 30
0.0
 11
1177.018666904517
 21
-596.9947607691356
 31
0.0
  0
LINE
  5
2C4
330
3C
100
AcDbEntity
  8
1
  6
Continuous
 62
     1
100
AcDbLine
 10
1202.218330904518
 20
-596.9947607691356
 30
0.0
 11
1177.018666904517
 21
-596.9947607691356
 31
0.0
  0
LINE
  5
2C5
330
3C
100
AcDbEntity
  8
1
  6
Continuous
 62
     1
100
AcDbLine
 10
1202.218330904518
 20
-601.9947607691356
 30
0.0
 11
1177.018666904517
 21
-601.9947607691356
 31
0.0
  0
LINE
  5
2C6
330
3C
100
AcDbEntity
  8
1
  6
Continuous
 62
     4
100
AcDbLine
 10
1168.564043125184
 20
-672.1118249292213
 30
0.0
 11
1168.735053196847
 21
-672.5816712396145
 31
0.0
  0
LINE
  5
2C7
330
3C
100
AcDbEntity
  8
1
  6
Continuous
 62
     4
100
AcDbLine
 10
1168.735053196847
 20
-672.5816712396145
 30
0.0
 11
1167.307878504735
 21
-673.1011203466405
 31
0.0
  0
LINE
  5
2C8
330
3C
100
AcDbEntity
  8
1
  6
Continuous
 62
     4
100
AcDbLine
 10
1167.369235738608
 20
-612.8647684450998
 30
0.0
 11
1168.796410430721
 21
-613.3842175521268
 31
0.0
  0
LINE
  5
2C9
330
3C
100
AcDbEntity
  8
1
  6
Continuous
 62
     4
100
AcDbLine
 10
1168.796410430721
 20
-613.3842175521268
 30
0.0
 11
1168.625400359058
 21
-613.85406386252
 31
0.0
  0
LINE
  5
2CA
330
3C
100
AcDbEntity
  8
1
  6
Continuous
 62
     4
100
AcDbLine
 10
1168.625400359058
 20
-613.85406386252
 30
0.0
 11
1167.198225666946
 21
-613.3346147554939
 31
0.0
  0
LINE
  5
2CB
330
3C
100
AcDbEntity
  8
1
  6
Continuous
 62
     4
100
AcDbLine
 10
1167.136868433072
 20
-672.6312740362473
 30
0.0
 11
1168.564043125184
 21
-672.1118249292213
 31
0.0
  0
LINE
  5
2CC
330
3C
100
AcDbEntity
  8
1
  6
DASH_CENTER
 62
     3
100
AcDbLine
 10
1162.849414376616
 20
-665.4947607691356
 30
0.0
 11
1219.668430356005
 21
-665.4947607691356
 31
0.0
  0
LINE
  5
2CD
330
3C
100
AcDbEntity
  8
1
  6
DASH_CENTER
 62
     3
100
AcDbLine
 10
1211.466248099371
 20
-643.4947607691356
 30
0.0
 11
1165.804245379899
 21
-643.4947607691356
 31
0.0
  0
LINE
  5
2CE
330
3C
100
AcDbEntity
  8
0
  6
Continuous
 62
     1
100
AcDbLine
 10
1206.718330904518
 20
-574.9946997691359
 30
0.0
 11
1206.718330904518
 21
-591.6947117691361
 31
0.0
  0
LINE
  5
2CF
330
3C
100
AcDbEntity
  8
0
  6
Continuous
 62
     1
100
AcDbLine
 10
1177.718330904518
 20
-572.9946997691359
 30
0.0
 11
1204.718330904518
 21
-572.9946997691359
 31
0.0
  0
LINE
  5
2D0
330
3C
100
AcDbEntity
  8
0
  6
Continuous
 62
     1
100
AcDbLine
 10
1175.718330904518
 20
-591.6947117691361
 30
0.0
 11
1175.718330904518
 21
-574.9946997691359
 31
0.0
  0
LINE
  5
2D1
330
3C
100
AcDbEntity
  8
0
  6
Continuous
 62
     1
100
AcDbLine
 10
1204.718330904518
 20
-593.6947117691361
 30
0.0
 11
1177.718330904518
 21
-593.6947117691361
 31
0.0
  0
LINE
  5
2D2
330
3C
100
AcDbEntity
  8
0
  6
Continuous
 62
     3
100
AcDbLine
 10
1199.218330904518
 20
-583.8946637691351
 30
0.0
 11
1199.218330904518
 21
-581.9946387691361
 31
0.0
  0
LINE
  5
2D3
330
3C
100
AcDbEntity
  8
0
  6
Continuous
 62
     3
100
AcDbLine
 10
1203.418343904518
 20
-584.1947117691361
 30
0.0
 11
1199.518333904518
 21
-584.1947117691361
 31
0.0
  0
LINE
  5
2D4
330
3C
100
AcDbEntity
  8
0
  6
DASHED
 62
     3
100
AcDbLine
 10
1203.718330904518
 20
-590.8946637691351
 30
0.0
 11
1203.718330904518
 21
-584.4946997691359
 31
0.0
  0
LINE
  5
2D5
330
3C
100
AcDbEntity
  8
0
  6
Continuous
 62
     3
100
AcDbLine
 10
1201.018333904518
 20
-591.1947117691361
 30
0.0
 11
1203.418343904518
 21
-591.1947117691361
 31
0.0
  0
LINE
  5
2D6
330
3C
100
AcDbEntity
  8
0
  6
Continuous
 62
     3
100
AcDbLine
 10
1203.418343904518
 20
-581.6946507691355
 30
0.0
 11
1199.518333904518
 21
-581.6946507691355
 31
0.0
  0
LINE
  5
2D7
330
3C
100
AcDbEntity
  8
0
  6
DASHED
 62
     3
100
AcDbLine
 10
1203.718330904518
 20
-576.2946877691356
 30
0.0
 11
1203.718330904518
 21
-581.3946027691354
 31
0.0
  0
LINE
  5
2D8
330
3C
100
AcDbEntity
  8
0
  6
DASHED
 62
     3
100
AcDbLine
 10
1179.018333904518
 20
-575.9946997691359
 30
0.0
 11
1203.418343904518
 21
-575.9946997691359
 31
0.0
  0
LINE
  5
2D9
330
3C
100
AcDbEntity
  8
0
  6
Continuous
 62
     3
100
AcDbLine
 10
1183.218330904518
 20
-581.9946387691361
 30
0.0
 11
1183.218330904518
 21
-583.8946637691351
 31
0.0
  0
LINE
  5
2DA
330
3C
100
AcDbEntity
  8
0
  6
Continuous
 62
     3
100
AcDbLine
 10
1179.018333904518
 20
-581.6946507691355
 30
0.0
 11
1182.918343904518
 21
-581.6946507691355
 31
0.0
  0
LINE
  5
2DB
330
3C
100
AcDbEntity
  8
0
  6
DASHED
 62
     3
100
AcDbLine
 10
1178.718330904518
 20
-576.2946877691356
 30
0.0
 11
1178.718330904518
 21
-581.3946027691354
 31
0.0
  0
LINE
  5
2DC
330
3C
100
AcDbEntity
  8
0
  6
Continuous
 62
     3
100
AcDbLine
 10
1179.018333904518
 20
-584.1947117691361
 30
0.0
 11
1182.918343904518
 21
-584.1947117691361
 31
0.0
  0
LINE
  5
2DD
330
3C
100
AcDbEntity
  8
0
  6
DASHED
 62
     3
100
AcDbLine
 10
1178.718330904518
 20
-590.8946637691351
 30
0.0
 11
1178.718330904518
 21
-584.4946997691359
 31
0.0
  0
LINE
  5
2DE
330
3C
100
AcDbEntity
  8
0
  6
Continuous
 62
     3
100
AcDbLine
 10
1181.418343904518
 20
-591.1947117691361
 30
0.0
 11
1179.018333904518
 21
-591.1947117691361
 31
0.0
  0
LINE
  5
2DF
330
3C
100
AcDbEntity
  8
0
  6
Continuous
 62
     3
100
AcDbLine
 10
1181.718330904518
 20
-593.1947117691361
 30
0.0
 11
1181.718330904518
 21
-591.4946997691359
 31
0.0
  0
LINE
  5
2E0
330
3C
100
AcDbEntity
  8
0
  6
Continuous
 62
     3
100
AcDbLine
 10
1200.718330904518
 20
-593.1947117691361
 30
0.0
 11
1200.718330904518
 21
-591.4946997691359
 31
0.0
  0
LINE
  5
2E1
330
3C
100
AcDbEntity
  8
0
  6
Continuous
 62
     4
100
AcDbLine
 10
1171.968330904518
 20
-673.6815287691352
 30
0.0
 11
1171.968330904518
 21
-673.2447607691356
 31
0.0
  0
LINE
  5
2E2
330
3C
100
AcDbEntity
  8
0
  6
Continuous
 62
     4
100
AcDbLine
 10
1204.468452904518
 20
-673.6815287691352
 30
0.0
 11
1204.468452904518
 21
-673.2447607691356
 31
0.0
  0
LINE
  5
2E3
330
3C
100
AcDbEntity
  8
0
  6
Continuous
 62
     4
100
AcDbLine
 10
1204.468452904518
 20
-673.6815287691352
 30
0.0
 11
1171.968330904518
 21
-673.6815287691352
 31
0.0
  0
LINE
  5
2E4
330
3C
100
AcDbEntity
  8
0
  6
Continuous
 62
     1
100
AcDbLine
 10
1180.218452904518
 20
-678.4447117691361
 30
0.0
 11
1171.968330904518
 21
-673.6815287691352
 31
0.0
  0
LINE
  5
2E5
330
3C
100
AcDbEntity
  8
0
  6
Continuous
 62
     1
100
AcDbLine
 10
1196.218452904518
 20
-678.4447117691361
 30
0.0
 11
1204.468452904518
 21
-673.6815287691352
 31
0.0
  0
LINE
  5
2E6
330
3C
100
AcDbEntity
  8
0
  6
Continuous
 62
     1
100
AcDbLine
 10
1180.218452904518
 20
-678.4447117691361
 30
0.0
 11
1196.218452904518
 21
-678.4447117691361
 31
0.0
  0
LINE
  5
2E7
330
3C
100
AcDbEntity
  8
0
  6
DASH_CENTER
 62
     3
100
AcDbLine
 10
1191.218330904518
 20
-605.9947607691356
 30
0.0
 11
1191.218330904518
 21
-589.0638527691353
 31
0.0
  0
LINE
  5
2E8
330
3C
100
AcDbEntity
  8
1
  6
DOT_CENTER
 62
     3
100
AcDbLine
 10
1188.018666904517
 20
-681.0230159109551
 30
0.0
 11
1188.018666904517
 21
-595.4268663848452
 31
0.0
  0
LINE
  5
2E9
330
3C
100
AcDbEntity
  8
1
  6
DASH_CENTER
 62
     3
100
AcDbLine
 10
1167.968409904519
 20
-644.9947607691356
 30
0.0
 11
1211.466248099371
 21
-644.9947607691356
 31
0.0
  0
LINE
  5
2EA
330
3C
100
AcDbEntity
  8
1
  6
DOT_CENTER
 62
     3
100
AcDbLine
 10
1174.218330904518
 20
-640.4947607691356
 30
0.0
 11
1174.218330904518
 21
-649.4947607691356
 31
0.0
  0
LINE
  5
2EB
330
3C
100
AcDbEntity
  8
1
  6
DOT_CENTER
 62
     3
100
AcDbLine
 10
1202.218330904518
 20
-640.4947607691356
 30
0.0
 11
1202.218330904518
 21
-649.4947607691356
 31
0.0
  0
LINE
  5
2EC
330
3C
100
AcDbEntity
  8
1
  6
Continuous
 62
     1
100
AcDbLine
 10
1169.260450450453
 20
-613.2447607691356
 30
0.0
 11
1209.718330904518
 21
-613.2447607691356
 31
0.0
  0
LINE
  5
2ED
330
3C
100
AcDbEntity
  8
1
  6
Continuous
 62
     1
100
AcDbLine
 10
1168.81967216233
 20
-671.9847788701845
 30
0.0
 11
1167.468216359418
 21
-672.4766685553714
 31
0.0
  0
LINE
  5
2EE
330
3C
100
AcDbEntity
  8
1
  6
Continuous
 62
     1
100
AcDbLine
 10
1169.278268069262
 20
-673.2447607691356
 30
0.0
 11
1168.81967216233
 21
-671.9847788701845
 31
0.0
  0
LINE
  5
2EF
330
3C
100
AcDbEntity
  8
1
  6
Continuous
 62
     1
100
AcDbLine
 10
1209.718330904518
 20
-673.2447607691356
 30
0.0
 11
1169.278268069262
 21
-673.2447607691356
 31
0.0
  0
LINE
  5
2F0
330
3C
100
AcDbEntity
  8
1
  6
Continuous
 62
     1
100
AcDbLine
 10
1168.974267771835
 20
-614.0310412164763
 30
0.0
 11
1167.550557301056
 21
-613.5128529828999
 31
0.0
  0
LINE
  5
2F1
330
3C
100
AcDbEntity
  8
1
  6
Continuous
 62
     1
100
AcDbLine
 10
1169.260450450453
 20
-613.2447607691356
 30
0.0
 11
1168.974267771835
 21
-614.0310412164763
 31
0.0
  0
LINE
  5
2F2
330
3C
100
AcDbEntity
  8
1
  6
Continuous
 62
     1
100
AcDbLine
 10
1200.518330904518
 20
-593.8050685590288
 30
0.0
 11
1181.918330904517
 21
-593.8050685590288
 31
0.0
  0
LINE
  5
2F3
330
3C
100
AcDbEntity
  8
1
  6
Continuous
 62
     1
100
AcDbLine
 10
1181.918330904517
 20
-593.8050685590288
 30
0.0
 11
1181.918330904517
 21
-593.6947117691361
 31
0.0
  0
LINE
  5
2F4
330
3C
100
AcDbEntity
  8
1
  6
Continuous
 62
     1
100
AcDbLine
 10
1200.518330904518
 20
-593.6947117691361
 30
0.0
 11
1200.518330904518
 21
-593.8050685590288
 31
0.0
  0
LINE
  5
2F5
330
3C
100
AcDbEntity
  8
1
  6
Continuous
 62
     4
100
AcDbLine
 10
1190.718330904518
 20
-595.8050685590288
 30
0.0
 11
1190.718330904518
 21
-593.8050685590288
 31
0.0
  0
LINE
  5
2F6
330
3C
100
AcDbEntity
  8
1
  6
Continuous
 62
     1
100
AcDbLine
 10
1197.838073445806
 20
-595.4760786306915
 30
0.0
 11
1198.446271373051
 21
-593.8050685590288
 31
0.0
  0
LINE
  5
2F7
330
3C
100
AcDbEntity
  8
1
  6
Continuous
 62
     1
100
AcDbLine
 10
1183.990390435986
 20
-593.8050685590288
 30
0.0
 11
1184.59858836323
 21
-595.4760786306915
 31
0.0
  0
LINE
  5
2F8
330
3C
100
AcDbEntity
  8
1
  6
Continuous
 62
     4
100
AcDbLine
 10
1191.718330904518
 20
-593.8050685590288
 30
0.0
 11
1191.718330904518
 21
-595.8050685590288
 31
0.0
  0
LINE
  5
2F9
330
3C
100
AcDbEntity
  8
1
  6
Continuous
 62
     4
100
AcDbLine
 10
1186.282201818969
 20
-595.8050685590288
 30
0.0
 11
1185.766265613311
 21
-593.8050685590288
 31
0.0
  0
LINE
  5
2FA
330
3C
100
AcDbEntity
  8
1
  6
Continuous
 62
     4
100
AcDbLine
 10
1186.989308600156
 20
-595.8050685590288
 30
0.0
 11
1186.473372394498
 21
-593.8050685590288
 31
0.0
  0
LINE
  5
2FB
330
3C
100
AcDbEntity
  8
1
  6
Continuous
 62
     1
100
AcDbLine
 10
1190.718330904518
 20
-595.8050685590288
 30
0.0
 11
1185.068434673623
 21
-595.8050685590288
 31
0.0
  0
LINE
  5
2FC
330
3C
100
AcDbEntity
  8
1
  6
Continuous
 62
     1
100
AcDbLine
 10
1197.368227135413
 20
-595.8050685590288
 30
0.0
 11
1191.718330904518
 21
-595.8050685590288
 31
0.0
  0
LINE
  5
2FD
330
3C
100
AcDbEntity
  8
1
  6
Continuous
 62
     4
100
AcDbLine
 10
1196.670396195725
 20
-593.8050685590288
 30
0.0
 11
1196.154459990067
 21
-595.8050685590288
 31
0.0
  0
LINE
  5
2FE
330
3C
100
AcDbEntity
  8
1
  6
Continuous
 62
     4
100
AcDbLine
 10
1195.963289414539
 20
-593.8050685590288
 30
0.0
 11
1195.447353208881
 21
-595.8050685590288
 31
0.0
  0
LINE
  5
2FF
330
3C
100
AcDbEntity
  8
1
  6
Continuous
 62
     1
100
AcDbLine
 10
1187.468330904518
 20
-596.9947607691356
 30
0.0
 11
1187.468330904518
 21
-595.8050685590288
 31
0.0
  0
LINE
  5
300
330
3C
100
AcDbEntity
  8
1
  6
Continuous
 62
     1
100
AcDbLine
 10
1194.968330904518
 20
-595.8050685590288
 30
0.0
 11
1194.968330904518
 21
-596.9947607691356
 31
0.0
  0
LINE
  5
301
330
3C
100
AcDbEntity
  8
1
  6
Continuous
 62
     1
100
AcDbLine
 10
1202.218330904518
 20
-601.9947607691356
 30
0.0
 11
1202.218330904518
 21
-596.9947607691356
 31
0.0
  0
LINE
  5
302
330
3C
100
AcDbEntity
  8
1
  6
Continuous
 62
     1
100
AcDbLine
 10
1194.218330904518
 20
-602.9947607691356
 30
0.0
 11
1195.218330904518
 21
-601.9947607691356
 31
0.0
  0
LINE
  5
303
330
3C
100
AcDbEntity
  8
1
  6
Continuous
 62
     1
100
AcDbLine
 10
1188.218330904518
 20
-602.9947607691356
 30
0.0
 11
1194.218330904518
 21
-602.9947607691356
 31
0.0
  0
LINE
  5
304
330
3C
100
AcDbEntity
  8
1
  6
Continuous
 62
     1
100
AcDbLine
 10
1187.218330904518
 20
-601.9947607691356
 30
0.0
 11
1188.218330904518
 21
-602.9947607691356
 31
0.0
  0
LINE
  5
305
330
3C
100
AcDbEntity
  8
1
  6
Continuous
 62
     1
100
AcDbLine
 10
1177.218330904518
 20
-604.9588623842737
 30
0.0
 11
1199.218330904518
 21
-604.9588623842737
 31
0.0
  0
LINE
  5
306
330
3C
100
AcDbEntity
  8
1
  6
Continuous
 62
     1
100
AcDbLine
 10
1198.718330904518
 20
-612.4947607691356
 30
0.0
 11
1198.718330904518
 21
-613.2447607691356
 31
0.0
  0
LINE
  5
307
330
3C
100
AcDbEntity
  8
1
  6
Continuous
 62
     1
100
AcDbLine
 10
1199.218330904518
 20
-611.9947607691356
 30
0.0
 11
1198.718330904518
 21
-612.4947607691356
 31
0.0
  0
LINE
  5
308
330
3C
100
AcDbEntity
  8
1
  6
Continuous
 62
     1
100
AcDbLine
 10
1199.218330904518
 20
-604.9588623842737
 30
0.0
 11
1199.218330904518
 21
-611.9947607691356
 31
0.0
  0
LINE
  5
309
330
3C
100
AcDbEntity
  8
1
  6
Continuous
 62
     1
100
AcDbLine
 10
1177.218330904518
 20
-611.9947607691356
 30
0.0
 11
1177.218330904518
 21
-604.9588623842737
 31
0.0
  0
LINE
  5
30A
330
3C
100
AcDbEntity
  8
1
  6
Continuous
 62
     1
100
AcDbLine
 10
1177.718330904518
 20
-612.4947607691356
 30
0.0
 11
1177.218330904518
 21
-611.9947607691356
 31
0.0
  0
LINE
  5
30B
330
3C
100
AcDbEntity
  8
1
  6
Continuous
 62
     4
100
AcDbLine
 10
1198.718330904518
 20
-612.4947607691356
 30
0.0
 11
1177.718330904518
 21
-612.4947607691356
 31
0.0
  0
LINE
  5
30C
330
3C
100
AcDbEntity
  8
1
  6
Continuous
 62
     4
100
AcDbLine
 10
1177.218330904518
 20
-611.9947607691356
 30
0.0
 11
1199.218330904518
 21
-611.9947607691356
 31
0.0
  0
LINE
  5
30D
330
3C
100
AcDbEntity
  8
1
  6
Continuous
 62
     1
100
AcDbLine
 10
1177.718330904518
 20
-613.2447607691356
 30
0.0
 11
1177.718330904518
 21
-612.4947607691356
 31
0.0
  0
LINE
  5
30E
330
3C
100
AcDbEntity
  8
1
  6
Continuous
 62
     1
100
AcDbLine
 10
1199.218330904518
 20
-604.9588623842737
 30
0.0
 11
1197.795681173709
 21
-602.4947607691356
 31
0.0
  0
LINE
  5
30F
330
3C
100
AcDbEntity
  8
1
  6
Continuous
 62
     1
100
AcDbLine
 10
1180.018745904518
 20
-596.9947607691356
 30
0.0
 11
1180.018745904518
 21
-601.9947607691356
 31
0.0
  0
LINE
  5
310
330
3C
100
AcDbEntity
  8
1
  6
Continuous
 62
     1
100
AcDbLine
 10
1178.640980635328
 20
-602.4947607691356
 30
0.0
 11
1177.218330904518
 21
-604.9588623842737
 31
0.0
  0
LINE
  5
311
330
3C
100
AcDbEntity
  8
0
  6
DASH_CENTER
 62
     3
100
AcDbLine
 10
1229.818794904518
 20
-583.4947607691356
 30
0.0
 11
1169.018745904518
 21
-583.4947607691356
 31
0.0
  0
ARC
  5
312
330
3C
100
AcDbEntity
  8
1
  6
Continuous
 62
     1
100
AcDbCircle
 10
1509.218330904519
 20
-643.2447607691356
 30
0.0
 40
180.0000000000005
100
AcDbArc
 50
170.5675754887303
 51
-170.729143478825
  0
ARC
  5
313
330
3C
100
AcDbEntity
  8
1
  6
Continuous
 62
     1
100
AcDbCircle
 10
1331.947951258059
 20
-613.7947607691358
 30
0.0
 40
0.2999999999999006
100
AcDbArc
 50
70.0000000001421
 51
170.5675754887565
  0
ARC
  5
314
330
3C
100
AcDbEntity
  8
1
  6
Continuous
 62
     1
100
AcDbCircle
 10
1331.865610316421
 20
-672.1947607691354
 30
0.0
 40
0.3000000000009676
100
AcDbArc
 50
-170.7291434789215
 51
-70.0000000001421
  0
ARC
  5
315
330
3C
100
AcDbEntity
  8
0
  6
Continuous
 62
     3
100
AcDbCircle
 10
1345.218330904518
 20
-593.1947117691361
 30
0.0
 40
0.5
100
AcDbArc
 50
-90.0
 51
0.0
  0
ARC
  5
316
330
3C
100
AcDbEntity
  8
0
  6
Continuous
 62
     3
100
AcDbCircle
 10
1365.218330904518
 20
-593.1947117691361
 30
0.0
 40
0.5
100
AcDbArc
 50
180.0
 51
-90.0
  0
ARC
  5
317
330
3C
100
AcDbEntity
  8
0
  6
Continuous
 62
     1
100
AcDbCircle
 10
1341.718330904518
 20
-591.6947117691361
 30
0.0
 40
2.0
100
AcDbArc
 50
180.0
 51
-90.0
  0
ARC
  5
318
330
3C
100
AcDbEntity
  8
0
  6
Continuous
 62
     1
100
AcDbCircle
 10
1341.718330904518
 20
-574.9946997691359
 30
0.0
 40
2.0
100
AcDbArc
 50
90.0
 51
180.0
  0
ARC
  5
319
330
3C
100
AcDbEntity
  8
0
  6
Continuous
 62
     1
100
AcDbCircle
 10
1368.718330904518
 20
-574.9946997691359
 30
0.0
 40
2.0
100
AcDbArc
 50
0.0
 51
90.0
  0
ARC
  5
31A
330
3C
100
AcDbEntity
  8
0
  6
Continuous
 62
     1
100
AcDbCircle
 10
1368.718330904518
 20
-591.6947117691361
 30
0.0
 40
2.0
100
AcDbArc
 50
-90.0
 51
0.0
  0
ARC
  5
31B
330
3C
100
AcDbEntity
  8
0
  6
Continuous
 62
     3
100
AcDbCircle
 10
1345.418343904518
 20
-591.4946997691359
 30
0.0
 40
0.2999879999999848
100
AcDbArc
 50
0.0
 51
90.0
  0
ARC
  5
31C
330
3C
100
AcDbEntity
  8
0
  6
Continuous
 62
     3
100
AcDbCircle
 10
1343.018333904518
 20
-590.8946637691351
 30
0.0
 40
0.3000029999998333
100
AcDbArc
 50
180.0
 51
-90.0
  0
ARC
  5
31D
330
3C
100
AcDbEntity
  8
0
  6
Continuous
 62
     3
100
AcDbCircle
 10
1343.018333904518
 20
-584.4946997691359
 30
0.0
 40
0.2999879999997574
100
AcDbArc
 50
90.0
 51
180.0
  0
ARC
  5
31E
330
3C
100
AcDbEntity
  8
0
  6
Continuous
 62
     3
100
AcDbCircle
 10
1346.918343904518
 20
-583.8946637691351
 30
0.0
 40
0.3000490000003992
100
AcDbArc
 50
-90.0
 51
0.0
  0
ARC
  5
31F
330
3C
100
AcDbEntity
  8
0
  6
Continuous
 62
     3
100
AcDbCircle
 10
1346.918343904518
 20
-581.9946387691361
 30
0.0
 40
0.2999879999999848
100
AcDbArc
 50
0.0
 51
90.0
  0
ARC
  5
320
330
3C
100
AcDbEntity
  8
0
  6
Continuous
 62
     3
100
AcDbCircle
 10
1343.018333904518
 20
-581.3946027691354
 30
0.0
 40
0.3000029999998333
100
AcDbArc
 50
180.0
 51
-90.0
  0
ARC
  5
321
330
3C
100
AcDbEntity
  8
0
  6
Continuous
 62
     3
100
AcDbCircle
 10
1343.018333904518
 20
-576.2946877691356
 30
0.0
 40
0.2999879999997574
100
AcDbArc
 50
90.0
 51
180.0
  0
ARC
  5
322
330
3C
100
AcDbEntity
  8
0
  6
Continuous
 62
     3
100
AcDbCircle
 10
1367.418343904518
 20
-576.2946877691356
 30
0.0
 40
0.2999879999999848
100
AcDbArc
 50
0.0
 51
90.0
  0
ARC
  5
323
330
3C
100
AcDbEntity
  8
0
  6
Continuous
 62
     3
100
AcDbCircle
 10
1367.418343904518
 20
-581.3946027691354
 30
0.0
 40
0.3000490000003992
100
AcDbArc
 50
-90.0
 51
0.0
  0
ARC
  5
324
330
3C
100
AcDbEntity
  8
0
  6
Continuous
 62
     3
100
AcDbCircle
 10
1363.518333904518
 20
-581.9946387691361
 30
0.0
 40
0.2999880000006669
100
AcDbArc
 50
90.0
 51
180.0
  0
ARC
  5
325
330
3C
100
AcDbEntity
  8
0
  6
Continuous
 62
     3
100
AcDbCircle
 10
1363.518333904518
 20
-583.8946637691351
 30
0.0
 40
0.3000029999998333
100
AcDbArc
 50
180.0
 51
-90.0
  0
ARC
  5
326
330
3C
100
AcDbEntity
  8
0
  6
Continuous
 62
     3
100
AcDbCircle
 10
1367.418343904518
 20
-584.4946997691359
 30
0.0
 40
0.2999879999999848
100
AcDbArc
 50
0.0
 51
90.0
  0
ARC
  5
327
330
3C
100
AcDbEntity
  8
0
  6
Continuous
 62
     3
100
AcDbCircle
 10
1367.418343904518
 20
-590.8946637691351
 30
0.0
 40
0.3000490000003992
100
AcDbArc
 50
-90.0
 51
0.0
  0
ARC
  5
328
330
3C
100
AcDbEntity
  8
0
  6
Continuous
 62
     3
100
AcDbCircle
 10
1365.018333904518
 20
-591.4946997691359
 30
0.0
 40
0.2999879999997574
100
AcDbArc
 50
90.0
 51
180.0
  0
ARC
  5
329
330
3C
100
AcDbEntity
  8
1
  6
Continuous
 62
     4
100
AcDbCircle
 10
1483.805565143894
 20
-643.1403692503318
 30
0.0
 40
155.0000829798554
100
AcDbArc
 50
168.9132467360661
 51
-169.0318203397572
  0
ARC
  5
32A
330
3C
100
AcDbEntity
  8
1
  6
Continuous
 62
     4
100
AcDbCircle
 10
1483.805565143894
 20
-643.1403692503318
 30
0.0
 40
155.5000827130396
100
AcDbArc
 50
168.9134373687338
 51
-169.0316297070891
  0
ARC
  5
32B
330
3C
100
AcDbEntity
  8
0
  6
Continuous
 62
     3
100
AcDbCircle
 10
1338.164670960825
 20
-594.4947607691356
 30
0.0
 40
1.499999999999122
100
AcDbArc
 50
-99.45231509966254
 51
-90.0
  0
ARC
  5
32C
330
3C
100
AcDbEntity
  8
0
  6
Continuous
 62
     3
100
AcDbCircle
 10
1327.164670960825
 20
-594.4947607691356
 30
0.0
 40
1.5
100
AcDbArc
 50
-90.0
 51
0.0
  0
ARC
  5
32D
330
3C
100
AcDbEntity
  8
0
  6
DASH_CENTER
 62
     3
100
AcDbCircle
 10
1375.72166141395
 20
-576.4947607691356
 30
0.0
 40
52.00000000001064
100
AcDbArc
 50
163.2341270273369
 51
-163.2341270273277
  0
ARC
  5
32E
330
3C
100
AcDbEntity
  8
0
  6
DASH_CENTER
 62
     3
100
AcDbCircle
 10
1211.72166141395
 20
-576.4947607691356
 30
0.0
 40
52.00000000001064
100
AcDbArc
 50
163.2341270273369
 51
-163.2341270273277
  0
ARC
  5
32F
330
3C
100
AcDbEntity
  8
0
  6
Continuous
 62
     3
100
AcDbCircle
 10
1163.164670960825
 20
-594.4947607691356
 30
0.0
 40
1.5
100
AcDbArc
 50
-90.0
 51
0.0
  0
ARC
  5
330
330
3C
100
AcDbEntity
  8
0
  6
Continuous
 62
     3
100
AcDbCircle
 10
1174.164670960825
 20
-594.4947607691356
 30
0.0
 40
1.499999999999122
100
AcDbArc
 50
-99.45231509966254
 51
-90.0
  0
ARC
  5
331
330
3C
100
AcDbEntity
  8
1
  6
Continuous
 62
     4
100
AcDbCircle
 10
1319.305565143894
 20
-643.1403692503318
 30
0.0
 40
155.5000827130396
100
AcDbArc
 50
168.9134373687338
 51
-169.0316297070891
  0
ARC
  5
332
330
3C
100
AcDbEntity
  8
1
  6
Continuous
 62
     4
100
AcDbCircle
 10
1319.305565143894
 20
-643.1403692503318
 30
0.0
 40
155.0000829798554
100
AcDbArc
 50
168.9132467360661
 51
-169.0318203397572
  0
ARC
  5
333
330
3C
100
AcDbEntity
  8
0
  6
Continuous
 62
     3
100
AcDbCircle
 10
1201.018333904518
 20
-591.4946997691359
 30
0.0
 40
0.2999879999997574
100
AcDbArc
 50
90.0
 51
180.0
  0
ARC
  5
334
330
3C
100
AcDbEntity
  8
0
  6
Continuous
 62
     3
100
AcDbCircle
 10
1203.418343904518
 20
-590.8946637691351
 30
0.0
 40
0.3000490000003992
100
AcDbArc
 50
-90.0
 51
0.0
  0
ARC
  5
335
330
3C
100
AcDbEntity
  8
0
  6
Continuous
 62
     3
100
AcDbCircle
 10
1203.418343904518
 20
-584.4946997691359
 30
0.0
 40
0.2999879999999848
100
AcDbArc
 50
0.0
 51
90.0
  0
ARC
  5
336
330
3C
100
AcDbEntity
  8
0
  6
Continuous
 62
     3
100
AcDbCircle
 10
1199.518333904518
 20
-583.8946637691351
 30
0.0
 40
0.3000029999998333
100
AcDbArc
 50
180.0
 51
-90.0
  0
ARC
  5
337
330
3C
100
AcDbEntity
  8
0
  6
Continuous
 62
     3
100
AcDbCircle
 10
1199.518333904518
 20
-581.9946387691361
 30
0.0
 40
0.2999880000006669
100
AcDbArc
 50
90.0
 51
180.0
  0
ARC
  5
338
330
3C
100
AcDbEntity
  8
0
  6
Continuous
 62
     3
100
AcDbCircle
 10
1203.418343904518
 20
-581.3946027691354
 30
0.0
 40
0.3000490000003992
100
AcDbArc
 50
-90.0
 51
0.0
  0
ARC
  5
339
330
3C
100
AcDbEntity
  8
0
  6
Continuous
 62
     3
100
AcDbCircle
 10
1203.418343904518
 20
-576.2946877691356
 30
0.0
 40
0.2999879999999848
100
AcDbArc
 50
0.0
 51
90.0
  0
ARC
  5
33A
330
3C
100
AcDbEntity
  8
0
  6
Continuous
 62
     3
100
AcDbCircle
 10
1179.018333904518
 20
-576.2946877691356
 30
0.0
 40
0.2999879999997574
100
AcDbArc
 50
90.0
 51
180.0
  0
ARC
  5
33B
330
3C
100
AcDbEntity
  8
0
  6
Continuous
 62
     3
100
AcDbCircle
 10
1179.018333904518
 20
-581.3946027691354
 30
0.0
 40
0.3000029999998333
100
AcDbArc
 50
180.0
 51
-90.0
  0
ARC
  5
33C
330
3C
100
AcDbEntity
  8
0
  6
Continuous
 62
     3
100
AcDbCircle
 10
1182.918343904518
 20
-581.9946387691361
 30
0.0
 40
0.2999879999999848
100
AcDbArc
 50
0.0
 51
90.0
  0
ARC
  5
33D
330
3C
100
AcDbEntity
  8
0
  6
Continuous
 62
     3
100
AcDbCircle
 10
1182.918343904518
 20
-583.8946637691351
 30
0.0
 40
0.3000490000003992
100
AcDbArc
 50
-90.0
 51
0.0
  0
ARC
  5
33E
330
3C
100
AcDbEntity
  8
0
  6
Continuous
 62
     3
100
AcDbCircle
 10
1179.018333904518
 20
-584.4946997691359
 30
0.0
 40
0.2999879999997574
100
AcDbArc
 50
90.0
 51
180.0
  0
ARC
  5
33F
330
3C
100
AcDbEntity
  8
0
  6
Continuous
 62
     3
100
AcDbCircle
 10
1179.018333904518
 20
-590.8946637691351
 30
0.0
 40
0.3000029999998333
100
AcDbArc
 50
180.0
 51
-90.0
  0
ARC
  5
340
330
3C
100
AcDbEntity
  8
0
  6
Continuous
 62
     3
100
AcDbCircle
 10
1181.418343904518
 20
-591.4946997691359
 30
0.0
 40
0.2999879999999848
100
AcDbArc
 50
0.0
 51
90.0
  0
ARC
  5
341
330
3C
100
AcDbEntity
  8
0
  6
Continuous
 62
     1
100
AcDbCircle
 10
1204.718330904518
 20
-591.6947117691361
 30
0.0
 40
2.0
100
AcDbArc
 50
-90.0
 51
0.0
  0
ARC
  5
342
330
3C
100
AcDbEntity
  8
0
  6
Continuous
 62
     1
100
AcDbCircle
 10
1204.718330904518
 20
-574.9946997691359
 30
0.0
 40
2.0
100
AcDbArc
 50
0.0
 51
90.0
  0
ARC
  5
343
330
3C
100
AcDbEntity
  8
0
  6
Continuous
 62
     1
100
AcDbCircle
 10
1177.718330904518
 20
-574.9946997691359
 30
0.0
 40
2.0
100
AcDbArc
 50
90.0
 51
180.0
  0
ARC
  5
344
330
3C
100
AcDbEntity
  8
0
  6
Continuous
 62
     1
100
AcDbCircle
 10
1177.718330904518
 20
-591.6947117691361
 30
0.0
 40
2.0
100
AcDbArc
 50
180.0
 51
-90.0
  0
ARC
  5
345
330
3C
100
AcDbEntity
  8
0
  6
Continuous
 62
     3
100
AcDbCircle
 10
1201.218330904518
 20
-593.1947117691361
 30
0.0
 40
0.5
100
AcDbArc
 50
180.0
 51
-90.0
  0
ARC
  5
346
330
3C
100
AcDbEntity
  8
0
  6
Continuous
 62
     3
100
AcDbCircle
 10
1181.218330904518
 20
-593.1947117691361
 30
0.0
 40
0.5
100
AcDbArc
 50
-90.0
 51
0.0
  0
ARC
  5
347
330
3C
100
AcDbEntity
  8
1
  6
Continuous
 62
     1
100
AcDbCircle
 10
1167.365610316421
 20
-672.1947607691354
 30
0.0
 40
0.3000000000009676
100
AcDbArc
 50
-170.7291434789215
 51
-70.0000000001421
  0
ARC
  5
348
330
3C
100
AcDbEntity
  8
1
  6
Continuous
 62
     1
100
AcDbCircle
 10
1167.447951258059
 20
-613.7947607691358
 30
0.0
 40
0.2999999999999006
100
AcDbArc
 50
70.0000000001421
 51
170.5675754887565
  0
ARC
  5
349
330
3C
100
AcDbEntity
  8
1
  6
Continuous
 62
     1
100
AcDbCircle
 10
1344.718330904519
 20
-643.2447607691356
 30
0.0
 40
180.0000000000005
100
AcDbArc
 50
170.5675754887303
 51
-170.729143478825
  0
CIRCLE
  5
34A
330
3C
100
AcDbEntity
  8
1
  6
Continuous
 62
     4
100
AcDbCircle
 10
1366.718330904518
 20
-644.9947607691356
 30
0.0
 40
2.5
  0
CIRCLE
  5
34B
330
3C
100
AcDbEntity
  8
1
  6
Continuous
 62
     4
100
AcDbCircle
 10
1338.718330904518
 20
-644.9947607691356
 30
0.0
 40
2.5
  0
CIRCLE
  5
34C
330
3C
100
AcDbEntity
  8
1
  6
Continuous
 62
     4
100
AcDbCircle
 10
1366.718330904518
 20
-644.9947607691356
 30
0.0
 40
3.0
  0
CIRCLE
  5
34D
330
3C
100
AcDbEntity
  8
1
  6
Continuous
 62
     4
100
AcDbCircle
 10
1338.718330904518
 20
-644.9947607691356
 30
0.0
 40
3.0
  0
CIRCLE
  5
34E
330
3C
100
AcDbEntity
  8
1
  6
Continuous
 62
     4
100
AcDbCircle
 10
1352.718330904518
 20
-644.9947607691356
 30
0.0
 40
20.75
  0
CIRCLE
  5
34F
330
3C
100
AcDbEntity
  8
1
  6
Continuous
 62
     4
100
AcDbCircle
 10
1352.718330904518
 20
-644.9947607691356
 30
0.0
 40
21.25
  0
CIRCLE
  5
350
330
3C
100
AcDbEntity
  8
1
  6
Continuous
 62
     4
100
AcDbCircle
 10
1188.218330904518
 20
-644.9947607691356
 30
0.0
 40
21.25
  0
CIRCLE
  5
351
330
3C
100
AcDbEntity
  8
1
  6
Continuous
 62
     4
100
AcDbCircle
 10
1188.218330904518
 20
-644.9947607691356
 30
0.0
 40
20.75
  0
CIRCLE
  5
352
330
3C
100
AcDbEntity
  8
1
  6
Continuous
 62
     4
100
AcDbCircle
 10
1174.218330904518
 20
-644.9947607691356
 30
0.0
 40
3.0
  0
CIRCLE
  5
353
330
3C
100
AcDbEntity
  8
1
  6
Continuous
 62
     4
100
AcDbCircle
 10
1202.218330904518
 20
-644.9947607691356
 30
0.0
 40
3.0
  0
CIRCLE
  5
354
330
3C
100
AcDbEntity
  8
1
  6
Continuous
 62
     4
100
AcDbCircle
 10
1174.218330904518
 20
-644.9947607691356
 30
0.0
 40
2.5
  0
CIRCLE
  5
355
330
3C
100
AcDbEntity
  8
1
  6
Continuous
 62
     4
100
AcDbCircle
 10
1202.218330904518
 20
-644.9947607691356
 30
0.0
 40
2.5
  0
ARC
  5
356
330
3C
100
AcDbEntity
  8
1
  6
Continuous
 62
     1
100
AcDbCircle
 10
1361.429655769923
 20
-602.9947607691356
 30
0.0
 40
1.000000000001263
100
AcDbArc
 50
29.99999999995821
 51
90.0
  0
ARC
  5
357
330
3C
100
AcDbEntity
  8
1
  6
Continuous
 62
     1
100
AcDbCircle
 10
1344.007006039114
 20
-602.9947607691356
 30
0.0
 40
1.0
100
AcDbArc
 50
90.0
 51
150.0000000000418
  0
ARC
  5
358
330
3C
100
AcDbEntity
  8
1
  6
Continuous
 62
     1
100
AcDbCircle
 10
1344.007006039114
 20
-602.9947607691356
 30
0.0
 40
1.0
100
AcDbArc
 50
90.0
 51
150.0000000000418
  0
ARC
  5
359
330
3C
100
AcDbEntity
  8
1
  6
Continuous
 62
     1
100
AcDbCircle
 10
1349.068434673623
 20
-595.3050685590288
 30
0.0
 40
0.5000000000000095
100
AcDbArc
 50
-160.0000000000108
 51
-90.0
  0
ARC
  5
35A
330
3C
100
AcDbEntity
  8
1
  6
Continuous
 62
     1
100
AcDbCircle
 10
1361.368227135413
 20
-595.3050685590288
 30
0.0
 40
0.5
100
AcDbArc
 50
-90.0
 51
-19.99999999998924
  0
ARC
  5
35B
330
3C
100
AcDbEntity
  8
1
  6
Continuous
 62
     1
100
AcDbCircle
 10
1374.218330904518
 20
-614.7447607691356
 30
0.0
 40
1.499999999999803
100
AcDbArc
 50
48.18968510421467
 51
90.0
  0
ARC
  5
35C
330
3C
100
AcDbEntity
  8
1
  6
Continuous
 62
     1
100
AcDbCircle
 10
1374.218330904518
 20
-671.7447607691356
 30
0.0
 40
1.5
100
AcDbArc
 50
-90.0
 51
-48.18968510423782
  0
ARC
  5
35D
330
3C
100
AcDbEntity
  8
1
  6
Continuous
 62
     4
100
AcDbCircle
 10
1331.698225666946
 20
-613.3346147554939
 30
0.0
 40
0.5000000000008445
100
AcDbArc
 50
70.00000000012876
 51
168.9725335378301
  0
ARC
  5
35E
330
3C
100
AcDbEntity
  8
1
  6
Continuous
 62
     4
100
AcDbCircle
 10
1331.636868433072
 20
-672.6312740362473
 30
0.0
 40
0.5000000000014474
100
AcDbArc
 50
-168.972533537855
 51
-69.99999999999518
  0
ARC
  5
35F
330
3C
100
AcDbEntity
  8
1
  6
Continuous
 62
     4
100
AcDbCircle
 10
1167.136868433072
 20
-672.6312740362473
 30
0.0
 40
0.5000000000014474
100
AcDbArc
 50
-168.972533537855
 51
-69.99999999999518
  0
ARC
  5
360
330
3C
100
AcDbEntity
  8
1
  6
Continuous
 62
     4
100
AcDbCircle
 10
1167.198225666946
 20
-613.3346147554939
 30
0.0
 40
0.5000000000008445
100
AcDbArc
 50
70.00000000012876
 51
168.9725335378301
  0
ARC
  5
361
330
3C
100
AcDbEntity
  8
1
  6
Continuous
 62
     1
100
AcDbCircle
 10
1209.718330904518
 20
-671.7447607691356
 30
0.0
 40
1.5
100
AcDbArc
 50
-90.0
 51
-48.18968510423782
  0
ARC
  5
362
330
3C
100
AcDbEntity
  8
1
  6
Continuous
 62
     1
100
AcDbCircle
 10
1209.718330904518
 20
-614.7447607691356
 30
0.0
 40
1.499999999999803
100
AcDbArc
 50
48.18968510421467
 51
90.0
  0
ARC
  5
363
330
3C
100
AcDbEntity
  8
1
  6
Continuous
 62
     1
100
AcDbCircle
 10
1197.368227135413
 20
-595.3050685590288
 30
0.0
 40
0.5
100
AcDbArc
 50
-90.0
 51
-19.99999999998924
  0
ARC
  5
364
330
3C
100
AcDbEntity
  8
1
  6
Continuous
 62
     1
100
AcDbCircle
 10
1185.068434673623
 20
-595.3050685590288
 30
0.0
 40
0.5000000000000095
100
AcDbArc
 50
-160.0000000000108
 51
-90.0
  0
ARC
  5
365
330
3C
100
AcDbEntity
  8
1
  6
Continuous
 62
     1
100
AcDbCircle
 10
1180.007006039114
 20
-602.9947607691356
 30
0.0
 40
1.0
100
AcDbArc
 50
90.0
 51
150.0000000000418
  0
ARC
  5
366
330
3C
100
AcDbEntity
  8
1
  6
Continuous
 62
     1
100
AcDbCircle
 10
1179.507006039114
 20
-602.9947607691356
 30
0.0
 40
1.0
100
AcDbArc
 50
90.0
 51
150.0000000000418
  0
ARC
  5
367
330
3C
100
AcDbEntity
  8
1
  6
Continuous
 62
     1
100
AcDbCircle
 10
1196.929655769923
 20
-602.9947607691356
 30
0.0
 40
1.000000000001263
100
AcDbArc
 50
29.99999999995821
 51
90.0
  0
TEXT
  5
369
330
3C
100
AcDbEntity
  8
0
 62
     1
100
AcDbText
 10
1417.169778232176
 20
-655.6193947691357
 30
0.0
 40
5.0
  1
Stahlrahmen
 41
0.99
  7
CONVERTER_14
100
AcDbText
  0
TEXT
  5
36A
330
3C
100
AcDbEntity
  8
0
 62
     1
100
AcDbText
 10
1417.169778232176
 20
-646.6193947691357
 30
0.0
 40
5.0
  1
Anschlag auf
 41
0.99
  7
CONVERTER_14
100
AcDbText
  0
TEXT
  5
36B
330
3C
100
AcDbEntity
  8
0
 62
     1
100
AcDbText
 10
1077.409614904518
 20
-668.6193947691357
 30
0.0
 40
5.0
  1
Holzrahmen
 41
0.99
  7
CONVERTER_14
100
AcDbText
  0
TEXT
  5
36C
330
3C
100
AcDbEntity
  8
0
 62
     1
100
AcDbText
 10
1077.409614904518
 20
-659.6193947691357
 30
0.0
 40
5.0
  1
Anschlag auf
 41
0.99
  7
CONVERTER_14
100
AcDbText
  0
ENDBLK
  5
40
330
3C
100
AcDbEntity
  8
0
100
AcDbBlockEnd
  0
BLOCK
  5
42
330
41
100
AcDbEntity
  8
0
100
AcDbBlockBegin
  2
Profil_re
 70
     0
 71
     0
 10
821.0762736908457
 20
-403.8482515903729
 30
0.0
  3
Profil_re
  1

  0
LINE
  5
36D
330
41
100
AcDbEntity
  8
1
  6
Continuous
 62
     1
100
AcDbLine
 10
1495.99682727771
 20
-629.5408011364825
 30
0.0
 11
1495.996845447734
 21
-615.5408011364825
 31
0.0
  0
LINE
  5
36E
330
41
100
AcDbEntity
  8
1
  6
Continuous
 62
     1
100
AcDbLine
 10
1502.996809107692
 20
-615.5408011364825
 30
0.0
 11
1495.996845447734
 21
-615.5408011364825
 31
0.0
  0
LINE
  5
36F
330
41
100
AcDbEntity
  8
1
  6
Continuous
 62
     1
100
AcDbLine
 10
1502.996809107692
 20
-629.5408011364825
 30
0.0
 11
1495.99682727771
 21
-629.5408011364825
 31
0.0
  0
LINE
  5
370
330
41
100
AcDbEntity
  8
1
  6
Continuous
 62
     1
100
AcDbLine
 10
1502.996871404916
 20
-615.5408011364824
 30
0.0
 11
1634.996766278667
 21
-615.5408011364825
 31
0.0
  0
LINE
  5
371
330
41
100
AcDbEntity
  8
1
  6
Continuous
 62
     1
100
AcDbLine
 10
1495.996777959391
 20
-667.5405571364827
 30
0.0
 11
1495.99682727771
 21
-629.5408011364825
 31
0.0
  0
LINE
  5
372
330
41
100
AcDbEntity
  8
1
  6
Continuous
 62
     1
100
AcDbLine
 10
1495.996809107686
 20
-643.5408011364825
 30
0.0
 11
1495.996809107698
 21
-643.5407920514706
 31
0.0
  0
LINE
  5
373
330
41
100
AcDbEntity
  8
0
  6
Continuous
 62
     1
100
AcDbLine
 10
1502.996766278667
 20
-676.5405571364827
 30
0.0
 11
1502.996871404916
 21
-615.5408011364824
 31
0.0
  0
LINE
  5
374
330
41
100
AcDbEntity
  8
1
  6
Continuous
 62
     1
100
AcDbLine
 10
1502.996809107692
 20
-615.5408011364825
 30
0.0
 11
1502.996871404916
 21
-615.5408011364824
 31
0.0
  0
LINE
  5
375
330
41
100
AcDbEntity
  8
1
  6
Continuous
 62
     1
100
AcDbLine
 10
1502.996809107692
 20
-622.5408011364825
 30
0.0
 11
1634.996766278667
 21
-622.5408011364825
 31
0.0
  0
LINE
  5
376
330
41
100
AcDbEntity
  8
1
  6
Continuous
 62
     1
100
AcDbLine
 10
1502.996809107692
 20
-629.5408011364825
 30
0.0
 11
1634.996766278667
 21
-629.5408011364825
 31
0.0
  0
LINE
  5
377
330
41
100
AcDbEntity
  8
1
  6
Continuous
 62
     1
100
AcDbLine
 10
1502.996809107692
 20
-636.5408011364825
 30
0.0
 11
1634.996766278667
 21
-636.5408011364825
 31
0.0
  0
LINE
  5
378
330
41
100
AcDbEntity
  8
1
  6
Continuous
 62
     1
100
AcDbLine
 10
1502.996766278667
 20
-655.5408011364825
 30
0.0
 11
1634.996766278667
 21
-655.5408011364825
 31
0.0
  0
LINE
  5
379
330
41
100
AcDbEntity
  8
0
  6
Continuous
 62
     1
100
AcDbLine
 10
1495.996777959391
 20
-667.5405571364827
 30
0.0
 11
1634.996766278667
 21
-667.5405571364827
 31
0.0
  0
LINE
  5
37A
330
41
100
AcDbEntity
  8
1
  6
Continuous
 62
     1
100
AcDbLine
 10
1502.996766278667
 20
-643.5408011364825
 30
0.0
 11
1502.996809107692
 21
-643.5408011364825
 31
0.0
  0
LINE
  5
37B
330
41
100
AcDbEntity
  8
0
  6
Continuous
 62
     1
100
AcDbLine
 10
1536.746827278666
 20
-676.5405571364827
 30
0.0
 11
1536.746916246906
 21
-615.5408011364825
 31
0.0
  0
LINE
  5
37C
330
41
100
AcDbEntity
  8
0
  6
Continuous
 62
     1
100
AcDbLine
 10
1515.746827278666
 20
-676.5405571364827
 30
0.0
 11
1515.746932404915
 21
-615.5408011364825
 31
0.0
  0
LINE
  5
37D
330
41
100
AcDbEntity
  8
1
  6
Continuous
 62
     1
100
AcDbLine
 10
1495.996809107686
 20
-643.5408011364825
 30
0.0
 11
1634.996766278667
 21
-643.5408011364825
 31
0.0
  0
LINE
  5
37E
330
41
100
AcDbEntity
  8
0
  6
Continuous
 62
     1
100
AcDbLine
 10
1379.718330904518
 20
-580.9947607691356
 30
0.0
 11
1372.718330904518
 21
-580.9947607691356
 31
0.0
  0
LINE
  5
37F
330
41
100
AcDbEntity
  8
0
  6
Continuous
 62
     3
100
AcDbLine
 10
1379.718330904518
 20
-581.6947127691355
 30
0.0
 11
1372.718330904518
 21
-581.6947127691355
 31
0.0
  0
LINE
  5
380
330
41
100
AcDbEntity
  8
0
  6
Continuous
 62
     1
100
AcDbLine
 10
1379.718330904518
 20
-585.9947607691356
 30
0.0
 11
1379.718330904518
 21
-580.9947607691356
 31
0.0
  0
LINE
  5
381
330
41
100
AcDbEntity
  8
0
  6
Continuous
 62
     3
100
AcDbLine
 10
1379.718330904518
 20
-585.2945657691362
 30
0.0
 11
1372.718330904518
 21
-585.2945657691362
 31
0.0
  0
LINE
  5
382
330
41
100
AcDbEntity
  8
0
  6
Continuous
 62
     1
100
AcDbLine
 10
1379.718330904518
 20
-585.9947607691356
 30
0.0
 11
1372.718330904518
 21
-585.9947607691356
 31
0.0
  0
MTEXT
  5
384
330
41
100
AcDbEntity
  8
1
 62
     3
100
AcDbMText
 10
1500.70426354148
 20
-628.5270889716154
 30
0.0
 40
2.25
 41
0.0
 71
     7
 72
     1
  1
Wahlweise
  7
CONVERTER_15
 11
0.0
 21
1.0
 31
0.0
 73
     1
 44
1.02040816326531
  0
MTEXT
  5
385
330
41
100
AcDbEntity
  8
1
 62
     3
100
AcDbMText
 10
1500.70426354148
 20
-642.5270889716154
 30
0.0
 40
2.25
 41
0.0
 71
     7
 72
     1
  1
Wahlweise
  7
CONVERTER_15
 11
0.0
 21
1.0
 31
0.0
 73
     1
 44
1.02040816326531
  0
TEXT
  5
386
330
41
100
AcDbEntity
  8
0
 62
     4
100
AcDbText
 10
1538.746827278666
 20
-620.2909231364832
 30
0.0
 40
3.0
  1
Klemmplatte zu TS 3000 V für Ganzglastüren
 41
0.81
  7
CONVERTER_11
100
AcDbText
  0
TEXT
  5
387
330
41
100
AcDbEntity
  8
0
 62
     4
100
AcDbText
 10
1594.746827278666
 20
-653.0408011364829
 30
0.0
 40
2.5
  1
Gleitschiene
 41
0.99
  7
CONVERTER_14
100
AcDbText
  0
TEXT
  5
388
330
41
100
AcDbEntity
  8
0
 62
     4
100
AcDbText
 10
1594.746827278666
 20
-648.5408011364829
 30
0.0
 40
2.5
  1
ohne
 41
0.99
  7
CONVERTER_14
100
AcDbText
  0
MTEXT
  5
389
330
41
100
AcDbEntity
  8
1
 62
     3
100
AcDbMText
 10
1500.70426354148
 20
-661.5270889716154
 30
0.0
 40
2.25
 41
0.0
 71
     7
 72
     1
  1
Wahlweise
  7
CONVERTER_15
 11
0.0
 21
1.0
 31
0.0
 73
     1
 44
1.02040816326531
  0
TEXT
  5
38A
330
41
100
AcDbEntity
  8
0
 62
     4
100
AcDbText
 10
1538.746827278666
 20
-651.2909231364832
 30
0.0
 40
3.5
  1
GEZE TS 3000 V
 41
0.99
  7
CONVERTER_14
100
AcDbText
  0
TEXT
  5
38B
330
41
100
AcDbEntity
  8
0
 62
     4
100
AcDbText
 10
1507.6116950075
 20
-621.1000977738917
 30
0.0
 40
4.0
  1
6
 41
1.045
  7
CONVERTER_12
100
AcDbText
  0
TEXT
  5
38C
330
41
100
AcDbEntity
  8
0
 62
     4
100
AcDbText
 10
1525.459158170914
 20
-621.0439534754145
 30
0.0
 40
4.0
  1
1
 41
1.045
  7
CONVERTER_12
100
AcDbText
  0
TEXT
  5
38E
330
41
100
AcDbEntity
  8
0
 62
     4
100
AcDbText
 10
1538.746827278666
 20
-627.2909231364832
 30
0.0
 40
3.0
  1
Klemmplatte zu TS 5000 für Ganzglastüren
 41
0.819
  7
CONVERTER_16
100
AcDbText
  0
TEXT
  5
38F
330
41
100
AcDbEntity
  8
0
 62
     4
100
AcDbText
 10
1525.459158170914
 20
-628.0439534754145
 30
0.0
 40
4.0
  1
1
 41
1.045
  7
CONVERTER_12
100
AcDbText
  0
TEXT
  5
390
330
41
100
AcDbEntity
  8
0
 62
     4
100
AcDbText
 10
1507.6116950075
 20
-628.1000977738917
 30
0.0
 40
4.0
  1
5
 41
1.045
  7
CONVERTER_12
100
AcDbText
  0
TEXT
  5
391
330
41
100
AcDbEntity
  8
0
 62
     4
100
AcDbText
 10
1525.459158170914
 20
-635.0439534754145
 30
0.0
 40
4.0
  1
1
 41
1.045
  7
CONVERTER_12
100
AcDbText
  0
TEXT
  5
392
330
41
100
AcDbEntity
  8
0
 62
     4
100
AcDbText
 10
1507.6116950075
 20
-635.1000977738917
 30
0.0
 40
4.0
  1
4
 41
1.045
  7
CONVERTER_12
100
AcDbText
  0
TEXT
  5
393
330
41
100
AcDbEntity
  8
0
 62
     4
100
AcDbText
 10
1538.746827278666
 20
-634.7909231364832
 30
0.0
 40
3.5
  1
E-Gleitschiene mit Hebel
 41
0.99
  7
CONVERTER_14
100
AcDbText
  0
TEXT
  5
394
330
41
100
AcDbEntity
  8
0
 62
     4
100
AcDbText
 10
1525.459158170914
 20
-642.0439534754145
 30
0.0
 40
4.0
  1
1
 41
1.045
  7
CONVERTER_12
100
AcDbText
  0
TEXT
  5
395
330
41
100
AcDbEntity
  8
0
 62
     4
100
AcDbText
 10
1507.6116950075
 20
-642.1000977738917
 30
0.0
 40
4.0
  1
3
 41
1.045
  7
CONVERTER_12
100
AcDbText
  0
TEXT
  5
396
330
41
100
AcDbEntity
  8
0
 62
     4
100
AcDbText
 10
1538.930937877766
 20
-641.7909231364832
 30
0.0
 40
3.5
  1
Gleitschiene mit Hebel
 41
0.99
  7
CONVERTER_14
100
AcDbText
  0
TEXT
  5
397
330
41
100
AcDbEntity
  8
0
 62
     4
100
AcDbText
 10
1594.746827278666
 20
-660.5408011364829
 30
0.0
 40
2.5
  1
ohne
 41
0.99
  7
CONVERTER_14
100
AcDbText
  0
TEXT
  5
398
330
41
100
AcDbEntity
  8
0
 62
     4
100
AcDbText
 10
1594.746827278666
 20
-665.0408011364829
 30
0.0
 40
2.5
  1
Gleitschiene
 41
0.99
  7
CONVERTER_14
100
AcDbText
  0
TEXT
  5
399
330
41
100
AcDbEntity
  8
0
 62
     4
100
AcDbText
 10
1538.746827278666
 20
-673.790557136483
 30
0.0
 40
3.0
  1
Bezeichnung
 41
0.99
  7
CONVERTER_14
100
AcDbText
  0
TEXT
  5
39A
330
41
100
AcDbEntity
  8
0
 62
     4
100
AcDbText
 10
1538.746827278666
 20
-663.2908011364829
 30
0.0
 40
3.5
  1
GEZE TS 5000
 41
0.99
  7
CONVERTER_14
100
AcDbText
  0
TEXT
  5
39B
330
41
100
AcDbEntity
  8
0
 62
     4
100
AcDbText
 10
1507.6116950075
 20
-651.6000977738917
 30
0.0
 40
4.0
  1
2
 41
1.045
  7
CONVERTER_12
100
AcDbText
  0
TEXT
  5
39C
330
41
100
AcDbEntity
  8
0
 62
     4
100
AcDbText
 10
1525.459158170914
 20
-651.5439534754145
 30
0.0
 40
4.0
  1
1
 41
1.045
  7
CONVERTER_12
100
AcDbText
  0
TEXT
  5
39D
330
41
100
AcDbEntity
  8
0
 62
     4
100
AcDbText
 10
1525.420558860373
 20
-663.7706770166645
 30
0.0
 40
4.0
  1
1
 41
1.045
  7
CONVERTER_12
100
AcDbText
  0
TEXT
  5
39E
330
41
100
AcDbEntity
  8
0
 62
     4
100
AcDbText
 10
1517.746827278666
 20
-673.790557136483
 30
0.0
 40
3.0
  1
Anzahl
 41
0.99
  7
CONVERTER_14
100
AcDbText
  0
TEXT
  5
39F
330
41
100
AcDbEntity
  8
0
 62
     4
100
AcDbText
 10
1504.996766278667
 20
-673.790557136483
 30
0.0
 40
3.0
  1
Pos.
 41
0.99
  7
CONVERTER_14
100
AcDbText
  0
TEXT
  5
3A0
330
41
100
AcDbEntity
  8
0
 62
     4
100
AcDbText
 10
1508.415260174093
 20
-663.7145327181901
 30
0.0
 40
4.0
  1
1
 41
1.045
  7
CONVERTER_12
100
AcDbText
  0
ENDBLK
  5
43
330
41
100
AcDbEntity
  8
0
100
AcDbBlockEnd
  0
BLOCK
  5
47
330
44
100
AcDbEntity
  8
0
100
AcDbBlockBegin
  2
TOP__2
 70
     0
 71
     0
 10
4653.00082440163
 20
-5765.546086921167
 30
0.0
  3
TOP__2
  1

  0
INSERT
  5
45
330
44
100
AcDbEntity
  8
0
100
AcDbBlockReference
  2
20520-0-35
 10
1050.996766278667
 20
-719.540557136483
 30
0.0
  0
INSERT
  5
46
330
44
100
AcDbEntity
  8
1
100
AcDbBlockReference
  2
Profil_re
 10
821.0762736908457
 20
-403.8482515903729
 30
0.0
  0
ENDBLK
  5
48
330
44
100
AcDbEntity
  8
0
100
AcDbBlockEnd
  0
BLOCK
  5
4A
330
49
100
AcDbEntity
  8
0
100
AcDbBlockBegin
  2
a2kl
 70
     0
 71
     0
 10
1225.176181315137
 20
-718.5529434758257
 30
0.0
  3
a2kl
  1

  0
POINT
  5
3A1
330
49
100
AcDbEntity
  8
1
 62
     3
 60
     1
100
AcDbPoint
 10
1572.110734523548
 20
-713.344992848307
 30
0.0
  0
POINT
  5
3A2
330
49
100
AcDbEntity
  8
1
 62
     3
 60
     1
100
AcDbPoint
 10
1572.110734523548
 20
-718.2254459627159
 30
0.0
  0
POINT
  5
3A3
330
49
100
AcDbEntity
  8
1
 62
     3
 60
     1
100
AcDbPoint
 10
1574.755449339736
 20
-715.8029434758257
 30
0.0
  0
POINT
  5
3A4
330
49
100
AcDbEntity
  8
1
 62
     3
 60
     1
100
AcDbPoint
 10
1569.602345213349
 20
-715.8029434758257
 30
0.0
  0
POINT
  5
3A5
330
49
100
AcDbEntity
  8
1
 62
     3
 60
     1
100
AcDbPoint
 10
1572.110734523548
 20
-715.8029434758257
 30
0.0
  0
POINT
  5
3A6
330
49
100
AcDbEntity
  8
1
 62
     3
 60
     1
100
AcDbPoint
 10
1565.894291450446
 20
-715.8029434758257
 30
0.0
  0
POINT
  5
3A7
330
49
100
AcDbEntity
  8
1
 62
     3
 60
     1
100
AcDbPoint
 10
1557.496640281519
 20
-715.8029434758257
 30
0.0
  0
POINT
  5
3A8
330
49
100
AcDbEntity
  8
1
 62
     3
 60
     1
100
AcDbPoint
 10
1558.209482387226
 20
-716.8029434758257
 30
0.0
  0
POINT
  5
3A9
330
49
100
AcDbEntity
  8
1
 62
     3
 60
     1
100
AcDbPoint
 10
1558.209482387226
 20
-714.8029434758257
 30
0.0
  0
POINT
  5
3AA
330
49
100
AcDbEntity
  8
1
 62
     3
 60
     1
100
AcDbPoint
 10
1580.176181315137
 20
-713.0529434758257
 30
0.0
  0
POINT
  5
3AB
330
49
100
AcDbEntity
  8
1
 62
     3
 60
     1
100
AcDbPoint
 10
1553.176181315137
 20
-713.0529434758257
 30
0.0
  0
LINE
  5
3AC
330
49
100
AcDbEntity
  8
0
  6
Continuous
 62
     1
100
AcDbLine
 10
1456.176181315137
 20
-718.5529434758257
 30
0.0
 11
1456.176181315137
 21
-675.5529434758257
 31
0.0
  0
LINE
  5
3AD
330
49
100
AcDbEntity
  8
1
  6
DOT_CENTER
 62
     7
100
AcDbLine
 10
1572.110734523548
 20
-718.2254459627159
 30
0.0
 11
1572.110734523548
 21
-713.344992848307
 31
0.0
  0
LINE
  5
3AE
330
49
100
AcDbEntity
  8
1
  6
DOT_CENTER
 62
     7
100
AcDbLine
 10
1569.602345213349
 20
-715.8029434758257
 30
0.0
 11
1574.755449339736
 21
-715.8029434758257
 31
0.0
  0
LINE
  5
3AF
330
49
100
AcDbEntity
  8
1
  6
DOT_CENTER
 62
     7
100
AcDbLine
 10
1557.496640281519
 20
-715.8029434758257
 30
0.0
 11
1565.894291450446
 21
-715.8029434758257
 31
0.0
  0
LINE
  5
3B0
330
49
100
AcDbEntity
  8
1
  6
Continuous
 62
     4
100
AcDbLine
 10
1558.209482387226
 20
-716.8029434758257
 30
0.0
 11
1558.209482387226
 21
-714.8029434758257
 31
0.0
  0
LINE
  5
3B1
330
49
100
AcDbEntity
  8
1
  6
Continuous
 62
     4
100
AcDbLine
 10
1565.209482387226
 20
-717.8029434758257
 30
0.0
 11
1558.209482387226
 21
-716.8029434758257
 31
0.0
  0
LINE
  5
3B2
330
49
100
AcDbEntity
  8
1
  6
Continuous
 62
     4
100
AcDbLine
 10
1565.209482387226
 20
-713.8029434758257
 30
0.0
 11
1565.209482387226
 21
-717.8029434758257
 31
0.0
  0
LINE
  5
3B3
330
49
100
AcDbEntity
  8
1
  6
Continuous
 62
     4
100
AcDbLine
 10
1558.209482387226
 20
-714.8029434758257
 30
0.0
 11
1565.209482387226
 21
-713.8029434758257
 31
0.0
  0
LINE
  5
3B4
330
49
100
AcDbEntity
  8
0
  6
Continuous
 62
     1
100
AcDbLine
 10
1580.176181315137
 20
-713.0529434758257
 30
0.0
 11
1580.176181315137
 21
-692.5529434758257
 31
0.0
  0
LINE
  5
3B5
330
49
100
AcDbEntity
  8
0
  6
Continuous
 62
     1
100
AcDbLine
 10
1553.176181315137
 20
-713.0529434758257
 30
0.0
 11
1553.176181315137
 21
-718.5529434758257
 31
0.0
  0
LINE
  5
3B6
330
49
100
AcDbEntity
  8
1
  6
Continuous
 62
     1
100
AcDbLine
 10
1553.176181315137
 20
-713.0529434758257
 30
0.0
 11
1580.176181315137
 21
-713.0529434758257
 31
0.0
  0
LINE
  5
3B7
330
49
100
AcDbEntity
  8
0
  6
Continuous
 62
     1
100
AcDbLine
 10
1503.176181315137
 20
-687.5529434758257
 30
0.0
 11
1503.176181315137
 21
-712.6862768105757
 31
0.0
  0
LINE
  5
3B8
330
49
100
AcDbEntity
  8
0
  6
Continuous
 62
     1
100
AcDbLine
 10
1544.176181315137
 20
-687.5529434758257
 30
0.0
 11
1544.176181315137
 21
-692.5529434758257
 31
0.0
  0
LINE
  5
3B9
330
49
100
AcDbEntity
  8
0
  6
Continuous
 62
     1
100
AcDbLine
 10
1503.176181315137
 20
-687.5529434758257
 30
0.0
 11
1544.176181315137
 21
-687.5529434758257
 31
0.0
  0
LINE
  5
3BA
330
49
100
AcDbEntity
  8
0
  6
Continuous
 62
     2
100
AcDbLine
 10
1635.176181315137
 20
-718.5529434758257
 30
0.0
 11
1456.176181315137
 21
-718.5529434758257
 31
0.0
  0
LINE
  5
3BB
330
49
100
AcDbEntity
  8
0
  6
Continuous
 62
     4
100
AcDbLine
 10
1456.176181315137
 20
-714.2529404758257
 30
0.0
 11
1503.176181315137
 21
-714.2529404758257
 31
0.0
  0
LINE
  5
3BC
330
49
100
AcDbEntity
  8
0
  6
Continuous
 62
     3
100
AcDbLine
 10
1503.176181315137
 20
-709.9529524758257
 30
0.0
 11
1456.176181315137
 21
-709.9529524758257
 31
0.0
  0
LINE
  5
3BD
330
49
100
AcDbEntity
  8
0
  6
Continuous
 62
     3
100
AcDbLine
 10
1456.176181315137
 20
-705.6529494758257
 30
0.0
 11
1503.176181315137
 21
-705.6529494758257
 31
0.0
  0
LINE
  5
3BE
330
49
100
AcDbEntity
  8
0
  6
Continuous
 62
     3
100
AcDbLine
 10
1503.176181315137
 20
-701.3529464758257
 30
0.0
 11
1456.176181315137
 21
-701.3529464758257
 31
0.0
  0
LINE
  5
3BF
330
49
100
AcDbEntity
  8
0
  6
Continuous
 62
     3
100
AcDbLine
 10
1456.176181315137
 20
-697.0529434758257
 30
0.0
 11
1503.176181315137
 21
-697.0529434758257
 31
0.0
  0
LINE
  5
3C0
330
49
100
AcDbEntity
  8
0
  6
Continuous
 62
     3
100
AcDbLine
 10
1503.176181315137
 20
-692.7529554758257
 30
0.0
 11
1456.176181315137
 21
-692.7529554758257
 31
0.0
  0
LINE
  5
3C1
330
49
100
AcDbEntity
  8
0
  6
Continuous
 62
     3
100
AcDbLine
 10
1456.176181315137
 20
-688.4529524758257
 30
0.0
 11
1503.176181315137
 21
-688.4529524758257
 31
0.0
  0
LINE
  5
3C2
330
49
100
AcDbEntity
  8
0
  6
Continuous
 62
     3
100
AcDbLine
 10
1503.176181315137
 20
-684.1529494758257
 30
0.0
 11
1456.176181315137
 21
-684.1529494758257
 31
0.0
  0
LINE
  5
3C3
330
49
100
AcDbEntity
  8
0
  6
Continuous
 62
     3
100
AcDbLine
 10
1456.176181315137
 20
-679.8529464758257
 30
0.0
 11
1503.176181315137
 21
-679.8529464758257
 31
0.0
  0
LINE
  5
3C4
330
49
100
AcDbEntity
  8
0
  6
Continuous
 62
     3
100
AcDbLine
 10
1469.176181315137
 20
-718.5529434758257
 30
0.0
 11
1469.176181315137
 21
-675.5529434758257
 31
0.0
  0
LINE
  5
3C5
330
49
100
AcDbEntity
  8
0
  6
Continuous
 62
     3
100
AcDbLine
 10
1481.176181315137
 20
-718.5529434758257
 30
0.0
 11
1481.176181315137
 21
-675.5529434758257
 31
0.0
  0
LINE
  5
3C6
330
49
100
AcDbEntity
  8
0
  6
Continuous
 62
     3
100
AcDbLine
 10
1489.176181315137
 20
-718.5529434758257
 30
0.0
 11
1489.176181315137
 21
-675.5529434758257
 31
0.0
  0
LINE
  5
3C7
330
49
100
AcDbEntity
  8
0
  6
Continuous
 62
     3
100
AcDbLine
 10
1553.176181315137
 20
-701.2529434758258
 30
0.0
 11
1503.176181315137
 21
-701.2529434758258
 31
0.0
  0
LINE
  5
3C8
330
49
100
AcDbEntity
  8
0
  6
Continuous
 62
     3
100
AcDbLine
 10
1503.176181315137
 20
-696.9529434758257
 30
0.0
 11
1553.176181315137
 21
-696.9529434758257
 31
0.0
  0
LINE
  5
3C9
330
49
100
AcDbEntity
  8
0
  6
Continuous
 62
     3
100
AcDbLine
 10
1521.176181315137
 20
-705.5529434758257
 30
0.0
 11
1521.176181315137
 21
-692.5529434758257
 31
0.0
  0
LINE
  5
3CA
330
49
100
AcDbEntity
  8
0
  6
Continuous
 62
     3
100
AcDbLine
 10
1538.176181315137
 20
-705.5529434758257
 30
0.0
 11
1538.176181315137
 21
-692.5529372428994
 31
0.0
  0
LINE
  5
3CB
330
49
100
AcDbEntity
  8
0
  6
Continuous
 62
     1
100
AcDbLine
 10
1580.176181315137
 20
-705.5862768958257
 30
0.0
 11
1553.176181315137
 21
-705.5862768958257
 31
0.0
  0
LINE
  5
3CC
330
49
100
AcDbEntity
  8
0
  6
Continuous
 62
     2
100
AcDbLine
 10
1635.176181315137
 20
-675.5529434758257
 30
0.0
 11
1635.176181315137
 21
-718.5529434758257
 31
0.0
  0
LINE
  5
3CD
330
49
100
AcDbEntity
  8
0
  6
Continuous
 62
     1
100
AcDbLine
 10
1544.176181315137
 20
-675.5529434758257
 30
0.0
 11
1635.176181315137
 21
-675.5529434758257
 31
0.0
  0
LINE
  5
3CE
330
49
100
AcDbEntity
  8
0
  6
Continuous
 62
     1
100
AcDbLine
 10
1503.176181315137
 20
-688.5529434758257
 30
0.0
 11
1503.176181315137
 21
-688.4523545968642
 31
0.0
  0
LINE
  5
3CF
330
49
100
AcDbEntity
  8
0
  6
Continuous
 62
     3
100
AcDbLine
 10
1503.176181315137
 20
-712.0529434758257
 30
0.0
 11
1553.176181315137
 21
-712.0529434758257
 31
0.0
  0
LINE
  5
3D0
330
49
100
AcDbEntity
  8
0
  6
Continuous
 62
     1
100
AcDbLine
 10
1544.176181315137
 20
-675.5529434758257
 30
0.0
 11
1456.176181315137
 21
-675.5529434758257
 31
0.0
  0
LINE
  5
3D1
330
49
100
AcDbEntity
  8
0
  6
Continuous
 62
     1
100
AcDbLine
 10
1544.176181315137
 20
-692.5529434758257
 30
0.0
 11
1553.176181315137
 21
-692.5529434758257
 31
0.0
  0
LINE
  5
3D2
330
49
100
AcDbEntity
  8
0
  6
Continuous
 62
     1
100
AcDbLine
 10
1544.176181315137
 20
-675.5529434758257
 30
0.0
 11
1544.176181315137
 21
-679.5766052144196
 31
0.0
  0
LINE
  5
3D3
330
49
100
AcDbEntity
  8
0
  6
Continuous
 62
     1
100
AcDbLine
 10
1635.176181315137
 20
-705.5529434758257
 30
0.0
 11
1580.176181315137
 21
-705.5529434758257
 31
0.0
  0
LINE
  5
3D4
330
49
100
AcDbEntity
  8
0
  6
Continuous
 62
     1
100
AcDbLine
 10
1503.176181315137
 20
-675.5529434758257
 30
0.0
 11
1503.176181315137
 21
-687.5529434758257
 31
0.0
  0
LINE
  5
3D5
330
49
100
AcDbEntity
  8
0
  6
Continuous
 62
     1
100
AcDbLine
 10
1580.176181315137
 20
-718.5529434758257
 30
0.0
 11
1580.176181315137
 21
-713.0529434758257
 31
0.0
  0
LINE
  5
3D6
330
49
100
AcDbEntity
  8
0
  6
Continuous
 62
     1
100
AcDbLine
 10
1456.176181315137
 20
-718.5529434758257
 30
0.0
 11
1456.176181315137
 21
-675.5529434758257
 31
0.0
  0
LINE
  5
3D7
330
49
100
AcDbEntity
  8
0
  6
Continuous
 62
     1
100
AcDbLine
 10
1544.176181315137
 20
-679.5766052144196
 30
0.0
 11
1544.176181315137
 21
-687.5529434758257
 31
0.0
  0
LINE
  5
3D8
330
49
100
AcDbEntity
  8
0
  6
Continuous
 62
     7
100
AcDbLine
 10
1517.471375421365
 20
-678.7699434947057
 30
0.0
 11
1517.471375421365
 21
-678.470927941399
 31
0.0
  0
LINE
  5
3D9
330
49
100
AcDbEntity
  8
0
  6
Continuous
 62
     7
100
AcDbLine
 10
1518.795732207171
 20
-680.0330161239393
 30
0.0
 11
1518.795732207171
 21
-679.6303366104652
 31
0.0
  0
LINE
  5
3DA
330
49
100
AcDbEntity
  8
0
  6
Continuous
 62
     7
100
AcDbLine
 10
1518.853437722456
 20
-678.7202347969777
 30
0.0
 11
1521.168046544675
 21
-678.7202347969777
 31
0.0
  0
LINE
  5
3DB
330
49
100
AcDbEntity
  8
0
  6
Continuous
 62
     7
100
AcDbLine
 10
1521.168046544675
 20
-678.7202347969777
 30
0.0
 11
1521.168046544675
 21
-678.3317363661401
 31
0.0
  0
LINE
  5
3DC
330
49
100
AcDbEntity
  8
0
  6
Continuous
 62
     7
100
AcDbLine
 10
1521.168046544675
 20
-678.3317363661401
 30
0.0
 11
1518.088823112299
 21
-678.3317363661401
 31
0.0
  0
LINE
  5
3DD
330
49
100
AcDbEntity
  8
0
  6
Continuous
 62
     7
100
AcDbLine
 10
1517.95113931351
 20
-678.4694201649282
 30
0.0
 11
1517.95113931351
 21
-680.3678165506385
 31
0.0
  0
LINE
  5
3DE
330
49
100
AcDbEntity
  8
0
  6
Continuous
 62
     7
100
AcDbLine
 10
1518.088823112299
 20
-680.5055003494266
 30
0.0
 11
1521.168046544675
 21
-680.5055003494266
 31
0.0
  0
LINE
  5
3DF
330
49
100
AcDbEntity
  8
0
  6
Continuous
 62
     7
100
AcDbLine
 10
1521.168046544675
 20
-680.5055003494266
 30
0.0
 11
1521.168046544675
 21
-680.0893593499562
 31
0.0
  0
LINE
  5
3E0
330
49
100
AcDbEntity
  8
0
  6
Continuous
 62
     7
100
AcDbLine
 10
1521.168046544675
 20
-680.0893593499562
 30
0.0
 11
1518.853437722456
 21
-680.0893593499562
 31
0.0
  0
LINE
  5
3E1
330
49
100
AcDbEntity
  8
0
  6
Continuous
 62
     7
100
AcDbLine
 10
1518.853437722456
 20
-679.5739933844482
 30
0.0
 11
1521.168046544675
 21
-679.5739933844482
 31
0.0
  0
LINE
  5
3E2
330
49
100
AcDbEntity
  8
0
  6
Continuous
 62
     7
100
AcDbLine
 10
1521.168046544675
 20
-679.5739933844482
 30
0.0
 11
1521.168046544675
 21
-679.230971624198
 31
0.0
  0
LINE
  5
3E3
330
49
100
AcDbEntity
  8
0
  6
Continuous
 62
     7
100
AcDbLine
 10
1521.168046544675
 20
-679.230971624198
 30
0.0
 11
1518.853437722456
 21
-679.230971624198
 31
0.0
  0
LINE
  5
3E4
330
49
100
AcDbEntity
  8
0
  6
Continuous
 62
     7
100
AcDbLine
 10
1518.795732207171
 20
-679.174628398181
 30
0.0
 11
1518.795732207171
 21
-678.7765780229947
 31
0.0
  0
LINE
  5
3E5
330
49
100
AcDbEntity
  8
0
  6
Continuous
 62
     7
100
AcDbLine
 10
1511.383225328038
 20
-680.0330161239393
 30
0.0
 11
1511.383225328038
 21
-679.6303366104652
 31
0.0
  0
LINE
  5
3E6
330
49
100
AcDbEntity
  8
0
  6
Continuous
 62
     7
100
AcDbLine
 10
1507.443775740697
 20
-680.5101427138238
 30
0.0
 11
1509.420814572863
 21
-680.5101427138238
 31
0.0
  0
LINE
  5
3E7
330
49
100
AcDbEntity
  8
0
  6
Continuous
 62
     7
100
AcDbLine
 10
1506.835374708589
 20
-678.8012103451777
 30
0.0
 11
1506.835374708589
 21
-680.0406687347862
 31
0.0
  0
LINE
  5
3E8
330
49
100
AcDbEntity
  8
0
  6
Continuous
 62
     7
100
AcDbLine
 10
1507.679504688421
 20
-678.9094660505648
 30
0.0
 11
1507.679504688421
 21
-679.892799461704
 31
0.0
  0
LINE
  5
3E9
330
49
100
AcDbEntity
  8
0
  6
Continuous
 62
     7
100
AcDbLine
 10
1507.821711816621
 20
-680.0307874610081
 30
0.0
 11
1509.100054967848
 21
-680.0307874610081
 31
0.0
  0
LINE
  5
3EA
330
49
100
AcDbEntity
  8
0
  6
Continuous
 62
     7
100
AcDbLine
 10
1507.821711816621
 20
-678.7714780512607
 30
0.0
 11
1509.097039414906
 21
-678.7714780512607
 31
0.0
  0
LINE
  5
3EB
330
49
100
AcDbEntity
  8
0
  6
Continuous
 62
     7
100
AcDbLine
 10
1521.859057856057
 20
-680.8701574115194
 30
0.0
 11
1506.144376623317
 21
-680.8701574115194
 31
0.0
  0
LINE
  5
3EC
330
49
100
AcDbEntity
  8
0
  6
Continuous
 62
     7
100
AcDbLine
 10
1505.75865036896
 20
-677.5471238785797
 30
0.0
 11
1522.244784110414
 21
-677.5471238785797
 31
0.0
  0
LINE
  5
3ED
330
49
100
AcDbEntity
  8
0
  6
Continuous
 62
     7
100
AcDbLine
 10
1522.854018387414
 20
-678.0179072424472
 30
0.0
 11
1522.854018387414
 21
-680.8239718375168
 31
0.0
  0
LINE
  5
3EE
330
49
100
AcDbEntity
  8
0
  6
Continuous
 62
     7
100
AcDbLine
 10
1522.244784110414
 20
-681.2947552013842
 30
0.0
 11
1505.75865036896
 21
-681.2947552013842
 31
0.0
  0
LINE
  5
3EF
330
49
100
AcDbEntity
  8
0
  6
Continuous
 62
     7
100
AcDbLine
 10
1505.149416091959
 20
-680.8239718375168
 30
0.0
 11
1505.149416091959
 21
-678.0179072424472
 31
0.0
  0
LINE
  5
3F0
330
49
100
AcDbEntity
  8
0
  6
Continuous
 62
     7
100
AcDbLine
 10
1521.995577757218
 20
-680.7336375103579
 30
0.0
 11
1521.995577757218
 21
-678.108241569606
 31
0.0
  0
LINE
  5
3F1
330
49
100
AcDbEntity
  8
0
  6
Continuous
 62
     7
100
AcDbLine
 10
1521.859057856057
 20
-677.9717216684445
 30
0.0
 11
1506.144376623317
 21
-677.9717216684445
 31
0.0
  0
LINE
  5
3F2
330
49
100
AcDbEntity
  8
0
  6
Continuous
 62
     7
100
AcDbLine
 10
1506.007856722155
 20
-678.108241569606
 30
0.0
 11
1506.007856722155
 21
-680.7336375103579
 31
0.0
  0
LINE
  5
3F3
330
49
100
AcDbEntity
  8
0
  6
Continuous
 62
     7
100
AcDbLine
 10
1508.423076558533
 20
-679.6239933844482
 30
0.0
 11
1509.176713497893
 21
-679.6239933844482
 31
0.0
  0
LINE
  5
3F4
330
49
100
AcDbEntity
  8
0
  6
Continuous
 62
     7
100
AcDbLine
 10
1509.235344840835
 20
-678.9088841017515
 30
0.0
 11
1509.235344840835
 21
-678.9889285158021
 31
0.0
  0
LINE
  5
3F5
330
49
100
AcDbEntity
  8
0
  6
Continuous
 62
     7
100
AcDbLine
 10
1509.235344840835
 20
-678.9889285158021
 30
0.0
 11
1510.029215604971
 21
-678.9889285158021
 31
0.0
  0
LINE
  5
3F6
330
49
100
AcDbEntity
  8
0
  6
Continuous
 62
     7
100
AcDbLine
 10
1510.029215604971
 20
-678.9889285158021
 30
0.0
 11
1510.029215604971
 21
-678.8012103451777
 31
0.0
  0
LINE
  5
3F7
330
49
100
AcDbEntity
  8
0
  6
Continuous
 62
     7
100
AcDbLine
 10
1509.420814572863
 20
-678.3317363661401
 30
0.0
 11
1507.443775740697
 21
-678.3317363661401
 31
0.0
  0
LINE
  5
3F8
330
49
100
AcDbEntity
  8
0
  6
Continuous
 62
     7
100
AcDbLine
 10
1510.029215604971
 20
-680.0406687347862
 30
0.0
 11
1510.029215604971
 21
-679.2809716241981
 31
0.0
  0
LINE
  5
3F9
330
49
100
AcDbEntity
  8
0
  6
Continuous
 62
     7
100
AcDbLine
 10
1510.029215604971
 20
-679.2809716241981
 30
0.0
 11
1508.423076558533
 21
-679.2809716241981
 31
0.0
  0
LINE
  5
3FA
330
49
100
AcDbEntity
  8
0
  6
Continuous
 62
     7
100
AcDbLine
 10
1508.423076558533
 20
-679.2809716241981
 30
0.0
 11
1508.423076558533
 21
-679.6239933844482
 31
0.0
  0
LINE
  5
3FB
330
49
100
AcDbEntity
  8
0
  6
Continuous
 62
     7
100
AcDbLine
 10
1511.440930843323
 20
-678.7202347969777
 30
0.0
 11
1513.755539665543
 21
-678.7202347969777
 31
0.0
  0
LINE
  5
3FC
330
49
100
AcDbEntity
  8
0
  6
Continuous
 62
     7
100
AcDbLine
 10
1513.755539665543
 20
-678.7202347969777
 30
0.0
 11
1513.755539665543
 21
-678.3317363661401
 31
0.0
  0
LINE
  5
3FD
330
49
100
AcDbEntity
  8
0
  6
Continuous
 62
     7
100
AcDbLine
 10
1513.755539665543
 20
-678.3317363661401
 30
0.0
 11
1510.676316233166
 21
-678.3317363661401
 31
0.0
  0
LINE
  5
3FE
330
49
100
AcDbEntity
  8
0
  6
Continuous
 62
     7
100
AcDbLine
 10
1510.538632434378
 20
-678.4694201649282
 30
0.0
 11
1510.538632434378
 21
-680.3678165506385
 31
0.0
  0
LINE
  5
3FF
330
49
100
AcDbEntity
  8
0
  6
Continuous
 62
     7
100
AcDbLine
 10
1510.676316233166
 20
-680.5055003494266
 30
0.0
 11
1513.755539665543
 21
-680.5055003494266
 31
0.0
  0
LINE
  5
400
330
49
100
AcDbEntity
  8
0
  6
Continuous
 62
     7
100
AcDbLine
 10
1513.755539665543
 20
-680.5055003494266
 30
0.0
 11
1513.755539665543
 21
-680.0893593499562
 31
0.0
  0
LINE
  5
401
330
49
100
AcDbEntity
  8
0
  6
Continuous
 62
     7
100
AcDbLine
 10
1513.755539665543
 20
-680.0893593499562
 30
0.0
 11
1511.440930843323
 21
-680.0893593499562
 31
0.0
  0
LINE
  5
402
330
49
100
AcDbEntity
  8
0
  6
Continuous
 62
     7
100
AcDbLine
 10
1511.440930843323
 20
-679.5739933844482
 30
0.0
 11
1513.755539665543
 21
-679.5739933844482
 31
0.0
  0
LINE
  5
403
330
49
100
AcDbEntity
  8
0
  6
Continuous
 62
     7
100
AcDbLine
 10
1513.755539665543
 20
-679.5739933844482
 30
0.0
 11
1513.755539665543
 21
-679.230971624198
 31
0.0
  0
LINE
  5
404
330
49
100
AcDbEntity
  8
0
  6
Continuous
 62
     7
100
AcDbLine
 10
1513.755539665543
 20
-679.230971624198
 30
0.0
 11
1511.440930843323
 21
-679.230971624198
 31
0.0
  0
LINE
  5
405
330
49
100
AcDbEntity
  8
0
  6
Continuous
 62
     7
100
AcDbLine
 10
1511.383225328038
 20
-679.174628398181
 30
0.0
 11
1511.383225328038
 21
-678.7765780229947
 31
0.0
  0
LINE
  5
406
330
49
100
AcDbEntity
  8
0
  6
Continuous
 62
     7
100
AcDbLine
 10
1514.277098063372
 20
-678.3894286553153
 30
0.0
 11
1514.277098063372
 21
-678.6625425078026
 31
0.0
  0
LINE
  5
407
330
49
100
AcDbEntity
  8
0
  6
Continuous
 62
     7
100
AcDbLine
 10
1514.334790352548
 20
-678.7202347969777
 30
0.0
 11
1516.215556334436
 21
-678.7202347969777
 31
0.0
  0
LINE
  5
408
330
49
100
AcDbEntity
  8
0
  6
Continuous
 62
     7
100
AcDbLine
 10
1516.215556334436
 20
-678.7202347969777
 30
0.0
 11
1514.277098063372
 21
-680.0393593499562
 31
0.0
  0
LINE
  5
409
330
49
100
AcDbEntity
  8
0
  6
Continuous
 62
     7
100
AcDbLine
 10
1514.277098063372
 20
-680.0393593499562
 30
0.0
 11
1514.277098063372
 21
-680.4485884007057
 31
0.0
  0
LINE
  5
40A
330
49
100
AcDbEntity
  8
0
  6
Continuous
 62
     7
100
AcDbLine
 10
1514.334790352548
 20
-680.5061352026776
 30
0.0
 11
1517.413683132189
 21
-680.5061352026776
 31
0.0
  0
LINE
  5
40B
330
49
100
AcDbEntity
  8
0
  6
Continuous
 62
     7
100
AcDbLine
 10
1517.471375421365
 20
-680.4485884007057
 30
0.0
 11
1517.471375421365
 21
-680.1469061519281
 31
0.0
  0
LINE
  5
40C
330
49
100
AcDbEntity
  8
0
  6
Continuous
 62
     7
100
AcDbLine
 10
1517.413683132189
 20
-680.0893593499562
 30
0.0
 11
1515.569394760008
 21
-680.0893593499562
 31
0.0
  0
LINE
  5
40D
330
49
100
AcDbEntity
  8
0
  6
Continuous
 62
     7
100
AcDbLine
 10
1515.569394760008
 20
-680.0893593499562
 30
0.0
 11
1517.471375421365
 21
-678.7699434947057
 31
0.0
  0
LINE
  5
40E
330
49
100
AcDbEntity
  8
0
  6
Continuous
 62
     7
100
AcDbLine
 10
1517.336244261689
 20
-678.3317363661401
 30
0.0
 11
1514.334790352548
 21
-678.3317363661401
 31
0.0
  0
LINE
  5
40F
330
49
100
AcDbEntity
  8
0
  6
Continuous
 62
     7
100
AcDbLine
 10
1509.236178085727
 20
-679.6821112854823
 30
0.0
 11
1509.236178085727
 21
-679.7938443243461
 31
0.0
  0
LINE
  5
410
330
49
100
AcDbEntity
  8
0
  6
Continuous
 62
     1
100
AcDbLine
 10
1544.176181315137
 20
-692.5529434758257
 30
0.0
 11
1503.176181315137
 21
-692.5529434758257
 31
0.0
  0
LINE
  5
411
330
49
100
AcDbEntity
  8
0
  6
Continuous
 62
     1
100
AcDbLine
 10
1553.176181315137
 20
-705.5529434758257
 30
0.0
 11
1538.176181315137
 21
-705.5529434758257
 31
0.0
  0
LINE
  5
412
330
49
100
AcDbEntity
  8
0
  6
Continuous
 62
     1
100
AcDbLine
 10
1553.176181315137
 20
-692.5529434758257
 30
0.0
 11
1553.176181315137
 21
-713.0529434758257
 31
0.0
  0
LINE
  5
413
330
49
100
AcDbEntity
  8
0
  6
Continuous
 62
     1
100
AcDbLine
 10
1553.176181315137
 20
-692.5529434758257
 30
0.0
 11
1635.176181315137
 21
-692.5529434758257
 31
0.0
  0
LINE
  5
414
330
49
100
AcDbEntity
  8
0
  6
Continuous
 62
     1
100
AcDbLine
 10
1553.176181315137
 20
-698.7196101858257
 30
0.0
 11
1580.176181315137
 21
-698.7196101858257
 31
0.0
  0
LINE
  5
415
330
49
100
AcDbEntity
  8
0
  6
Continuous
 62
     1
100
AcDbLine
 10
1521.176181315137
 20
-705.5529434758257
 30
0.0
 11
1503.176181315137
 21
-705.5529434758257
 31
0.0
  0
LINE
  5
416
330
49
100
AcDbEntity
  8
0
  6
Continuous
 62
     1
100
AcDbLine
 10
1538.176181315137
 20
-705.5529434758257
 30
0.0
 11
1521.176181315137
 21
-705.5529434758257
 31
0.0
  0
LINE
  5
417
330
49
100
AcDbEntity
  8
0
  6
Continuous
 62
     1
100
AcDbLine
 10
1503.176181315137
 20
-712.6862768105757
 30
0.0
 11
1503.176181315137
 21
-718.5529434758257
 31
0.0
  0
LINE
  5
418
330
49
100
AcDbEntity
  8
0
  6
Continuous
 62
     3
100
AcDbLine
 10
1461.676181315137
 20
-718.5529434758257
 30
0.0
 11
1461.676181315137
 21
-675.5529434758257
 31
0.0
  0
LINE
  5
419
330
49
100
AcDbEntity
  8
0
  6
Continuous
 62
     1
100
AcDbLine
 10
1456.176181315137
 20
-718.5529434758257
 30
0.0
 11
1456.176181315137
 21
-675.5529434758257
 31
0.0
  0
LINE
  5
41A
330
49
100
AcDbEntity
  8
0
  6
Continuous
 62
     2
100
AcDbLine
 10
1635.176181315137
 20
-308.5529434758257
 30
0.0
 11
1635.176181315137
 21
-718.5529434758257
 31
0.0
  0
LINE
  5
41B
330
49
100
AcDbEntity
  8
1
  6
Continuous
 62
     2
100
AcDbLine
 10
1051.176181315137
 20
-718.5529434758257
 30
0.0
 11
1456.176181315137
 21
-718.5529434758257
 31
0.0
  0
LINE
  5
41C
330
49
100
AcDbEntity
  8
0
  6
Continuous
 62
     2
100
AcDbLine
 10
1051.176181315137
 20
-308.5529434758257
 30
0.0
 11
1635.176181315137
 21
-308.5529434758257
 31
0.0
  0
LINE
  5
41D
330
49
100
AcDbEntity
  8
0
  6
Continuous
 62
     2
100
AcDbLine
 10
1051.176181315137
 20
-718.5529434758257
 30
0.0
 11
1051.176181315137
 21
-426.5529434758257
 31
0.0
  0
LINE
  5
41E
330
49
100
AcDbEntity
  8
0
  6
Continuous
 62
     3
100
AcDbLine
 10
1066.176181315137
 20
-697.0529434758257
 30
0.0
 11
1066.176181315137
 21
-426.5529434758257
 31
0.0
  0
LINE
  5
41F
330
49
100
AcDbEntity
  8
1
  6
Continuous
 62
     3
100
AcDbLine
 10
1066.176181315137
 20
-426.5529434758257
 30
0.0
 11
1051.176181315137
 21
-426.5529434758257
 31
0.0
  0
LINE
  5
420
330
49
100
AcDbEntity
  8
0
  6
Continuous
 62
     2
100
AcDbLine
 10
1051.176181315137
 20
-426.5529434758257
 30
0.0
 11
1051.176181315137
 21
-308.5529434758257
 31
0.0
  0
ARC
  5
421
330
49
100
AcDbEntity
  8
0
  6
Continuous
 62
     7
100
AcDbCircle
 10
1517.413755875791
 20
-680.1469788955299
 30
0.0
 40
0.0576195914929002
100
AcDbArc
 50
0.07233481473196
 51
90.07233481495877
  0
ARC
  5
422
330
49
100
AcDbEntity
  8
0
  6
Continuous
 62
     7
100
AcDbCircle
 10
1517.413755875791
 20
-680.448515657104
 30
0.0
 40
0.0576195914922183
100
AcDbArc
 50
-90.07233481495891
 51
-0.07233481461891
  0
ARC
  5
423
330
49
100
AcDbEntity
  8
0
  6
Continuous
 62
     7
100
AcDbCircle
 10
1514.334717608946
 20
-680.448515657104
 30
0.0
 40
0.0576195914926727
100
AcDbArc
 50
-179.9276651853808
 51
-89.92766518504109
  0
ARC
  5
424
330
49
100
AcDbEntity
  8
0
  6
Continuous
 62
     7
100
AcDbCircle
 10
1514.334790352548
 20
-678.6625425078026
 30
0.0
 40
0.057692289175975
100
AcDbArc
 50
180.0
 51
-90.0
  0
ARC
  5
425
330
49
100
AcDbEntity
  8
0
  6
Continuous
 62
     7
100
AcDbCircle
 10
1514.334790352548
 20
-678.3894286553153
 30
0.0
 40
0.0576922891751792
100
AcDbArc
 50
90.0
 51
180.0
  0
ARC
  5
426
330
49
100
AcDbEntity
  8
0
  6
Continuous
 62
     7
100
AcDbCircle
 10
1518.852631209982
 20
-680.0324633783393
 30
0.0
 40
0.0569016875723287
100
AcDbArc
 50
-179.4434174191852
 51
-89.18787455665009
  0
ARC
  5
427
330
49
100
AcDbEntity
  8
0
  6
Continuous
 62
     7
100
AcDbCircle
 10
1518.852631209982
 20
-679.6308893560652
 30
0.0
 40
0.0569016875726242
100
AcDbArc
 50
89.1878745566517
 51
179.4434174191852
  0
ARC
  5
428
330
49
100
AcDbEntity
  8
0
  6
Continuous
 62
     7
100
AcDbCircle
 10
1518.852631209982
 20
-678.7771307685946
 30
0.0
 40
0.0569016875725105
100
AcDbArc
 50
89.18787455665009
 51
179.4434174192997
  0
ARC
  5
429
330
49
100
AcDbEntity
  8
0
  6
Continuous
 62
     7
100
AcDbCircle
 10
1518.852631209982
 20
-679.174075652581
 30
0.0
 40
0.0569016875723287
100
AcDbArc
 50
-179.4434174191852
 51
-89.1878745566517
  0
ARC
  5
42A
330
49
100
AcDbEntity
  8
0
  6
Continuous
 62
     7
100
AcDbCircle
 10
1511.440124330849
 20
-680.0324633783393
 30
0.0
 40
0.0569016875723287
100
AcDbArc
 50
-179.4434174191852
 51
-89.18787455642116
  0
ARC
  5
42B
330
49
100
AcDbEntity
  8
0
  6
Continuous
 62
     7
100
AcDbCircle
 10
1511.440124330849
 20
-679.6308893560652
 30
0.0
 40
0.0569016875726274
100
AcDbArc
 50
89.18787455642278
 51
179.4434174191852
  0
ARC
  5
42C
330
49
100
AcDbEntity
  8
0
  6
Continuous
 62
     7
100
AcDbCircle
 10
1511.440124330849
 20
-678.7771307685946
 30
0.0
 40
0.0569016875725137
100
AcDbArc
 50
89.18787455642116
 51
179.4434174192997
  0
ARC
  5
42D
330
49
100
AcDbEntity
  8
0
  6
Continuous
 62
     7
100
AcDbCircle
 10
1511.440124330849
 20
-679.174075652581
 30
0.0
 40
0.0569016875723287
100
AcDbArc
 50
-179.4434174191852
 51
-89.18787455642278
  0
ARC
  5
42E
330
49
100
AcDbEntity
  8
0
  6
Continuous
 62
     7
100
AcDbCircle
 10
1509.176713497893
 20
-679.6834735747498
 30
0.0
 40
0.0594801903017104
100
AcDbArc
 50
1.31237392904223
 51
90.0
  0
ARC
  5
42F
330
49
100
AcDbEntity
  8
0
  6
Continuous
 62
     7
100
AcDbCircle
 10
1521.859057856057
 20
-680.7336375103579
 30
0.0
 40
0.1365199011614777
100
AcDbArc
 50
-90.0
 51
0.0
  0
ARC
  5
430
330
49
100
AcDbEntity
  8
0
  6
Continuous
 62
     7
100
AcDbCircle
 10
1521.859057856057
 20
-678.108241569606
 30
0.0
 40
0.1365199011609093
100
AcDbArc
 50
0.0
 51
90.0
  0
ARC
  5
431
330
49
100
AcDbEntity
  8
0
  6
Continuous
 62
     7
100
AcDbCircle
 10
1506.144376623317
 20
-680.7336375103579
 30
0.0
 40
0.1365199011618188
100
AcDbArc
 50
180.0
 51
-90.0
  0
ARC
  5
432
330
49
100
AcDbEntity
  8
0
  6
Continuous
 62
     7
100
AcDbCircle
 10
1506.144376623317
 20
-678.108241569606
 30
0.0
 40
0.1365199011614777
100
AcDbArc
 50
90.0
 51
180.0
  0
CIRCLE
  5
433
330
49
100
AcDbEntity
  8
1
  6
Continuous
 62
     4
100
AcDbCircle
 10
1572.110734523548
 20
-715.8029434758257
 30
0.0
 40
2.0
  0
CIRCLE
  5
434
330
49
100
AcDbEntity
  8
1
  6
Continuous
 62
     4
100
AcDbCircle
 10
1572.110734523548
 20
-715.8029434758257
 30
0.0
 40
1.0
  0
SPLINE
  5
435
330
49
100
AcDbEntity
  8
0
  6
Continuous
 62
     7
100
AcDbSpline
210
0.0
220
0.0
230
1.0
 70
     8
 71
     3
 72
    13
 73
     9
 74
     7
 42
0.0000000001
 43
0.0000000001
 44
0.00000001
 40
0.0
 40
0.0
 40
0.0
 40
0.0
 40
0.0353323702701014
 40
0.0704203827952235
 40
0.1027084056753098
 40
0.1352293371690974
 40
0.1740111215771087
 40
0.2125287438774763
 40
0.2125287438774763
 40
0.2125287438774763
 40
0.2125287438774763
 10
1517.471375421365
 20
-678.470927941399
 30
0.0
 10
1517.470489227218
 20
-678.4591060359959
 30
0.0
 10
1517.46872296782
 20
-678.4355439851771
 30
0.0
 10
1517.454266835146
 20
-678.403777501771
 30
0.0
 10
1517.433579108762
 20
-678.377406092846
 30
0.0
 10
1517.407321551106
 20
-678.3548971574041
 30
0.0
 10
1517.375028121797
 20
-678.3359289775007
 30
0.0
 10
1517.349142728242
 20
-678.3331307156777
 30
0.0
 10
1517.336244261689
 20
-678.3317363661401
 30
0.0
 11
1517.471375421365
 21
-678.470927941399
 31
0.0
 11
1517.466666342825
 21
-678.4359107889134
 31
0.0
 11
1517.452660476573
 21
-678.4037393056792
 31
0.0
 11
1517.432881219654
 21
-678.37821877635
 31
0.0
 11
1517.408306560611
 21
-678.3569186092584
 31
0.0
 11
1517.374156300797
 21
-678.3385396387615
 31
0.0
 11
1517.336244261689
 21
-678.3317363661401
 31
0.0
  0
SPLINE
  5
436
330
49
100
AcDbEntity
  8
0
  6
Continuous
 62
     7
100
AcDbSpline
210
0.0
220
0.0
230
1.0
 70
     8
 71
     3
 72
    13
 73
     9
 74
     7
 42
0.0000000001
 43
0.0000000001
 44
0.00000001
 40
0.0
 40
0.0
 40
0.0
 40
0.0
 40
0.0381152522465959
 40
0.0763355512010452
 40
0.1127548768764967
 40
0.1486421571418698
 40
0.1827729054952585
 40
0.2174479487770373
 40
0.2174479487770373
 40
0.2174479487770373
 40
0.2174479487770373
 10
1518.088823112299
 20
-680.5055003494266
 30
0.0
 10
1518.076071193858
 20
-680.5045321762541
 30
0.0
 10
1518.050532212331
 20
-680.5025931615967
 30
0.0
 10
1518.015656878674
 20
-680.4868321240914
 30
0.0
 10
1517.986106979943
 20
-680.4644734935307
 30
0.0
 10
1517.963803258638
 20
-680.4361150783958
 30
0.0
 10
1517.952504633375
 20
-680.4023847729036
 30
0.0
 10
1517.95159681393
 20
-680.3793998994216
 30
0.0
 10
1517.95113931351
 20
-680.3678165506385
 30
0.0
 11
1518.088823112299
 21
-680.5055003494266
 31
0.0
 11
1518.051048087689
 21
-680.5004190140181
 31
0.0
 11
1518.015920797321
 21
-680.4853569848201
 31
0.0
 11
1517.987025125265
 21
-680.4631892736376
 31
0.0
 11
1517.965304476671
 21
-680.434621629186
 31
0.0
 11
1517.95416714645
 21
-680.4023591454206
 31
0.0
 11
1517.95113931351
 21
-680.3678165506385
 31
0.0
  0
SPLINE
  5
437
330
49
100
AcDbEntity
  8
0
  6
Continuous
 62
     7
100
AcDbSpline
210
0.0
220
0.0
230
1.0
 70
     8
 71
     3
 72
    13
 73
     9
 74
     7
 42
0.0000000001
 43
0.0000000001
 44
0.00000001
 40
0.0
 40
0.0
 40
0.0
 40
0.0
 40
0.0381152522466111
 40
0.0763355512010604
 40
0.1127548768765119
 40
0.148642157141885
 40
0.1827729054950587
 40
0.2174479487769508
 40
0.2174479487769508
 40
0.2174479487769508
 40
0.2174479487769508
 10
1518.088823112299
 20
-678.3317363661401
 30
0.0
 10
1518.076071193859
 20
-678.3327045393127
 30
0.0
 10
1518.050532212332
 20
-678.3346435539702
 30
0.0
 10
1518.015656878673
 20
-678.3504045914755
 30
0.0
 10
1517.986106979944
 20
-678.3727632220359
 30
0.0
 10
1517.963803258638
 20
-678.4011216371711
 30
0.0
 10
1517.952504633375
 20
-678.434851942663
 30
0.0
 10
1517.95159681393
 20
-678.457836816145
 30
0.0
 10
1517.95113931351
 20
-678.4694201649282
 30
0.0
 11
1518.088823112299
 21
-678.3317363661401
 31
0.0
 11
1518.051048087689
 21
-678.3368177015487
 31
0.0
 11
1518.015920797321
 21
-678.3518797307468
 31
0.0
 11
1517.987025125265
 21
-678.3740474419293
 31
0.0
 11
1517.965304476671
 21
-678.4026150863808
 31
0.0
 11
1517.95416714645
 21
-678.434877570146
 31
0.0
 11
1517.95113931351
 21
-678.4694201649282
 31
0.0
  0
SPLINE
  5
438
330
49
100
AcDbEntity
  8
0
  6
Continuous
 62
     7
100
AcDbSpline
210
0.0
220
0.0
230
1.0
 70
     8
 71
     3
 72
    13
 73
     9
 74
     7
 42
0.0000000001
 43
0.0000000001
 44
0.00000001
 40
0.0
 40
0.0
 40
0.0
 40
0.0
 40
0.0381152522470466
 40
0.076335551201078
 40
0.1127548768765294
 40
0.1486421571416273
 40
0.1827729054949418
 40
0.2174479487767007
 40
0.2174479487767007
 40
0.2174479487767007
 40
0.2174479487767007
 10
1510.676316233166
 20
-680.5055003494266
 30
0.0
 10
1510.663564314726
 20
-680.5045321762543
 30
0.0
 10
1510.638025333198
 20
-680.5025931615968
 30
0.0
 10
1510.60314999954
 20
-680.486832124091
 30
0.0
 10
1510.573600100811
 20
-680.4644734935312
 30
0.0
 10
1510.551296379504
 20
-680.4361150783957
 30
0.0
 10
1510.539997754243
 20
-680.4023847729036
 30
0.0
 10
1510.539089934798
 20
-680.3793998994216
 30
0.0
 10
1510.538632434378
 20
-680.3678165506385
 30
0.0
 11
1510.676316233166
 21
-680.5055003494266
 31
0.0
 11
1510.638541208556
 21
-680.5004190140181
 31
0.0
 11
1510.603413918188
 21
-680.4853569848201
 31
0.0
 11
1510.574518246132
 21
-680.4631892736376
 31
0.0
 11
1510.552797597538
 21
-680.434621629186
 31
0.0
 11
1510.541660267318
 21
-680.4023591454206
 31
0.0
 11
1510.538632434378
 21
-680.3678165506385
 31
0.0
  0
SPLINE
  5
439
330
49
100
AcDbEntity
  8
0
  6
Continuous
 62
     7
100
AcDbSpline
210
0.0
220
0.0
230
1.0
 70
     8
 71
     3
 72
    13
 73
     9
 74
     7
 42
0.0000000001
 43
0.0000000001
 44
0.00000001
 40
0.0
 40
0.0
 40
0.0
 40
0.0
 40
0.0381152522470618
 40
0.0763355512010931
 40
0.1127548768765446
 40
0.1486421571416425
 40
0.182772905494742
 40
0.2174479487766142
 40
0.2174479487766142
 40
0.2174479487766142
 40
0.2174479487766142
 10
1510.676316233166
 20
-678.3317363661401
 30
0.0
 10
1510.663564314726
 20
-678.3327045393127
 30
0.0
 10
1510.638025333199
 20
-678.3346435539702
 30
0.0
 10
1510.60314999954
 20
-678.3504045914756
 30
0.0
 10
1510.573600100811
 20
-678.372763222036
 30
0.0
 10
1510.551296379505
 20
-678.401121637171
 30
0.0
 10
1510.539997754243
 20
-678.4348519426632
 30
0.0
 10
1510.539089934798
 20
-678.4578368161449
 30
0.0
 10
1510.538632434378
 20
-678.4694201649282
 30
0.0
 11
1510.676316233166
 21
-678.3317363661401
 31
0.0
 11
1510.638541208556
 21
-678.3368177015487
 31
0.0
 11
1510.603413918188
 21
-678.3518797307468
 31
0.0
 11
1510.574518246132
 21
-678.3740474419293
 31
0.0
 11
1510.552797597538
 21
-678.4026150863808
 31
0.0
 11
1510.541660267318
 21
-678.434877570146
 31
0.0
 11
1510.538632434378
 21
-678.4694201649282
 31
0.0
  0
SPLINE
  5
43A
330
49
100
AcDbEntity
  8
0
  6
Continuous
 62
     7
100
AcDbSpline
210
0.0
220
0.0
230
1.0
 70
     8
 71
     3
 72
    13
 73
     9
 74
     7
 42
0.0000000001
 43
0.0000000001
 44
0.00000001
 40
0.0
 40
0.0
 40
0.0
 40
0.0
 40
0.030324938364094
 40
0.0604417851173013
 40
0.0959479298116689
 40
0.1315593707303039
 40
0.1736623628001573
 40
0.2160932553482171
 40
0.2160932553482171
 40
0.2160932553482171
 40
0.2160932553482171
 10
1509.235344840835
 20
-678.9088841017515
 30
0.0
 10
1509.234671661704
 20
-678.8987449130216
 30
0.0
 10
1509.233329922838
 20
-678.8785361113045
 30
0.0
 10
1509.221628561887
 20
-678.8483453975708
 30
0.0
 10
1509.203602609661
 20
-678.8195908646351
 30
0.0
 10
1509.176497717289
 20
-678.7927574232828
 30
0.0
 10
1509.139537219967
 20
-678.7745839795157
 30
0.0
 10
1509.111241935009
 20
-678.7725160344792
 30
0.0
 10
1509.097039414906
 20
-678.7714780512607
 30
0.0
 11
1509.235344840835
 21
-678.9088841017515
 31
0.0
 11
1509.231807541664
 21
-678.8787661768336
 31
0.0
 11
1509.22151033041
 21
-678.8504643765598
 31
0.0
 11
1509.202534041694
 21
-678.8204545985263
 31
0.0
 11
1509.176938341753
 21
-678.7956950575605
 31
0.0
 11
1509.139070027308
 21
-678.7772925386482
 31
0.0
 11
1509.097039414906
 21
-678.7714780512607
 31
0.0
  0
SPLINE
  5
43B
330
49
100
AcDbEntity
  8
0
  6
Continuous
 62
     7
100
AcDbSpline
210
0.0
220
0.0
230
1.0
 70
     8
 71
     3
 72
    14
 73
    10
 74
     8
 42
0.0000000001
 43
0.0000000001
 44
0.00000001
 40
0.0
 40
0.0
 40
0.0
 40
0.0
 40
0.0375510748547833
 40
0.0754042334900854
 40
0.1094159352402782
 40
0.1434580761254585
 40
0.1709669697093727
 40
0.2205583987492998
 40
0.3151356117045184
 40
0.3151356117045184
 40
0.3151356117045184
 40
0.3151356117045184
 10
1509.100054967848
 20
-680.0307874610081
 30
0.0
 10
1509.112605807552
 20
-680.0300455045752
 30
0.0
 10
1509.137808453578
 20
-680.0285556229586
 30
0.0
 10
1509.172377057956
 20
-680.0145802559939
 30
0.0
 10
1509.19987302473
 20
-679.9919546888223
 30
0.0
 10
1509.219451544978
 20
-679.9662206171006
 30
0.0
 10
1509.231795714415
 20
-679.9308095320513
 30
0.0
 10
1509.234955847926
 20
-679.8732776343437
 30
0.0
 10
1509.235693906243
 20
-679.8253111788259
 30
0.0
 10
1509.236178085727
 20
-679.7938443243461
 30
0.0
 11
1509.100054967848
 21
-680.0307874610081
 31
0.0
 11
1509.137365340937
 21
-680.0265425484421
 31
0.0
 11
1509.172467916778
 21
-680.0123767167322
 31
0.0
 11
1509.198934508959
 21
-679.9910151775964
 31
0.0
 11
1509.219023821844
 21
-679.9635326947414
 31
0.0
 11
1509.228433645791
 21
-679.9376832375037
 31
0.0
 11
1509.233901103873
 21
-679.8883941237325
 31
0.0
 11
1509.236178085727
 21
-679.7938443243461
 31
0.0
  0
SPLINE
  5
43C
330
49
100
AcDbEntity
  8
0
  6
Continuous
 62
     7
100
AcDbSpline
210
0.0
220
0.0
230
1.0
 70
     8
 71
     3
 72
    13
 73
     9
 74
     7
 42
0.0000000001
 43
0.0000000001
 44
0.00000001
 40
0.0
 40
0.0
 40
0.0
 40
0.0
 40
0.0328394650075122
 40
0.0655975995951035
 40
0.1022664447830346
 40
0.1389211607504937
 40
0.17825328135324
 40
0.2177267691612051
 40
0.2177267691612051
 40
0.2177267691612051
 40
0.2177267691612051
 10
1507.821711816621
 20
-680.0307874610081
 30
0.0
 10
1507.810728924984
 20
-680.0299273061955
 30
0.0
 10
1507.788790342009
 20
-680.0282091268352
 30
0.0
 10
1507.757077272957
 20
-680.014450858922
 30
0.0
 10
1507.727557770971
 20
-679.9946783196356
 30
0.0
 10
1507.701448298758
 20
-679.967281933771
 30
0.0
 10
1507.682977400885
 20
-679.9324063352835
 30
0.0
 10
1507.680663642771
 20
-679.9060175322791
 30
0.0
 10
1507.679504688421
 20
-679.892799461704
 30
0.0
 11
1507.821711816621
 21
-680.0307874610081
 31
0.0
 11
1507.789163284719
 21
-680.0264258634824
 31
0.0
 11
1507.758781988126
 21
-680.0141754676097
 31
0.0
 11
1507.728406699487
 21
-679.9936341422516
 31
0.0
 11
1507.703338137548
 21
-679.9668921265275
 31
0.0
 11
1507.685564107028
 21
-679.9318050982951
 31
0.0
 11
1507.679504688421
 21
-679.892799461704
 31
0.0
  0
SPLINE
  5
43D
330
49
100
AcDbEntity
  8
0
  6
Continuous
 62
     7
100
AcDbSpline
210
0.0
220
0.0
230
1.0
 70
     8
 71
     3
 72
    13
 73
     9
 74
     7
 42
0.0000000001
 43
0.0000000001
 44
0.00000001
 40
0.0
 40
0.0
 40
0.0
 40
0.0
 40
0.1486423989486731
 40
0.2982382234604005
 40
0.4390496453780943
 40
0.5790300758309529
 40
0.7141201510145379
 40
0.8476890380265969
 40
0.8476890380265969
 40
0.8476890380265969
 40
0.8476890380265969
 10
1507.443775740697
 20
-680.5101427138238
 30
0.0
 10
1507.394142954914
 20
-680.507294066452
 30
0.0
 10
1507.294559027568
 20
-680.5015784998475
 30
0.0
 10
1507.15375439918
 20
-680.4570762612627
 30
0.0
 10
1507.025695718611
 20
-680.3901516211594
 30
0.0
 10
1506.922421750876
 20
-680.2954190686274
 30
0.0
 10
1506.851019182781
 20
-680.1751023775907
 30
0.0
 10
1506.840569811339
 20
-680.0853104772259
 30
0.0
 10
1506.835374708589
 20
-680.0406687347862
 30
0.0
 11
1507.443775740697
 21
-680.5101427138238
 31
0.0
 11
1507.295855592149
 21
-680.4955073997221
 31
0.0
 11
1507.15272197738
 21
-680.4520139630387
 31
0.0
 11
1507.028923905502
 21
-680.3849178085917
 31
0.0
 11
1506.926449697874
 21
-680.2895576613563
 31
0.0
 11
1506.859980509602
 21
-680.1719516435525
 31
0.0
 11
1506.835374708589
 21
-680.0406687347862
 31
0.0
  0
SPLINE
  5
43E
330
49
100
AcDbEntity
  8
0
  6
Continuous
 62
     7
100
AcDbSpline
210
0.0
220
0.0
230
1.0
 70
     8
 71
     3
 72
    13
 73
     9
 74
     7
 42
0.0000000001
 43
0.0000000001
 44
0.00000001
 40
0.0
 40
0.0
 40
0.0
 40
0.0
 40
0.0328394650074971
 40
0.0655975995951309
 40
0.1022664447831257
 40
0.1389211607506677
 40
0.1782532813533126
 40
0.2177267691611654
 40
0.2177267691611654
 40
0.2177267691611654
 40
0.2177267691611654
 10
1507.821711816621
 20
-678.7714780512607
 30
0.0
 10
1507.810728924985
 20
-678.7723382060733
 30
0.0
 10
1507.788790342009
 20
-678.7740563854336
 30
0.0
 10
1507.757077272957
 20
-678.7878146533465
 30
0.0
 10
1507.727557770971
 20
-678.8075871926335
 30
0.0
 10
1507.701448298758
 20
-678.8349835784979
 30
0.0
 10
1507.682977400885
 20
-678.8698591769854
 30
0.0
 10
1507.680663642771
 20
-678.89624797999
 30
0.0
 10
1507.679504688421
 20
-678.9094660505648
 30
0.0
 11
1507.821711816621
 21
-678.7714780512607
 31
0.0
 11
1507.789163284719
 21
-678.7758396487864
 31
0.0
 11
1507.758781988126
 21
-678.7880900446592
 31
0.0
 11
1507.728406699487
 21
-678.8086313700173
 31
0.0
 11
1507.703338137548
 21
-678.8353733857416
 31
0.0
 11
1507.685564107028
 21
-678.8704604139739
 31
0.0
 11
1507.679504688421
 21
-678.9094660505648
 31
0.0
  0
SPLINE
  5
43F
330
49
100
AcDbEntity
  8
0
  6
Continuous
 62
     7
100
AcDbSpline
210
0.0
220
0.0
230
1.0
 70
     8
 71
     3
 72
    13
 73
     9
 74
     7
 42
0.0000000001
 43
0.0000000001
 44
0.00000001
 40
0.0
 40
0.0
 40
0.0
 40
0.0
 40
0.1486423989486731
 40
0.2982382234604005
 40
0.4390496453784941
 40
0.5790300758311863
 40
0.7141201510146594
 40
0.8476890380266766
 40
0.8476890380266766
 40
0.8476890380266766
 40
0.8476890380266766
 10
1509.420814572863
 20
-680.5101427138238
 30
0.0
 10
1509.470447358647
 20
-680.507294066452
 30
0.0
 10
1509.570031285993
 20
-680.5015784998475
 30
0.0
 10
1509.71083591438
 20
-680.4570762612625
 30
0.0
 10
1509.83889459495
 20
-680.3901516211596
 30
0.0
 10
1509.942168562684
 20
-680.2954190686276
 30
0.0
 10
1510.013571130779
 20
-680.1751023775909
 30
0.0
 10
1510.024020502221
 20
-680.0853104772259
 30
0.0
 10
1510.029215604971
 20
-680.0406687347862
 30
0.0
 11
1509.420814572863
 21
-680.5101427138238
 31
0.0
 11
1509.568734721411
 21
-680.4955073997221
 31
0.0
 11
1509.71186833618
 21
-680.4520139630387
 31
0.0
 11
1509.835666408059
 21
-680.3849178085917
 31
0.0
 11
1509.938140615687
 21
-680.2895576613563
 31
0.0
 11
1510.004609803958
 21
-680.1719516435525
 31
0.0
 11
1510.029215604971
 21
-680.0406687347862
 31
0.0
  0
SPLINE
  5
440
330
49
100
AcDbEntity
  8
0
  6
Continuous
 62
     7
100
AcDbSpline
210
0.0
220
0.0
230
1.0
 70
     8
 71
     3
 72
    13
 73
     9
 74
     7
 42
0.0000000001
 43
0.0000000001
 44
0.00000001
 40
0.0
 40
0.0
 40
0.0
 40
0.0
 40
0.1486423989486731
 40
0.2982382234604005
 40
0.4390496453784941
 40
0.5790300758311863
 40
0.7141201510145604
 40
0.8476890380265776
 40
0.8476890380265776
 40
0.8476890380265776
 40
0.8476890380265776
 10
1509.420814572863
 20
-678.3317363661401
 30
0.0
 10
1509.470447358647
 20
-678.3345850135121
 30
0.0
 10
1509.570031285992
 20
-678.3403005801168
 30
0.0
 10
1509.71083591438
 20
-678.3848028187012
 30
0.0
 10
1509.838894594949
 20
-678.4517274588045
 30
0.0
 10
1509.942168562684
 20
-678.5464600113364
 30
0.0
 10
1510.01357113078
 20
-678.6667767023732
 30
0.0
 10
1510.02402050222
 20
-678.7565686027378
 30
0.0
 10
1510.029215604971
 20
-678.8012103451777
 30
0.0
 11
1509.420814572863
 21
-678.3317363661401
 31
0.0
 11
1509.568734721411
 21
-678.3463716802419
 31
0.0
 11
1509.71186833618
 21
-678.3898651169253
 31
0.0
 11
1509.835666408059
 21
-678.4569612713723
 31
0.0
 11
1509.938140615687
 21
-678.5523214186077
 31
0.0
 11
1510.004609803958
 21
-678.6699274364114
 31
0.0
 11
1510.029215604971
 21
-678.8012103451777
 31
0.0
  0
SPLINE
  5
441
330
49
100
AcDbEntity
  8
0
  6
Continuous
 62
     7
100
AcDbSpline
210
0.0
220
0.0
230
1.0
 70
     8
 71
     3
 72
    13
 73
     9
 74
     7
 42
0.0000000001
 43
0.0000000001
 44
0.00000001
 40
0.0
 40
0.0
 40
0.0
 40
0.0
 40
0.1486423989486731
 40
0.2982382234604005
 40
0.4390496453780943
 40
0.5790300758309529
 40
0.7141201510144389
 40
0.847689038026498
 40
0.847689038026498
 40
0.847689038026498
 40
0.847689038026498
 10
1507.443775740697
 20
-678.3317363661401
 30
0.0
 10
1507.394142954914
 20
-678.3345850135121
 30
0.0
 10
1507.294559027568
 20
-678.3403005801167
 30
0.0
 10
1507.15375439918
 20
-678.3848028187014
 30
0.0
 10
1507.025695718611
 20
-678.4517274588046
 30
0.0
 10
1506.922421750876
 20
-678.5464600113366
 30
0.0
 10
1506.85101918278
 20
-678.6667767023728
 30
0.0
 10
1506.840569811339
 20
-678.756568602738
 30
0.0
 10
1506.835374708589
 20
-678.8012103451777
 30
0.0
 11
1507.443775740697
 21
-678.3317363661401
 31
0.0
 11
1507.295855592149
 21
-678.3463716802419
 31
0.0
 11
1507.15272197738
 21
-678.3898651169253
 31
0.0
 11
1507.028923905502
 21
-678.4569612713723
 31
0.0
 11
1506.926449697874
 21
-678.5523214186077
 31
0.0
 11
1506.859980509602
 21
-678.6699274364114
 31
0.0
 11
1506.835374708589
 21
-678.8012103451777
 31
0.0
  0
SPLINE
  5
442
330
49
100
AcDbEntity
  8
0
  6
Continuous
 62
     7
100
AcDbSpline
210
0.0
220
0.0
230
1.0
 70
     8
 71
     3
 72
    13
 73
     9
 74
     7
 42
0.0000000001
 43
0.0000000001
 44
0.00000001
 40
0.0
 40
0.0
 40
0.0
 40
0.0
 40
0.160194710955982
 40
0.321095162735449
 40
0.4607710778823229
 40
0.6002079329854288
 40
0.7244156662360325
 40
0.8468166043869744
 40
0.8468166043869744
 40
0.8468166043869744
 40
0.8468166043869744
 10
1522.244784110414
 20
-677.5471238785797
 30
0.0
 10
1522.298288350072
 20
-677.5503648447425
 30
0.0
 10
1522.405532543328
 20
-677.5568610552057
 30
0.0
 10
1522.55243044109
 20
-677.6076564736559
 30
0.0
 10
1522.679390404131
 20
-677.6834164358033
 30
0.0
 10
1522.774259520245
 20
-677.7803971664564
 30
0.0
 10
1522.839694758484
 20
-677.8946039678622
 30
0.0
 10
1522.849267222205
 20
-677.9770073956802
 30
0.0
 10
1522.854018387414
 20
-678.0179072424472
 30
0.0
 11
1522.244784110414
 21
-677.5471238785797
 31
0.0
 11
1522.404083128892
 21
-677.5640403832475
 31
0.0
 11
1522.55658963937
 21
-677.6153309247228
 31
0.0
 11
1522.675732674753
 21
-677.6882301592306
 31
0.0
 11
1522.772995241269
 21
-677.7881432700605
 31
0.0
 11
1522.831825509947
 21
-677.8975350452837
 31
0.0
 11
1522.854018387414
 21
-678.0179072424472
 31
0.0
  0
SPLINE
  5
443
330
49
100
AcDbEntity
  8
0
  6
Continuous
 62
     7
100
AcDbSpline
210
0.0
220
0.0
230
1.0
 70
     8
 71
     3
 72
    13
 73
     9
 74
     7
 42
0.0000000001
 43
0.0000000001
 44
0.00000001
 40
0.0
 40
0.0
 40
0.0
 40
0.0
 40
0.160194710955982
 40
0.321095162735449
 40
0.4607710778823822
 40
0.6002079329854066
 40
0.7244156662360103
 40
0.8468166043868404
 40
0.8468166043868404
 40
0.8468166043868404
 40
0.8468166043868404
 10
1522.244784110414
 20
-681.2947552013842
 30
0.0
 10
1522.298288350072
 20
-681.2915142352214
 30
0.0
 10
1522.405532543327
 20
-681.2850180247582
 30
0.0
 10
1522.552430441091
 20
-681.2342226063081
 30
0.0
 10
1522.679390404131
 20
-681.1584626441602
 30
0.0
 10
1522.774259520245
 20
-681.0614819135074
 30
0.0
 10
1522.839694758484
 20
-680.9472751121018
 30
0.0
 10
1522.849267222205
 20
-680.8648716842838
 30
0.0
 10
1522.854018387414
 20
-680.8239718375168
 30
0.0
 11
1522.244784110414
 21
-681.2947552013842
 31
0.0
 11
1522.404083128892
 21
-681.2778386967163
 31
0.0
 11
1522.55658963937
 21
-681.2265481552411
 31
0.0
 11
1522.675732674753
 21
-681.1536489207332
 31
0.0
 11
1522.772995241269
 21
-681.0537358099034
 31
0.0
 11
1522.831825509947
 21
-680.9443440346802
 31
0.0
 11
1522.854018387414
 21
-680.8239718375168
 31
0.0
  0
SPLINE
  5
444
330
49
100
AcDbEntity
  8
0
  6
Continuous
 62
     7
100
AcDbSpline
210
0.0
220
0.0
230
1.0
 70
     8
 71
     3
 72
    13
 73
     9
 74
     7
 42
0.0000000001
 43
0.0000000001
 44
0.00000001
 40
0.0
 40
0.0
 40
0.0
 40
0.0
 40
0.1601947109557559
 40
0.3210951627354385
 40
0.4607710778825656
 40
0.6002079329854315
 40
0.7244156662364659
 40
0.846816604387296
 40
0.846816604387296
 40
0.846816604387296
 40
0.846816604387296
 10
1505.75865036896
 20
-681.2947552013842
 30
0.0
 10
1505.705146129302
 20
-681.2915142352215
 30
0.0
 10
1505.597901936047
 20
-681.2850180247585
 30
0.0
 10
1505.451004038283
 20
-681.2342226063078
 30
0.0
 10
1505.324044075242
 20
-681.1584626441604
 30
0.0
 10
1505.229174959129
 20
-681.061481913507
 30
0.0
 10
1505.163739720889
 20
-680.9472751121021
 30
0.0
 10
1505.154167257168
 20
-680.8648716842838
 30
0.0
 10
1505.149416091959
 20
-680.8239718375168
 30
0.0
 11
1505.75865036896
 21
-681.2947552013842
 31
0.0
 11
1505.599351350482
 21
-681.2778386967163
 31
0.0
 11
1505.446844840004
 21
-681.2265481552411
 31
0.0
 11
1505.327701804621
 21
-681.1536489207332
 31
0.0
 11
1505.230439238105
 21
-681.0537358099034
 31
0.0
 11
1505.171608969426
 21
-680.9443440346802
 31
0.0
 11
1505.149416091959
 21
-680.8239718375168
 31
0.0
  0
SPLINE
  5
445
330
49
100
AcDbEntity
  8
0
  6
Continuous
 62
     7
100
AcDbSpline
210
0.0
220
0.0
230
1.0
 70
     8
 71
     3
 72
    13
 73
     9
 74
     7
 42
0.0000000001
 43
0.0000000001
 44
0.00000001
 40
0.0
 40
0.0
 40
0.0
 40
0.0
 40
0.1601947109557559
 40
0.3210951627354385
 40
0.4607710778825063
 40
0.6002079329854536
 40
0.724415666236488
 40
0.8468166043874299
 40
0.8468166043874299
 40
0.8468166043874299
 40
0.8468166043874299
 10
1505.75865036896
 20
-677.5471238785797
 30
0.0
 10
1505.705146129302
 20
-677.5503648447424
 30
0.0
 10
1505.597901936047
 20
-677.5568610552054
 30
0.0
 10
1505.451004038283
 20
-677.6076564736561
 30
0.0
 10
1505.324044075242
 20
-677.6834164358031
 30
0.0
 10
1505.229174959129
 20
-677.7803971664571
 30
0.0
 10
1505.163739720889
 20
-677.8946039678617
 30
0.0
 10
1505.154167257168
 20
-677.9770073956802
 30
0.0
 10
1505.149416091959
 20
-678.0179072424472
 30
0.0
 11
1505.75865036896
 21
-677.5471238785797
 31
0.0
 11
1505.599351350482
 21
-677.5640403832475
 31
0.0
 11
1505.446844840004
 21
-677.6153309247228
 31
0.0
 11
1505.327701804621
 21
-677.6882301592306
 31
0.0
 11
1505.230439238105
 21
-677.7881432700605
 31
0.0
 11
1505.171608969426
 21
-677.8975350452837
 31
0.0
 11
1505.149416091959
 21
-678.0179072424472
 31
0.0
  0
MTEXT
  5
446
330
49
100
AcDbEntity
  8
0
 62
     4
100
AcDbMText
 10
1458.376181315137
 20
-677.7030424758257
 30
0.0
 40
2.0
 41
0.0
 71
     5
 72
     1
  1
 
  7
CONVERTER_13
 73
     1
 44
1.02040816326531
  0
MTEXT
  5
447
330
49
100
AcDbEntity
  8
0
 62
     4
100
AcDbMText
 10
1458.376181315137
 20
-682.0030304758258
 30
0.0
 40
2.0
 41
0.0
 71
     5
 72
     1
  1
 
  7
CONVERTER_13
 73
     1
 44
1.02040816326531
  0
MTEXT
  5
448
330
49
100
AcDbEntity
  8
0
 62
     4
100
AcDbMText
 10
1458.376181315137
 20
-686.3030184758258
 30
0.0
 40
2.0
 41
0.0
 71
     5
 72
     1
  1
 
  7
CONVERTER_13
 73
     1
 44
1.02040816326531
  0
MTEXT
  5
449
330
49
100
AcDbEntity
  8
0
 62
     4
100
AcDbMText
 10
1458.376181315137
 20
-690.6030064758257
 30
0.0
 40
2.0
 41
0.0
 71
     5
 72
     1
  1
 
  7
CONVERTER_13
 73
     1
 44
1.02040816326531
  0
MTEXT
  5
44A
330
49
100
AcDbEntity
  8
0
 62
     4
100
AcDbMText
 10
1458.376181315137
 20
-694.9029944758257
 30
0.0
 40
2.0
 41
0.0
 71
     5
 72
     1
  1
 
  7
CONVERTER_13
 73
     1
 44
1.02040816326531
  0
MTEXT
  5
44B
330
49
100
AcDbEntity
  8
0
 62
     4
100
AcDbMText
 10
1458.376181315137
 20
-699.2029824758257
 30
0.0
 40
2.0
 41
0.0
 71
     5
 72
     1
  1
 
  7
CONVERTER_13
 73
     1
 44
1.02040816326531
  0
MTEXT
  5
44C
330
49
100
AcDbEntity
  8
0
 62
     4
100
AcDbMText
 10
1458.376181315137
 20
-703.5029704758257
 30
0.0
 40
2.0
 41
0.0
 71
     5
 72
     1
  1
 
  7
CONVERTER_13
 73
     1
 44
1.02040816326531
  0
MTEXT
  5
44D
330
49
100
AcDbEntity
  8
0
 62
     4
100
AcDbMText
 10
1458.376181315137
 20
-707.8029584758257
 30
0.0
 40
2.0
 41
0.0
 71
     5
 72
     1
  1
 
  7
CONVERTER_13
 73
     1
 44
1.02040816326531
  0
MTEXT
  5
44E
330
49
100
AcDbEntity
  8
0
 62
     4
100
AcDbMText
 10
1458.376181315137
 20
-712.1029464758258
 30
0.0
 40
2.0
 41
0.0
 71
     5
 72
     1
  1
 
  7
CONVERTER_13
 73
     1
 44
1.02040816326531
  0
TEXT
  5
450
330
49
100
AcDbEntity
  8
0
 62
     4
100
AcDbText
 10
1504.203777034995
 20
-691.4120784239226
 30
0.0
 40
2.5
  1
vertraulich / confidential
 41
0.765
  7
CONVERTER_17
100
AcDbText
  0
MTEXT
  5
452
330
49
100
AcDbEntity
  8
0
 62
     7
100
AcDbMText
 10
1458.776181315137
 20
-716.448317148707
 30
0.0
 40
1.3
 41
0.0
 71
     8
 72
     1
  1
EMPB
  7
CONVERTER_18
 73
     1
 44
0.7202881152461
  0
MTEXT
  5
453
330
49
100
AcDbEntity
  8
0
 62
     4
100
AcDbMText
 10
1570.798896728816
 20
-696.0529434758257
 30
0.0
 40
3.5
 41
0.0
 71
     5
 72
     1
  1
1
  7
CONVERTER_13
 73
     1
 44
1.02040816326531
  0
MTEXT
  5
454
330
49
100
AcDbEntity
  8
0
 62
     4
100
AcDbMText
 10
1577.591984759461
 20
-696.0529434758257
 30
0.0
 40
3.5
 41
0.0
 71
     5
 72
     1
  1
1
  7
CONVERTER_13
 73
     1
 44
1.02040816326531
  0
MTEXT
  5
455
330
49
100
AcDbEntity
  8
0
 62
     1
100
AcDbMText
 10
1610.176181315137
 20
-713.1674243900978
 30
0.0
 40
5.0
 41
0.0
 71
     5
 72
     1
  1
20520-0-21
  7
CONVERTER_18
 73
     1
 44
1.02040816326531
  0
MTEXT
  5
456
330
49
100
AcDbEntity
  8
0
 62
     1
100
AcDbMText
 10
1610.176181315137
 20
-700.0427922937675
 30
0.0
 40
5.0
 41
0.0
 71
     5
 72
     1
  1
 
  7
CONVERTER_13
 73
     1
 44
1.02040816326531
  0
MTEXT
  5
457
330
49
100
AcDbEntity
  8
0
 62
     1
100
AcDbMText
 10
1591.176181315137
 20
-682.1137059319835
 30
0.0
 40
4.5
 41
0.0
 71
     5
 72
     1
  1
GEZE TS 5000/TS 3000 V
  7
CONVERTER_18
 73
     1
 44
1.02040816326531
  0
MTEXT
  5
458
330
49
100
AcDbEntity
  8
0
 62
     4
100
AcDbMText
 10
1589.176181315137
 20
-689.0019725368772
 30
0.0
 40
3.0
 41
0.0
 71
     5
 72
     1
  1
AUF GANZGLASTUER MIT HOLZ-/STAHLRAHMEN
  7
CONVERTER_18
 73
     1
 44
1.02040816326531
  0
MTEXT
  5
459
330
49
100
AcDbEntity
  8
0
 62
     3
100
AcDbMText
 10
1545.303459633319
 20
-703.0647743451226
 30
0.0
 40
2.5
 41
0.0
 71
     5
 72
     1
  1
tbm2
  7
CONVERTER_18
 73
     1
 44
1.02040816326531
  0
MTEXT
  5
45A
330
49
100
AcDbEntity
  8
0
 62
     3
100
AcDbMText
 10
1533.919189501552
 20
-708.6428078073492
 30
0.0
 40
2.5
 41
0.0
 71
     5
 72
     1
  1
GL.NR.
  7
CONVERTER_13
 73
     1
 44
1.02040816326531
  0
MTEXT
  5
45B
330
49
100
AcDbEntity
  8
0
 62
     3
100
AcDbMText
 10
1533.919189501552
 20
-716.1428078073492
 30
0.0
 40
2.5
 41
0.0
 71
     5
 72
     1
  1
 
  7
CONVERTER_13
 73
     1
 44
1.02040816326531
  0
MTEXT
  5
45D
330
49
100
AcDbEntity
  8
0
 62
     3
100
AcDbMText
 10
1528.211411383319
 20
-703.0647743451226
 30
0.0
 40
2.5
 41
0.0
 71
     5
 72
     1
  1
19.02.2007
  7
CONVERTER_19
 73
     1
 44
1.02040816326531
  0
MTEXT
  5
45E
330
49
100
AcDbEntity
  8
0
 62
     1
100
AcDbMText
 10
1567.354884799354
 20
-702.3416931684226
 30
0.0
 40
5.0
 41
0.0
 71
     5
 72
     1
  1
 -
  7
CONVERTER_13
 73
     1
 44
1.02040816326531
  0
MTEXT
  5
45F
330
49
100
AcDbEntity
  8
0
 62
     3
100
AcDbMText
 10
1545.303459633319
 20
-698.7393282579873
 30
0.0
 40
2.5
 41
0.0
 71
     5
 72
     1
  1
tbm6
  7
CONVERTER_18
 73
     1
 44
1.02040816326531
  0
MTEXT
  5
460
330
49
100
AcDbEntity
  8
0
 62
     3
100
AcDbMText
 10
1528.211411383319
 20
-698.7393282579873
 30
0.0
 40
2.5
 41
0.0
 71
     5
 72
     1
  1
19.02.2007
  7
CONVERTER_19
 73
     1
 44
1.02040816326531
  0
MTEXT
  5
461
330
49
100
AcDbEntity
  8
0
 62
     7
100
AcDbMText
 10
1465.376181315137
 20
-682.0030304758258
 30
0.0
 40
2.0
 41
0.0
 71
     5
 72
     1
  1
 
  7
CONVERTER_13
 73
     1
 44
1.02040816326531
  0
MTEXT
  5
462
330
49
100
AcDbEntity
  8
0
 62
     7
100
AcDbMText
 10
1496.176181315137
 20
-682.0030304758258
 30
0.0
 40
2.0
 41
0.0
 71
     5
 72
     1
  1
 
  7
CONVERTER_13
 73
     1
 44
1.02040816326531
  0
MTEXT
  5
463
330
49
100
AcDbEntity
  8
0
 62
     7
100
AcDbMText
 10
1496.176181315137
 20
-686.3030184758258
 30
0.0
 40
2.0
 41
0.0
 71
     5
 72
     1
  1
 
  7
CONVERTER_13
 73
     1
 44
1.02040816326531
  0
MTEXT
  5
464
330
49
100
AcDbEntity
  8
0
 62
     7
100
AcDbMText
 10
1496.176181315137
 20
-690.6030064758257
 30
0.0
 40
2.0
 41
0.0
 71
     5
 72
     1
  1
 
  7
CONVERTER_13
 73
     1
 44
1.02040816326531
  0
MTEXT
  5
465
330
49
100
AcDbEntity
  8
0
 62
     7
100
AcDbMText
 10
1496.176181315137
 20
-694.9029944758257
 30
0.0
 40
2.0
 41
0.0
 71
     5
 72
     1
  1
 
  7
CONVERTER_13
 73
     1
 44
1.02040816326531
  0
MTEXT
  5
466
330
49
100
AcDbEntity
  8
0
 62
     7
100
AcDbMText
 10
1484.976181315137
 20
-677.7030424758257
 30
0.0
 40
2.0
 41
0.0
 71
     5
 72
     1
  1
 
  7
CONVERTER_18
 73
     1
 44
1.02040816326531
  0
MTEXT
  5
467
330
49
100
AcDbEntity
  8
0
 62
     7
100
AcDbMText
 10
1484.976181315137
 20
-694.9029944758257
 30
0.0
 40
2.0
 41
0.0
 71
     5
 72
     1
  1
 
  7
CONVERTER_18
 73
     1
 44
1.02040816326531
  0
MTEXT
  5
468
330
49
100
AcDbEntity
  8
0
 62
     7
100
AcDbMText
 10
1484.976181315137
 20
-703.5029704758257
 30
0.0
 40
2.0
 41
0.0
 71
     5
 72
     1
  1
 
  7
CONVERTER_18
 73
     1
 44
1.02040816326531
  0
MTEXT
  5
469
330
49
100
AcDbEntity
  8
0
 62
     7
100
AcDbMText
 10
1484.976181315137
 20
-707.8029584758257
 30
0.0
 40
2.0
 41
0.0
 71
     5
 72
     1
  1
 
  7
CONVERTER_18
 73
     1
 44
1.02040816326531
  0
MTEXT
  5
46A
330
49
100
AcDbEntity
  8
0
 62
     7
100
AcDbMText
 10
1475.176181315137
 20
-677.7030424758257
 30
0.0
 40
2.0
 41
0.0
 71
     5
 72
     1
  1
 
  7
CONVERTER_19
 73
     1
 44
1.02040816326531
  0
MTEXT
  5
46B
330
49
100
AcDbEntity
  8
0
 62
     7
100
AcDbMText
 10
1475.176181315137
 20
-686.3030184758258
 30
0.0
 40
2.0
 41
0.0
 71
     5
 72
     1
  1
 
  7
CONVERTER_19
 73
     1
 44
1.02040816326531
  0
MTEXT
  5
46C
330
49
100
AcDbEntity
  8
0
 62
     7
100
AcDbMText
 10
1475.176181315137
 20
-690.6030064758257
 30
0.0
 40
2.0
 41
0.0
 71
     5
 72
     1
  1
 
  7
CONVERTER_19
 73
     1
 44
1.02040816326531
  0
MTEXT
  5
46D
330
49
100
AcDbEntity
  8
0
 62
     7
100
AcDbMText
 10
1475.176181315137
 20
-699.2029824758257
 30
0.0
 40
2.0
 41
0.0
 71
     5
 72
     1
  1
 
  7
CONVERTER_19
 73
     1
 44
1.02040816326531
  0
MTEXT
  5
46E
330
49
100
AcDbEntity
  8
0
 62
     7
100
AcDbMText
 10
1475.176181315137
 20
-707.8029584758257
 30
0.0
 40
2.0
 41
0.0
 71
     5
 72
     1
  1
 
  7
CONVERTER_19
 73
     1
 44
1.02040816326531
  0
MTEXT
  5
46F
330
49
100
AcDbEntity
  8
0
 62
     7
100
AcDbMText
 10
1496.176181315137
 20
-712.1029464758258
 30
0.0
 40
2.0
 41
0.0
 71
     5
 72
     1
  1
X
  7
CONVERTER_13
 73
     1
 44
1.02040816326531
  0
MTEXT
  5
470
330
49
100
AcDbEntity
  8
0
 62
     7
100
AcDbMText
 10
1475.176181315137
 20
-703.5029704758257
 30
0.0
 40
2.0
 41
0.0
 71
     5
 72
     1
  1
 
  7
CONVERTER_19
 73
     1
 44
1.02040816326531
  0
MTEXT
  5
471
330
49
100
AcDbEntity
  8
0
 62
     7
100
AcDbMText
 10
1496.176181315137
 20
-699.2029824758257
 30
0.0
 40
2.0
 41
0.0
 71
     5
 72
     1
  1
 
  7
CONVERTER_13
 73
     1
 44
1.02040816326531
  0
MTEXT
  5
472
330
49
100
AcDbEntity
  8
0
 62
     7
100
AcDbMText
 10
1484.976181315137
 20
-712.1029464758258
 30
0.0
 40
2.0
 41
0.0
 71
     5
 72
     1
  1
tbm6
  7
CONVERTER_18
 73
     1
 44
1.02040816326531
  0
MTEXT
  5
473
330
49
100
AcDbEntity
  8
0
 62
     7
100
AcDbMText
 10
1475.176181315137
 20
-712.1029464758258
 30
0.0
 40
2.0
 41
0.0
 71
     5
 72
     1
  1
19.02.2007
  7
CONVERTER_19
 73
     1
 44
1.02040816326531
  0
MTEXT
  5
474
330
49
100
AcDbEntity
  8
0
 62
     7
100
AcDbMText
 10
1496.176181315137
 20
-707.8029584758257
 30
0.0
 40
2.0
 41
0.0
 71
     5
 72
     1
  1
 
  7
CONVERTER_13
 73
     1
 44
1.02040816326531
  0
MTEXT
  5
475
330
49
100
AcDbEntity
  8
0
 62
     7
100
AcDbMText
 10
1496.176181315137
 20
-703.5029704758257
 30
0.0
 40
2.0
 41
0.0
 71
     5
 72
     1
  1
 
  7
CONVERTER_13
 73
     1
 44
1.02040816326531
  0
MTEXT
  5
476
330
49
100
AcDbEntity
  8
0
 62
     7
100
AcDbMText
 10
1484.976181315137
 20
-699.2029824758257
 30
0.0
 40
2.0
 41
0.0
 71
     5
 72
     1
  1
 
  7
CONVERTER_18
 73
     1
 44
1.02040816326531
  0
MTEXT
  5
477
330
49
100
AcDbEntity
  8
0
 62
     7
100
AcDbMText
 10
1475.176181315137
 20
-694.9029944758257
 30
0.0
 40
2.0
 41
0.0
 71
     5
 72
     1
  1
 
  7
CONVERTER_19
 73
     1
 44
1.02040816326531
  0
MTEXT
  5
478
330
49
100
AcDbEntity
  8
0
 62
     7
100
AcDbMText
 10
1484.976181315137
 20
-690.6030064758257
 30
0.0
 40
2.0
 41
0.0
 71
     5
 72
     1
  1
 
  7
CONVERTER_18
 73
     1
 44
1.02040816326531
  0
MTEXT
  5
479
330
49
100
AcDbEntity
  8
0
 62
     7
100
AcDbMText
 10
1484.976181315137
 20
-686.3030184758258
 30
0.0
 40
2.0
 41
0.0
 71
     5
 72
     1
  1
 
  7
CONVERTER_18
 73
     1
 44
1.02040816326531
  0
MTEXT
  5
47A
330
49
100
AcDbEntity
  8
0
 62
     7
100
AcDbMText
 10
1484.976181315137
 20
-682.0030304758258
 30
0.0
 40
2.0
 41
0.0
 71
     5
 72
     1
  1
 
  7
CONVERTER_18
 73
     1
 44
1.02040816326531
  0
MTEXT
  5
47B
330
49
100
AcDbEntity
  8
0
 62
     7
100
AcDbMText
 10
1496.176181315137
 20
-677.7030424758257
 30
0.0
 40
2.0
 41
0.0
 71
     5
 72
     1
  1
 
  7
CONVERTER_13
 73
     1
 44
1.02040816326531
  0
MTEXT
  5
47C
330
49
100
AcDbEntity
  8
0
 62
     7
100
AcDbMText
 10
1465.376181315137
 20
-677.7030424758257
 30
0.0
 40
2.0
 41
0.0
 71
     5
 72
     1
  1
 
  7
CONVERTER_13
 73
     1
 44
1.02040816326531
  0
MTEXT
  5
47D
330
49
100
AcDbEntity
  8
0
 62
     7
100
AcDbMText
 10
1475.176181315137
 20
-682.0030304758258
 30
0.0
 40
2.0
 41
0.0
 71
     5
 72
     1
  1
 
  7
CONVERTER_19
 73
     1
 44
1.02040816326531
  0
MTEXT
  5
47E
330
49
100
AcDbEntity
  8
0
 62
     7
100
AcDbMText
 10
1465.376181315137
 20
-686.3030184758258
 30
0.0
 40
2.0
 41
0.0
 71
     5
 72
     1
  1
 
  7
CONVERTER_13
 73
     1
 44
1.02040816326531
  0
MTEXT
  5
47F
330
49
100
AcDbEntity
  8
0
 62
     7
100
AcDbMText
 10
1465.376181315137
 20
-690.6030064758257
 30
0.0
 40
2.0
 41
0.0
 71
     5
 72
     1
  1
 
  7
CONVERTER_13
 73
     1
 44
1.02040816326531
  0
MTEXT
  5
480
330
49
100
AcDbEntity
  8
0
 62
     7
100
AcDbMText
 10
1465.376181315137
 20
-694.9029944758257
 30
0.0
 40
2.0
 41
0.0
 71
     5
 72
     1
  1
 
  7
CONVERTER_13
 73
     1
 44
1.02040816326531
  0
MTEXT
  5
481
330
49
100
AcDbEntity
  8
0
 62
     7
100
AcDbMText
 10
1465.376181315137
 20
-699.2029824758257
 30
0.0
 40
2.0
 41
0.0
 71
     5
 72
     1
  1
 
  7
CONVERTER_13
 73
     1
 44
1.02040816326531
  0
MTEXT
  5
482
330
49
100
AcDbEntity
  8
0
 62
     7
100
AcDbMText
 10
1465.376181315137
 20
-703.5029704758257
 30
0.0
 40
2.0
 41
0.0
 71
     5
 72
     1
  1
 
  7
CONVERTER_13
 73
     1
 44
1.02040816326531
  0
MTEXT
  5
483
330
49
100
AcDbEntity
  8
0
 62
     7
100
AcDbMText
 10
1465.376181315137
 20
-707.8029584758257
 30
0.0
 40
2.0
 41
0.0
 71
     5
 72
     1
  1
 
  7
CONVERTER_13
 73
     1
 44
1.02040816326531
  0
MTEXT
  5
484
330
49
100
AcDbEntity
  8
0
 62
     7
100
AcDbMText
 10
1465.376181315137
 20
-712.1029464758258
 30
0.0
 40
2.0
 41
0.0
 71
     5
 72
     1
  1
01
  7
CONVERTER_13
 73
     1
 44
1.02040816326531
  0
MTEXT
  5
485
330
49
100
AcDbEntity
  8
0
 62
     4
100
AcDbMText
 10
1574.371738731557
 20
-696.0529434758257
 30
0.0
 40
5.0
 41
0.0
 71
     5
 72
     1
  1
/
  7
CONVERTER_13
 73
     1
 44
1.02040816326531
  0
MTEXT
  5
486
330
49
100
AcDbEntity
  8
0
 62
     7
100
AcDbMText
 10
1496.176181315137
 20
-716.1925141837726
 30
0.0
 40
1.3
 41
0.0
 71
     8
 72
     1
  1
Mitteilungs-Nr.
  7
CONVERTER_18
 73
     1
 44
0.7202881152461
  0
MTEXT
  5
487
330
49
100
AcDbEntity
  8
0
 62
     7
100
AcDbMText
 10
1496.176181315137
 20
-717.9925141837726
 30
0.0
 40
1.3
 41
0.0
 71
     8
 72
     1
  1
Doc. change no.
  7
CONVERTER_18
 73
     1
 44
0.7202881152461
  0
MTEXT
  5
488
330
49
100
AcDbEntity
  8
0
 62
     7
100
AcDbMText
 10
1484.676181315137
 20
-716.1925141837726
 30
0.0
 40
1.3
 41
0.0
 71
     8
 72
     1
  1
Name
  7
CONVERTER_18
 73
     1
 44
0.7202881152461
  0
MTEXT
  5
489
330
49
100
AcDbEntity
  8
0
 62
     7
100
AcDbMText
 10
1484.676181315137
 20
-717.9925141837726
 30
0.0
 40
1.3
 41
0.0
 71
     8
 72
     1
  1
name
  7
CONVERTER_18
 73
     1
 44
0.7202881152461
  0
MTEXT
  5
48A
330
49
100
AcDbEntity
  8
0
 62
     7
100
AcDbMText
 10
1475.676181315137
 20
-716.1925141837726
 30
0.0
 40
1.3
 41
0.0
 71
     8
 72
     1
  1
Datum
  7
CONVERTER_18
 73
     1
 44
0.7202881152461
  0
MTEXT
  5
48B
330
49
100
AcDbEntity
  8
0
 62
     7
100
AcDbMText
 10
1475.676181315137
 20
-717.9925141837726
 30
0.0
 40
1.3
 41
0.0
 71
     8
 72
     1
  1
date
  7
CONVERTER_18
 73
     1
 44
0.7202881152461
  0
MTEXT
  5
48C
330
49
100
AcDbEntity
  8
0
 62
     7
100
AcDbMText
 10
1465.376181315137
 20
-717.9925141837726
 30
0.0
 40
1.3
 41
0.0
 71
     8
 72
     1
  1
doc.version
  7
CONVERTER_19
 73
     1
 44
0.7202881152461
  0
MTEXT
  5
48D
330
49
100
AcDbEntity
  8
0
 62
     7
100
AcDbMText
 10
1465.376181315137
 20
-716.1925141837726
 30
0.0
 40
1.3
 41
0.0
 71
     8
 72
     1
  1
Dok.version
  7
CONVERTER_19
 73
     1
 44
0.7202881152461
  0
MTEXT
  5
48F
330
49
100
AcDbEntity
  8
0
 62
     3
100
AcDbMText
 10
1545.676181315137
 20
-695.8553874593096
 30
0.0
 40
1.8
 41
0.0
 71
     8
 72
     1
  1
Name / name
  7
CONVERTER_20
 73
     1
 44
0.90036014405762
  0
MTEXT
  5
490
330
49
100
AcDbEntity
  8
0
 62
     3
100
AcDbMText
 10
1529.676181315137
 20
-695.8553874593096
 30
0.0
 40
1.8
 41
0.0
 71
     8
 72
     1
  1
Datum / date
  7
CONVERTER_20
 73
     1
 44
0.90036014405762
  0
MTEXT
  5
491
330
49
100
AcDbEntity
  8
0
 62
     3
100
AcDbMText
 10
1553.989520133184
 20
-697.3986313849342
 30
0.0
 40
1.8
 41
0.0
 71
     7
 72
     1
  1
Blatt / von\Psheet / of
  7
CONVERTER_18
 73
     1
 44
0.84033613445378
  0
MTEXT
  5
492
330
49
100
AcDbEntity
  8
0
 62
     3
100
AcDbMText
 10
1503.905361763995
 20
-708.8029434758257
 30
0.0
 40
1.8
 41
0.0
 71
     4
 72
     1
  1
Ersatz für:\Psubst. for:
  7
CONVERTER_18
 73
     1
 44
0.84033613445378
  0
MTEXT
  5
493
330
49
100
AcDbEntity
  8
0
 62
     3
100
AcDbMText
 10
1503.905361763995
 20
-715.3029434758257
 30
0.0
 40
1.8
 41
0.0
 71
     4
 72
     1
  1
Ersetzt durch:\Psubst. with:
  7
CONVERTER_18
 73
     1
 44
0.84033613445378
  0
TEXT
  5
494
330
49
100
AcDbEntity
  8
0
 62
     3
100
AcDbText
 10
1544.976138315137
 20
-677.9529374758257
 30
0.0
 40
1.8
  1
Benennung / designation
 41
0.72
  7
CONVERTER_18
100
AcDbText
  0
MTEXT
  5
495
330
49
100
AcDbEntity
  8
0
 62
     3
100
AcDbMText
 10
1553.891081734356
 20
-703.1911552268921
 30
0.0
 40
1.8
 41
0.0
 71
     7
 72
     1
  1
Maßstab\Pscale
  7
CONVERTER_18
 73
     1
 44
0.84033613445378
  0
TEXT
  5
496
330
49
100
AcDbEntity
  8
0
 62
     3
100
AcDbText
 10
1554.376181315137
 20
-707.8196102263257
 30
0.0
 40
1.8
  1
Sprache / language
 41
0.72
  7
CONVERTER_18
100
AcDbText
  0
TEXT
  5
497
330
49
100
AcDbEntity
  8
0
 62
     3
100
AcDbText
 10
1581.176181315137
 20
-708.1529434758257
 30
0.0
 40
1.8
  1
Zeichnungs-Nr. / document-no.
 41
0.72
  7
CONVERTER_18
100
AcDbText
  0
MTEXT
  5
498
330
49
100
AcDbEntity
  8
0
 62
     3
100
AcDbMText
 10
1581.176181315137
 20
-697.6529434758257
 30
0.0
 40
1.8
 41
0.0
 71
     7
 72
     1
  1
Material-Nr.\PID-no.
  7
CONVERTER_18
 73
     1
 44
0.84033613445378
  0
MTEXT
  5
499
330
49
100
AcDbEntity
  8
0
 62
     3
100
AcDbMText
 10
1524.735795142338
 20
-686.8360702318455
 30
0.0
 40
1.8
 41
0.0
 71
     7
 72
     1
  1
P.O. Box 13 63\P71226 Leonberg\PGermany
  7
CONVERTER_18
 73
     1
 44
0.78031212484994
  0
TEXT
  5
49A
330
49
100
AcDbEntity
  8
0
 62
     4
100
AcDbText
 10
1524.735795142338
 20
-679.1045930030712
 30
0.0
 40
2.2
  1
GEZE GmbH
 41
0.9
  7
CONVERTER_13
100
AcDbText
  0
MTEXT
  5
49B
330
49
100
AcDbEntity
  8
0
 62
     3
100
AcDbMText
 10
1503.905361763995
 20
-699.1029434758257
 30
0.0
 40
1.8
 41
0.0
 71
     4
 72
     1
  1
erstellt / drawn
  7
CONVERTER_18
 73
     1
 44
0.90036014405762
  0
MTEXT
  5
49C
330
49
100
AcDbEntity
  8
0
 62
     3
100
AcDbMText
 10
1503.905361763995
 20
-703.4029434758257
 30
0.0
 40
1.8
 41
0.0
 71
     4
 72
     1
  1
gepr. / checked
  7
CONVERTER_18
 73
     1
 44
0.90036014405762
  0
MTEXT
  5
49D
330
49
100
AcDbEntity
  8
0
 62
     4
100
AcDbMText
 10
1566.798896728816
 20
-710.3529434758257
 30
0.0
 40
3.5
 41
0.0
 71
     5
 72
     1
  1
D
  7
CONVERTER_13
 73
     1
 44
1.02040816326531
  0
MTEXT
  5
49E
330
49
100
AcDbEntity
  8
1
 62
     7
100
AcDbMText
 10
1413.282746521169
 20
-715.5811453644492
 30
0.0
 40
2.0
 41
0.0
 71
     5
 72
     1
  1
EMPB = Erstmusterprüfbericht /First sample test report
  7
CONVERTER_13
 73
     1
 44
1.02040816326531
  0
MTEXT
  5
49F
330
49
100
AcDbEntity
  8
0
 62
     7
100
AcDbMText
 10
1043.801934059161
 20
-717.0820670932158
 30
0.0
 40
1.3
 41
0.0
 71
     7
 72
     1
  3
Diese Zeichnung entspricht dem Entwicklungsstand des Zeichnungsdatums bzw. der letzten Änderungseintragung. Aus der Benützung der Zeichnung können\Pkeine Ansprüche, gleich welcher Art, einschließlich Schadenersatzansprüche, abgeleitet und gegen GEZE 
  3
geltend gemacht werden. Die Zeichnung bleibt unser\PEigentum und ist Dritten nur für die Vertragsdauer zur Benutzung überlassen. Sämtliche sich aus der Zeichnung ergebenden Ansprüche stehen ausschließlich\PGEZE zu. Ohne vorherige Zustimmung von GEZE 
  3
darf diese Zeichnung weder vervielfältig noch Dritten zugänglich gemacht werden.\PThis drawing shows the actual state of product development at the date of the drawing or the revision date. No claims or damages in any form can bei made\Pagainst GEZE 
  3
as a result of the interpretation of this drawing. This drawing remains the property of GEZE and ist made available to third paries only for\Pthe duration of contractural obligations. All rights connected with this drawing remain in possession of GEZ
  1
E. This drawing may not bei copied of handed\Pover to third parties without the express consent of GEZE.
  7
CONVERTER_11
 73
     1
 44
0.84033613445378
  0
ENDBLK
  5
4B
330
49
100
AcDbEntity
  8
0
100
AcDbBlockEnd
  0
BLOCK
  5
4E
330
4C
100
AcDbEntity
  8
0
100
AcDbBlockBegin
  2
rahmen
 70
     0
 71
     0
 10
1051.176181315137
 20
-718.5529434758257
 30
0.0
  3
rahmen
  1

  0
INSERT
  5
4D
330
4C
100
AcDbEntity
  8
1
100
AcDbBlockReference
  2
a2kl
 10
1225.176181315137
 20
-718.5529434758257
 30
0.0
  0
ENDBLK
  5
4F
330
4C
100
AcDbEntity
  8
0
100
AcDbBlockEnd
  0
BLOCK
  5
1E6
330
1DE
100
AcDbEntity
  8
0
100
AcDbBlockBegin
  2
*D9
 70
     1
 71
     0
 10
0.0
 20
0.0
 30
0.0
  3
*D9
  1

  0
LINE
  5
1DF
330
1DE
100
AcDbEntity
  8
1
  6
Continuous
 62
     3
100
AcDbLine
 10
1529.957774539357
 20
-612.4150294225409
 30
0.0
 11
1639.953135872691
 21
-612.4150294225409
 31
0.0
  0
LINE
  5
1E0
330
1DE
100
AcDbEntity
  8
1
  6
Continuous
 62
     3
100
AcDbLine
 10
1639.953135872691
 20
-586.0427383588474
 30
0.0
 11
1639.953135872691
 21
-615.0816960892075
 31
0.0
  0
LINE
  5
1E1
330
1DE
100
AcDbEntity
  8
1
  6
Continuous
 62
     3
100
AcDbLine
 10
1529.957774539357
 20
-586.542819692182
 30
0.0
 11
1529.957774539357
 21
-615.0816960892075
 31
0.0
  0
SOLID
  5
1E2
330
1DE
100
AcDbEntity
  8
1
 62
     3
100
AcDbTrace
 10
1534.624441206024
 20
-611.8006511004664
 30
0.0
 11
1534.624441206024
 21
-613.0294077446154
 31
0.0
 12
1529.957774539357
 22
-612.4150294225409
 32
0.0
 13
1529.957774539357
 23
-612.4150294225409
 33
0.0
  0
SOLID
  5
1E3
330
1DE
100
AcDbEntity
  8
1
 62
     3
100
AcDbTrace
 10
1635.286469206024
 20
-613.0294077446154
 30
0.0
 11
1635.286469206024
 21
-611.8006511004664
 31
0.0
 12
1639.953135872691
 22
-612.4150294225409
 32
0.0
 13
1639.953135872691
 23
-612.4150294225409
 33
0.0
  0
MTEXT
  5
1E5
330
1DE
100
AcDbEntity
  8
1
 62
     4
100
AcDbMText
 10
1573.42242546162
 20
-609.7483627558743
 30
0.0
 40
4.66666666666667
 41
0.0
 71
     7
 72
     1
  1
110
  7
CONVERTER_13
 11
0.9999999999970621
 21
2.424068405545307E-6
 31
0.0
 73
     1
 44
0.60024009603842
  0
ENDBLK
  5
1E7
330
1DE
100
AcDbEntity
  8
0
100
AcDbBlockEnd
  0
BLOCK
  5
1F1
330
1EA
100
AcDbEntity
  8
0
100
AcDbBlockBegin
  2
*D10
 70
     1
 71
     0
 10
0.0
 20
0.0
 30
0.0
  3
*D10
  1

  0
LINE
  5
1EB
330
1EA
100
AcDbEntity
  8
1
  6
Continuous
 62
     3
100
AcDbLine
 10
1639.953070934247
 20
-612.4150294225408
 30
0.0
 11
1865.957937206024
 21
-612.4150294225408
 31
0.0
  0
LINE
  5
1EC
330
1EA
100
AcDbEntity
  8
1
  6
Continuous
 62
     3
100
AcDbLine
 10
1865.957937206024
 20
-586.0427383588474
 30
0.0
 11
1865.957937206024
 21
-615.0816960892074
 31
0.0
  0
LINE
  5
1ED
330
1EA
100
AcDbEntity
  8
1
  6
Continuous
 62
     3
100
AcDbLine
 10
1639.953070934247
 20
-586.0427383588474
 30
0.0
 11
1639.953070934247
 21
-615.0816960892074
 31
0.0
  0
SOLID
  5
1EE
330
1EA
100
AcDbEntity
  8
1
 62
     3
100
AcDbTrace
 10
1644.619737600914
 20
-611.8006511004663
 30
0.0
 11
1644.619737600914
 21
-613.0294077446152
 31
0.0
 12
1639.953070934247
 22
-612.4150294225408
 32
0.0
 13
1639.953070934247
 23
-612.4150294225408
 33
0.0
  0
SOLID
  5
1EF
330
1EA
100
AcDbEntity
  8
1
 62
     3
100
AcDbTrace
 10
1861.291270539357
 20
-613.0294077446152
 30
0.0
 11
1861.291270539357
 21
-611.8006511004663
 31
0.0
 12
1865.957937206024
 22
-612.4150294225408
 32
0.0
 13
1865.957937206024
 23
-612.4150294225408
 33
0.0
  0
MTEXT
  5
1F0
330
1EA
100
AcDbEntity
  8
1
 62
     4
100
AcDbMText
 10
1711.491322597713
 20
-609.7483627558742
 30
0.0
 40
4.66666666666667
 41
0.0
 71
     7
 72
     1
  1
\C4;226\C4;-GEZE TS 3000 V
  7
CONVERTER_13
 11
0.9999999999970621
 21
2.424068405545307E-6
 31
0.0
 73
     1
 44
0.60024009603842
  0
ENDBLK
  5
1F2
330
1EA
100
AcDbEntity
  8
0
100
AcDbBlockEnd
  0
BLOCK
  5
1FC
330
1F5
100
AcDbEntity
  8
0
100
AcDbBlockBegin
  2
*D11
 70
     1
 71
     0
 10
0.0
 20
0.0
 30
0.0
  3
*D11
  1

  0
LINE
  5
1F6
330
1F5
100
AcDbEntity
  8
1
  6
Continuous
 62
     3
100
AcDbLine
 10
1639.95313587269
 20
-625.6496396568054
 30
0.0
 11
1926.95313587269
 21
-625.6496396568054
 31
0.0
  0
LINE
  5
1F7
330
1F5
100
AcDbEntity
  8
1
  6
Continuous
 62
     3
100
AcDbLine
 10
1926.95313587269
 20
-586.0427383588474
 30
0.0
 11
1926.95313587269
 21
-628.3163063234721
 31
0.0
  0
LINE
  5
1F8
330
1F5
100
AcDbEntity
  8
1
  6
Continuous
 62
     3
100
AcDbLine
 10
1639.95313587269
 20
-586.0427383588474
 30
0.0
 11
1639.95313587269
 21
-628.3163063234721
 31
0.0
  0
SOLID
  5
1F9
330
1F5
100
AcDbEntity
  8
1
 62
     3
100
AcDbTrace
 10
1644.619802539357
 20
-625.035261334731
 30
0.0
 11
1644.619802539357
 21
-626.2640179788799
 31
0.0
 12
1639.95313587269
 22
-625.6496396568054
 32
0.0
 13
1639.95313587269
 23
-625.6496396568054
 33
0.0
  0
SOLID
  5
1FA
330
1F5
100
AcDbEntity
  8
1
 62
     3
100
AcDbTrace
 10
1922.286469206024
 20
-626.2640179788799
 30
0.0
 11
1922.286469206024
 21
-625.035261334731
 31
0.0
 12
1926.95313587269
 22
-625.6496396568054
 32
0.0
 13
1926.95313587269
 23
-625.6496396568054
 33
0.0
  0
MTEXT
  5
1FB
330
1F5
100
AcDbEntity
  8
1
 62
     4
100
AcDbMText
 10
1750.170495924713
 20
-622.9829729901388
 30
0.0
 40
4.66666666666667
 41
0.0
 71
     7
 72
     1
  1
\C4;287\C4;-GEZE TS 5000
  7
CONVERTER_13
 11
0.9999999999970621
 21
2.424068405545307E-6
 31
0.0
 73
     1
 44
0.60024009603842
  0
ENDBLK
  5
1FD
330
1F5
100
AcDbEntity
  8
0
100
AcDbBlockEnd
  0
BLOCK
  5
207
330
200
100
AcDbEntity
  8
0
100
AcDbBlockBegin
  2
*D12
 70
     1
 71
     0
 10
0.0
 20
0.0
 30
0.0
  3
*D12
  1

  0
LINE
  5
201
330
200
100
AcDbEntity
  8
1
  6
Continuous
 62
     3
100
AcDbLine
 10
1512.80790433685
 20
-523.2927383588475
 30
0.0
 11
1512.80790433685
 21
-496.2927383588474
 31
0.0
  0
LINE
  5
202
330
200
100
AcDbEntity
  8
1
  6
Continuous
 62
     3
100
AcDbLine
 10
1642.957205206024
 20
-496.2927383588474
 30
0.0
 11
1510.141237670183
 21
-496.2927383588474
 31
0.0
  0
LINE
  5
203
330
200
100
AcDbEntity
  8
1
  6
Continuous
 62
     3
100
AcDbLine
 10
1551.957774539357
 20
-523.2927383588475
 30
0.0
 11
1510.141237670183
 21
-523.2927383588475
 31
0.0
  0
SOLID
  5
204
330
200
100
AcDbEntity
  8
1
 62
     3
100
AcDbTrace
 10
1512.193526014775
 20
-518.6260716921809
 30
0.0
 11
1513.422282658925
 21
-518.6260716921809
 31
0.0
 12
1512.80790433685
 22
-523.2927383588475
 32
0.0
 13
1512.80790433685
 23
-523.2927383588475
 33
0.0
  0
SOLID
  5
205
330
200
100
AcDbEntity
  8
1
 62
     3
100
AcDbTrace
 10
1513.422282658925
 20
-500.9594050255141
 30
0.0
 11
1512.193526014775
 21
-500.9594050255141
 31
0.0
 12
1512.80790433685
 22
-496.2927383588474
 32
0.0
 13
1512.80790433685
 23
-496.2927383588474
 33
0.0
  0
MTEXT
  5
206
330
200
100
AcDbEntity
  8
1
 62
     4
100
AcDbMText
 10
1510.141237670183
 20
-512.5414317730454
 30
0.0
 40
4.66666666666667
 41
0.0
 71
     7
 72
     1
  1
27
  7
CONVERTER_13
 11
0.0
 21
1.0
 31
0.0
 73
     1
 44
0.60024009603842
  0
ENDBLK
  5
208
330
200
100
AcDbEntity
  8
0
100
AcDbBlockEnd
  0
BLOCK
  5
214
330
20B
100
AcDbEntity
  8
0
100
AcDbBlockBegin
  2
*D13
 70
     1
 71
     0
 10
0.0
 20
0.0
 30
0.0
  3
*D13
  1

  0
LINE
  5
20C
330
20B
100
AcDbEntity
  8
1
  6
Continuous
 62
     3
100
AcDbLine
 10
1604.02612959097
 20
-505.6260716921807
 30
0.0
 11
1604.02612959097
 21
-496.2927383588474
 31
0.0
  0
LINE
  5
20D
330
20B
100
AcDbEntity
  8
1
  6
Continuous
 62
     3
100
AcDbLine
 10
1604.02612959097
 20
-496.2927383588474
 30
0.0
 11
1604.02612959097
 21
-489.2927383588465
 31
0.0
  0
LINE
  5
20E
330
20B
100
AcDbEntity
  8
1
  6
Continuous
 62
     3
100
AcDbLine
 10
1604.02612959097
 20
-489.2927383588465
 30
0.0
 11
1604.02612959097
 21
-479.9594050255132
 31
0.0
  0
LINE
  5
20F
330
20B
100
AcDbEntity
  8
1
  6
Continuous
 62
     3
100
AcDbLine
 10
1616.775860617605
 20
-489.2927383588465
 30
0.0
 11
1601.359462924303
 21
-489.2927383588465
 31
0.0
  0
LINE
  5
210
330
20B
100
AcDbEntity
  8
1
  6
Continuous
 62
     3
100
AcDbLine
 10
1642.957205206024
 20
-496.2927383588474
 30
0.0
 11
1601.359462924303
 21
-496.2927383588474
 31
0.0
  0
SOLID
  5
211
330
20B
100
AcDbEntity
  8
1
 62
     3
100
AcDbTrace
 10
1604.640507913045
 20
-500.9594050255141
 30
0.0
 11
1603.411751268895
 21
-500.9594050255141
 31
0.0
 12
1604.02612959097
 22
-496.2927383588474
 32
0.0
 13
1604.02612959097
 23
-496.2927383588474
 33
0.0
  0
SOLID
  5
212
330
20B
100
AcDbEntity
  8
1
 62
     3
100
AcDbTrace
 10
1603.411751268895
 20
-484.6260716921798
 30
0.0
 11
1604.640507913045
 21
-484.6260716921798
 31
0.0
 12
1604.02612959097
 22
-489.2927383588465
 32
0.0
 13
1604.02612959097
 23
-489.2927383588465
 33
0.0
  0
MTEXT
  5
213
330
20B
100
AcDbEntity
  8
1
 62
     4
100
AcDbMText
 10
1601.359462924303
 20
-493.3846879166835
 30
0.0
 40
4.66666666666667
 41
0.0
 71
     7
 72
     1
  1
7
  7
CONVERTER_13
 11
0.0
 21
1.0
 31
0.0
 73
     1
 44
0.60024009603842
  0
ENDBLK
  5
215
330
20B
100
AcDbEntity
  8
0
100
AcDbBlockEnd
  0
BLOCK
  5
21F
330
218
100
AcDbEntity
  8
0
100
AcDbBlockBegin
  2
*D14
 70
     1
 71
     0
 10
0.0
 20
0.0
 30
0.0
  3
*D14
  1

  0
LINE
  5
219
330
218
100
AcDbEntity
  8
1
  6
Continuous
 62
     3
100
AcDbLine
 10
1649.957449206023
 20
-451.0685181849054
 30
0.0
 11
1632.957937206022
 21
-451.0685181849054
 31
0.0
  0
LINE
  5
21A
330
218
100
AcDbEntity
  8
1
  6
Continuous
 62
     3
100
AcDbLine
 10
1632.957937206022
 20
-481.0427383588464
 30
0.0
 11
1632.957937206022
 21
-448.4018515182387
 31
0.0
  0
LINE
  5
21B
330
218
100
AcDbEntity
  8
1
  6
Continuous
 62
     3
100
AcDbLine
 10
1649.957449206023
 20
-489.2928196921809
 30
0.0
 11
1649.957449206023
 21
-448.4018515182387
 31
0.0
  0
SOLID
  5
21C
330
218
100
AcDbEntity
  8
1
 62
     3
100
AcDbTrace
 10
1645.290782539357
 20
-451.6828965069799
 30
0.0
 11
1645.290782539357
 21
-450.4541398628309
 31
0.0
 12
1649.957449206023
 22
-451.0685181849054
 32
0.0
 13
1649.957449206023
 23
-451.0685181849054
 33
0.0
  0
SOLID
  5
21D
330
218
100
AcDbEntity
  8
1
 62
     3
100
AcDbTrace
 10
1637.624603872689
 20
-450.4541398628309
 30
0.0
 11
1637.624603872689
 21
-451.6828965069799
 31
0.0
 12
1632.957937206022
 22
-451.0685181849054
 32
0.0
 13
1632.957937206022
 23
-451.0685181849054
 33
0.0
  0
MTEXT
  5
21E
330
218
100
AcDbEntity
  8
1
 62
     4
100
AcDbMText
 10
1638.686243536489
 20
-448.4018515182387
 30
0.0
 40
4.66666666666667
 41
0.0
 71
     7
 72
     1
  1
17
  7
CONVERTER_13
 11
0.9999999999970621
 21
2.424068405545307E-6
 31
0.0
 73
     1
 44
0.60024009603842
  0
ENDBLK
  5
220
330
218
100
AcDbEntity
  8
0
100
AcDbBlockEnd
  0
BLOCK
  5
22C
330
223
100
AcDbEntity
  8
0
100
AcDbBlockBegin
  2
*D15
 70
     1
 71
     0
 10
0.0
 20
0.0
 30
0.0
  3
*D15
  1

  0
LINE
  5
224
330
223
100
AcDbEntity
  8
1
  6
Continuous
 62
     3
100
AcDbLine
 10
1523.40754854334
 20
-542.1677383588474
 30
0.0
 11
1523.40754854334
 21
-523.2927383588475
 31
0.0
  0
LINE
  5
225
330
223
100
AcDbEntity
  8
1
  6
Continuous
 62
     3
100
AcDbLine
 10
1523.40754854334
 20
-523.2927383588475
 30
0.0
 11
1523.40754854334
 21
-518.2927383588474
 31
0.0
  0
LINE
  5
226
330
223
100
AcDbEntity
  8
1
  6
Continuous
 62
     3
100
AcDbLine
 10
1523.40754854334
 20
-518.2927383588474
 30
0.0
 11
1523.40754854334
 21
-508.9594050255141
 31
0.0
  0
LINE
  5
227
330
223
100
AcDbEntity
  8
1
  6
Continuous
 62
     3
100
AcDbLine
 10
1546.957774539357
 20
-518.2927383588474
 30
0.0
 11
1520.740881876673
 21
-518.2927383588474
 31
0.0
  0
LINE
  5
228
330
223
100
AcDbEntity
  8
1
  6
Continuous
 62
     3
100
AcDbLine
 10
1551.957774539357
 20
-523.2927383588475
 30
0.0
 11
1520.740881876673
 21
-523.2927383588475
 31
0.0
  0
SOLID
  5
229
330
223
100
AcDbEntity
  8
1
 62
     3
100
AcDbTrace
 10
1524.021926865415
 20
-527.9594050255141
 30
0.0
 11
1522.793170221265
 21
-527.9594050255141
 31
0.0
 12
1523.40754854334
 22
-523.2927383588475
 32
0.0
 13
1523.40754854334
 23
-523.2927383588475
 33
0.0
  0
SOLID
  5
22A
330
223
100
AcDbEntity
  8
1
 62
     3
100
AcDbTrace
 10
1522.793170221265
 20
-513.6260716921807
 30
0.0
 11
1524.021926865415
 21
-513.6260716921807
 31
0.0
 12
1523.40754854334
 22
-518.2927383588474
 32
0.0
 13
1523.40754854334
 23
-518.2927383588474
 33
0.0
  0
MTEXT
  5
22B
330
223
100
AcDbEntity
  8
1
 62
     4
100
AcDbMText
 10
1520.740881876673
 20
-544.5244050255139
 30
0.0
 40
4.66666666666667
 41
0.0
 71
     7
 72
     1
  1
\C4;min.\C4;5
  7
CONVERTER_13
 11
0.0
 21
1.0
 31
0.0
 73
     1
 44
0.60024009603842
  0
ENDBLK
  5
22D
330
223
100
AcDbEntity
  8
0
100
AcDbBlockEnd
  0
BLOCK
  5
239
330
230
100
AcDbEntity
  8
0
100
AcDbBlockBegin
  2
*D16
 70
     1
 71
     0
 10
0.0
 20
0.0
 30
0.0
  3
*D16
  1

  0
LINE
  5
231
330
230
100
AcDbEntity
  8
1
  6
Continuous
 62
     3
100
AcDbLine
 10
1529.957774539357
 20
-439.909907397646
 30
0.0
 11
1649.957449206024
 21
-439.909907397646
 31
0.0
  0
LINE
  5
232
330
230
100
AcDbEntity
  8
1
  6
Continuous
 62
     3
100
AcDbLine
 10
1649.957449206024
 20
-489.2928196921806
 30
0.0
 11
1649.957449206024
 21
-437.2432407309793
 31
0.0
  0
LINE
  5
233
330
230
100
AcDbEntity
  8
1
  6
Continuous
 62
     3
100
AcDbLine
 10
1529.957774539357
 20
-586.5428196921816
 30
0.0
 11
1529.957774539357
 21
-525.315349091441
 31
0.0
  0
LINE
  5
234
330
230
100
AcDbEntity
  8
1
  6
Continuous
 62
     3
100
AcDbLine
 10
1529.957774539357
 20
-516.2255640238411
 30
0.0
 11
1529.957774539357
 21
-498.3133405082751
 31
0.0
  0
LINE
  5
235
330
230
100
AcDbEntity
  8
1
  6
Continuous
 62
     3
100
AcDbLine
 10
1529.957774539357
 20
-494.0357945941111
 30
0.0
 11
1529.957774539357
 21
-437.2432407309793
 31
0.0
  0
SOLID
  5
236
330
230
100
AcDbEntity
  8
1
 62
     3
100
AcDbTrace
 10
1534.624441206024
 20
-439.2955290755715
 30
0.0
 11
1534.624441206024
 21
-440.5242857197205
 31
0.0
 12
1529.957774539357
 22
-439.909907397646
 32
0.0
 13
1529.957774539357
 23
-439.909907397646
 33
0.0
  0
SOLID
  5
237
330
230
100
AcDbEntity
  8
1
 62
     3
100
AcDbTrace
 10
1645.290782539357
 20
-440.5242857197205
 30
0.0
 11
1645.290782539357
 21
-439.2955290755715
 31
0.0
 12
1649.957449206024
 22
-439.909907397646
 32
0.0
 13
1649.957449206024
 23
-439.909907397646
 33
0.0
  0
MTEXT
  5
238
330
230
100
AcDbEntity
  8
1
 62
     4
100
AcDbMText
 10
1586.85994050317
 20
-437.2432407309793
 30
0.0
 40
4.66666666666667
 41
0.0
 71
     7
 72
     1
  1
120
  7
CONVERTER_13
 11
0.9999999999970621
 21
2.424068405545307E-6
 31
0.0
 73
     1
 44
0.60024009603842
  0
ENDBLK
  5
23A
330
230
100
AcDbEntity
  8
0
100
AcDbBlockEnd
  0
BLOCK
  5
244
330
23D
100
AcDbEntity
  8
0
100
AcDbBlockBegin
  2
*D17
 70
     1
 71
     0
 10
0.0
 20
0.0
 30
0.0
  3
*D17
  1

  0
LINE
  5
23E
330
23D
100
AcDbEntity
  8
1
  6
Continuous
 62
     3
100
AcDbLine
 10
1649.957449206024
 20
-439.909907397646
 30
0.0
 11
2078.446543872692
 21
-439.909907397646
 31
0.0
  0
LINE
  5
23F
330
23D
100
AcDbEntity
  8
1
  6
Continuous
 62
     3
100
AcDbLine
 10
2078.446543872692
 20
-489.2928196921806
 30
0.0
 11
2078.446543872692
 21
-437.2432407309793
 31
0.0
  0
LINE
  5
240
330
23D
100
AcDbEntity
  8
1
  6
Continuous
 62
     3
100
AcDbLine
 10
1649.957449206024
 20
-489.2928196921806
 30
0.0
 11
1649.957449206024
 21
-437.2432407309793
 31
0.0
  0
SOLID
  5
241
330
23D
100
AcDbEntity
  8
1
 62
     3
100
AcDbTrace
 10
1654.624115872691
 20
-439.2955290755715
 30
0.0
 11
1654.624115872691
 21
-440.5242857197205
 31
0.0
 12
1649.957449206024
 22
-439.909907397646
 32
0.0
 13
1649.957449206024
 23
-439.909907397646
 33
0.0
  0
SOLID
  5
242
330
23D
100
AcDbEntity
  8
1
 62
     3
100
AcDbTrace
 10
2073.779877206025
 20
-440.5242857197205
 30
0.0
 11
2073.779877206025
 21
-439.2955290755715
 31
0.0
 12
2078.446543872692
 22
-439.909907397646
 32
0.0
 13
2078.446543872692
 23
-439.909907397646
 33
0.0
  0
MTEXT
  5
243
330
23D
100
AcDbEntity
  8
1
 62
     4
100
AcDbMText
 10
1854.57701261587
 20
-437.2432407309793
 30
0.0
 40
4.66666666666667
 41
0.0
 71
     7
 72
     1
  1
\C4;428.5\C3;\H2.8;{\Fgdt;`}0.2
  7
CONVERTER_13
 11
0.9999999999970621
 21
2.424068405545307E-6
 31
0.0
 73
     1
 44
0.60024009603842
  0
ENDBLK
  5
245
330
23D
100
AcDbEntity
  8
0
100
AcDbBlockEnd
  0
BLOCK
  5
588
330
581
100
AcDbEntity
  8
0
100
AcDbBlockBegin
  2
*D18
 70
     1
 71
     0
 10
0.0
 20
0.0
 30
0.0
  3
*D18
  1

  0
LINE
  5
582
330
581
100
AcDbEntity
  8
1
  6
Continuous
 62
     3
100
AcDbLine
 10
1262.23468564604
 20
-610.4947607691356
 30
0.0
 11
1262.23468564604
 21
-583.4947607691356
 31
0.0
  0
LINE
  5
583
330
581
100
AcDbEntity
  8
1
  6
Continuous
 62
     3
100
AcDbLine
 10
1229.818794904518
 20
-583.4947607691356
 30
0.0
 11
1264.23468564604
 21
-583.4947607691356
 31
0.0
  0
LINE
  5
584
330
581
100
AcDbEntity
  8
1
  6
Continuous
 62
     3
100
AcDbLine
 10
1226.518330904518
 20
-610.4947607691356
 30
0.0
 11
1264.23468564604
 21
-610.4947607691356
 31
0.0
  0
SOLID
  5
585
330
581
100
AcDbEntity
  8
1
 62
     3
100
AcDbTrace
 10
1261.773901904484
 20
-606.9947607691356
 30
0.0
 11
1262.695469387596
 21
-606.9947607691356
 31
0.0
 12
1262.23468564604
 22
-610.4947607691356
 32
0.0
 13
1262.23468564604
 23
-610.4947607691356
 33
0.0
  0
SOLID
  5
586
330
581
100
AcDbEntity
  8
1
 62
     3
100
AcDbTrace
 10
1262.695469387596
 20
-586.9947607691356
 30
0.0
 11
1261.773901904484
 21
-586.9947607691356
 31
0.0
 12
1262.23468564604
 22
-583.4947607691356
 32
0.0
 13
1262.23468564604
 23
-583.4947607691356
 33
0.0
  0
MTEXT
  5
587
330
581
100
AcDbEntity
  8
1
 62
     4
100
AcDbMText
 10
1260.23468564604
 20
-602.691303547256
 30
0.0
 40
3.5
 41
0.0
 71
     7
 72
     1
  1
\C4;(\C4;27\C4;)
  7
CONVERTER_13
 11
0.0
 21
1.0
 31
0.0
 73
     1
 44
0.60024009603842
  0
ENDBLK
  5
589
330
581
100
AcDbEntity
  8
0
100
AcDbBlockEnd
  0
BLOCK
  5
594
330
58C
100
AcDbEntity
  8
0
100
AcDbBlockBegin
  2
*D19
 70
     1
 71
     0
 10
0.0
 20
0.0
 30
0.0
  3
*D19
  1

  0
LINE
  5
58D
330
58C
100
AcDbEntity
  8
1
  6
Continuous
 62
     3
100
AcDbLine
 10
1218.019217727737
 20
-700.2380080712187
 30
0.0
 11
1228.018330904518
 21
-700.2380080712187
 31
0.0
  0
LINE
  5
58E
330
58C
100
AcDbEntity
  8
1
  6
Continuous
 62
     3
100
AcDbLine
 10
1228.018330904518
 20
-700.2380080712187
 30
0.0
 11
1246.69668452095
 21
-700.2380080712187
 31
0.0
  0
LINE
  5
58F
330
58C
100
AcDbEntity
  8
1
  6
Continuous
 62
     3
100
AcDbLine
 10
1218.019217727737
 20
-690.9947607691356
 30
0.0
 11
1218.019217727737
 21
-702.2380080712187
 31
0.0
  0
LINE
  5
590
330
58C
100
AcDbEntity
  8
1
  6
Continuous
 62
     3
100
AcDbLine
 10
1228.018330904518
 20
-690.9947607691356
 30
0.0
 11
1228.018330904518
 21
-702.2380080712187
 31
0.0
  0
SOLID
  5
591
330
58C
100
AcDbEntity
  8
1
 62
     3
100
AcDbTrace
 10
1221.519217727737
 20
-699.7772243296628
 30
0.0
 11
1221.519217727737
 21
-700.6987918127746
 31
0.0
 12
1218.019217727737
 22
-700.2380080712187
 32
0.0
 13
1218.019217727737
 23
-700.2380080712187
 33
0.0
  0
SOLID
  5
592
330
58C
100
AcDbEntity
  8
1
 62
     3
100
AcDbTrace
 10
1224.518330904518
 20
-700.6987918127746
 30
0.0
 11
1224.518330904518
 21
-699.7772243296628
 31
0.0
 12
1228.018330904518
 22
-700.2380080712187
 32
0.0
 13
1228.018330904518
 23
-700.2380080712187
 33
0.0
  0
MTEXT
  5
593
330
58C
100
AcDbEntity
  8
1
 62
     4
100
AcDbMText
 10
1231.016684520984
 20
-698.194285899524
 30
0.0
 40
3.5
 41
0.0
 71
     7
 72
     1
  1
\C4;max.\C4;10
  7
CONVERTER_13
 11
0.9999999999970621
 21
2.424068405545307E-6
 31
0.0
 73
     1
 44
0.60024009603842
  0
ENDBLK
  5
595
330
58C
100
AcDbEntity
  8
0
100
AcDbBlockEnd
  0
BLOCK
  5
5A0
330
598
100
AcDbEntity
  8
0
100
AcDbBlockBegin
  2
*D20
 70
     1
 71
     0
 10
0.0
 20
0.0
 30
0.0
  3
*D20
  1

  0
LINE
  5
599
330
598
100
AcDbEntity
  8
1
  6
Continuous
 62
     3
100
AcDbLine
 10
1382.519217727738
 20
-700.9806525412197
 30
0.0
 11
1392.518330904518
 21
-700.9806525412197
 31
0.0
  0
LINE
  5
59A
330
598
100
AcDbEntity
  8
1
  6
Continuous
 62
     3
100
AcDbLine
 10
1392.518330904518
 20
-700.9806525412197
 30
0.0
 11
1410.951167855552
 21
-700.9806525412197
 31
0.0
  0
LINE
  5
59B
330
598
100
AcDbEntity
  8
1
  6
Continuous
 62
     3
100
AcDbLine
 10
1382.519217727738
 20
-690.9947607691356
 30
0.0
 11
1382.519217727738
 21
-702.9806525412197
 31
0.0
  0
LINE
  5
59C
330
598
100
AcDbEntity
  8
1
  6
Continuous
 62
     3
100
AcDbLine
 10
1392.518330904518
 20
-690.9947607691356
 30
0.0
 11
1392.518330904518
 21
-702.9806525412197
 31
0.0
  0
SOLID
  5
59D
330
598
100
AcDbEntity
  8
1
 62
     3
100
AcDbTrace
 10
1386.019217727738
 20
-700.5198687996638
 30
0.0
 11
1386.019217727738
 21
-701.4414362827756
 31
0.0
 12
1382.519217727738
 22
-700.9806525412197
 32
0.0
 13
1382.519217727738
 23
-700.9806525412197
 33
0.0
  0
SOLID
  5
59E
330
598
100
AcDbEntity
  8
1
 62
     3
100
AcDbTrace
 10
1389.018330904518
 20
-701.4414362827756
 30
0.0
 11
1389.018330904518
 21
-700.5198687996638
 31
0.0
 12
1392.518330904518
 22
-700.9806525412197
 32
0.0
 13
1392.518330904518
 23
-700.9806525412197
 33
0.0
  0
MTEXT
  5
59F
330
598
100
AcDbEntity
  8
1
 62
     4
100
AcDbMText
 10
1395.271167855586
 20
-698.9369303695249
 30
0.0
 40
3.5
 41
0.0
 71
     7
 72
     1
  1
\C4;max.\C4;10
  7
CONVERTER_13
 11
0.9999999999970621
 21
2.424068405545307E-6
 31
0.0
 73
     1
 44
0.60024009603842
  0
ENDBLK
  5
5A1
330
598
100
AcDbEntity
  8
0
100
AcDbBlockEnd
  0
BLOCK
  5
5AB
330
5A4
100
AcDbEntity
  8
0
100
AcDbBlockBegin
  2
*D21
 70
     1
 71
     0
 10
0.0
 20
0.0
 30
0.0
  3
*D21
  1

  0
LINE
  5
5A5
330
5A4
100
AcDbEntity
  8
1
  6
Continuous
 62
     3
100
AcDbLine
 10
1150.30280292995
 20
-606.4947607691356
 30
0.0
 11
1150.30280292995
 21
-572.9946997691359
 31
0.0
  0
LINE
  5
5A6
330
5A4
100
AcDbEntity
  8
1
  6
Continuous
 62
     3
100
AcDbLine
 10
1177.718330904518
 20
-572.9946997691359
 30
0.0
 11
1148.30280292995
 21
-572.9946997691359
 31
0.0
  0
LINE
  5
5A7
330
5A4
100
AcDbEntity
  8
1
  6
Continuous
 62
     3
100
AcDbLine
 10
1211.218330904518
 20
-606.4947607691356
 30
0.0
 11
1148.30280292995
 21
-606.4947607691356
 31
0.0
  0
SOLID
  5
5A8
330
5A4
100
AcDbEntity
  8
1
 62
     3
100
AcDbTrace
 10
1149.842019188394
 20
-602.9947607691356
 30
0.0
 11
1150.763586671506
 21
-602.9947607691356
 31
0.0
 12
1150.30280292995
 22
-606.4947607691356
 32
0.0
 13
1150.30280292995
 23
-606.4947607691356
 33
0.0
  0
SOLID
  5
5A9
330
5A4
100
AcDbEntity
  8
1
 62
     3
100
AcDbTrace
 10
1150.763586671506
 20
-576.4946997691359
 30
0.0
 11
1149.842019188394
 21
-576.4946997691359
 31
0.0
 12
1150.30280292995
 22
-572.9946997691359
 32
0.0
 13
1150.30280292995
 23
-572.9946997691359
 33
0.0
  0
MTEXT
  5
5AA
330
5A4
100
AcDbEntity
  8
1
 62
     4
100
AcDbMText
 10
1148.30280292995
 20
-593.5324660641539
 30
0.0
 40
3.5
 41
0.0
 71
     7
 72
     1
  1
33.5
  7
CONVERTER_13
 11
0.0
 21
1.0
 31
0.0
 73
     1
 44
0.60024009603842
  0
ENDBLK
  5
5AC
330
5A4
100
AcDbEntity
  8
0
100
AcDbBlockEnd
  0
BLOCK
  5
5B6
330
5AF
100
AcDbEntity
  8
0
100
AcDbBlockBegin
  2
*D22
 70
     1
 71
     0
 10
0.0
 20
0.0
 30
0.0
  3
*D22
  1

  0
LINE
  5
5B0
330
5AF
100
AcDbEntity
  8
1
  6
Continuous
 62
     3
100
AcDbLine
 10
1141.89459398814
 20
-606.4947607691356
 30
0.0
 11
1141.89459398814
 21
-561.4947607691402
 31
0.0
  0
LINE
  5
5B1
330
5AF
100
AcDbEntity
  8
1
  6
Continuous
 62
     3
100
AcDbLine
 10
1161.932104275919
 20
-561.4947607691402
 30
0.0
 11
1139.89459398814
 21
-561.4947607691402
 31
0.0
  0
LINE
  5
5B2
330
5AF
100
AcDbEntity
  8
1
  6
Continuous
 62
     3
100
AcDbLine
 10
1211.218330904518
 20
-606.4947607691356
 30
0.0
 11
1139.89459398814
 21
-606.4947607691356
 31
0.0
  0
SOLID
  5
5B3
330
5AF
100
AcDbEntity
  8
1
 62
     3
100
AcDbTrace
 10
1141.433810246584
 20
-602.9947607691356
 30
0.0
 11
1142.355377729696
 21
-602.9947607691356
 31
0.0
 12
1141.89459398814
 22
-606.4947607691356
 32
0.0
 13
1141.89459398814
 23
-606.4947607691356
 33
0.0
  0
SOLID
  5
5B4
330
5AF
100
AcDbEntity
  8
1
 62
     3
100
AcDbTrace
 10
1142.355377729696
 20
-564.9947607691402
 30
0.0
 11
1141.433810246584
 21
-564.9947607691402
 31
0.0
 12
1141.89459398814
 22
-561.4947607691402
 32
0.0
 13
1141.89459398814
 23
-561.4947607691402
 33
0.0
  0
MTEXT
  5
5B5
330
5AF
100
AcDbEntity
  8
1
 62
     4
100
AcDbMText
 10
1139.89459398814
 20
-586.376129964225
 30
0.0
 40
3.5
 41
0.0
 71
     7
 72
     1
  1
45
  7
CONVERTER_13
 11
0.0
 21
1.0
 31
0.0
 73
     1
 44
0.60024009603842
  0
ENDBLK
  5
5B7
330
5AF
100
AcDbEntity
  8
0
100
AcDbBlockEnd
  0
BLOCK
  5
5C1
330
5BA
100
AcDbEntity
  8
0
100
AcDbBlockBegin
  2
*D23
 70
     1
 71
     0
 10
0.0
 20
0.0
 30
0.0
  3
*D23
  1

  0
LINE
  5
5BB
330
5BA
100
AcDbEntity
  8
1
  6
Continuous
 62
     3
100
AcDbLine
 10
1448.59378865183
 20
-610.4947607691356
 30
0.0
 11
1448.59378865183
 21
-583.4947607691356
 31
0.0
  0
LINE
  5
5BC
330
5BA
100
AcDbEntity
  8
1
  6
Continuous
 62
     3
100
AcDbLine
 10
1393.818794904518
 20
-583.4947607691356
 30
0.0
 11
1450.59378865183
 21
-583.4947607691356
 31
0.0
  0
LINE
  5
5BD
330
5BA
100
AcDbEntity
  8
1
  6
Continuous
 62
     3
100
AcDbLine
 10
1391.018330904518
 20
-610.4947607691356
 30
0.0
 11
1450.59378865183
 21
-610.4947607691356
 31
0.0
  0
SOLID
  5
5BE
330
5BA
100
AcDbEntity
  8
1
 62
     3
100
AcDbTrace
 10
1448.133004910274
 20
-606.9947607691356
 30
0.0
 11
1449.054572393386
 21
-606.9947607691356
 31
0.0
 12
1448.59378865183
 22
-610.4947607691356
 32
0.0
 13
1448.59378865183
 23
-610.4947607691356
 33
0.0
  0
SOLID
  5
5BF
330
5BA
100
AcDbEntity
  8
1
 62
     3
100
AcDbTrace
 10
1449.054572393386
 20
-586.9947607691356
 30
0.0
 11
1448.133004910274
 21
-586.9947607691356
 31
0.0
 12
1448.59378865183
 22
-583.4947607691356
 32
0.0
 13
1448.59378865183
 23
-583.4947607691356
 33
0.0
  0
MTEXT
  5
5C0
330
5BA
100
AcDbEntity
  8
1
 62
     4
100
AcDbMText
 10
1446.59378865183
 20
-602.201383021671
 30
0.0
 40
3.5
 41
0.0
 71
     7
 72
     1
  1
\C4;(\C4;27\C4;)
  7
CONVERTER_13
 11
0.0
 21
1.0
 31
0.0
 73
     1
 44
0.60024009603842
  0
ENDBLK
  5
5C2
330
5BA
100
AcDbEntity
  8
0
100
AcDbBlockEnd
  0
BLOCK
  5
5CC
330
5C5
100
AcDbEntity
  8
0
100
AcDbBlockBegin
  2
*D24
 70
     1
 71
     0
 10
0.0
 20
0.0
 30
0.0
  3
*D24
  1

  0
LINE
  5
5C6
330
5C5
100
AcDbEntity
  8
1
  6
Continuous
 62
     3
100
AcDbLine
 10
1313.77343237281
 20
-606.4947607691356
 30
0.0
 11
1313.77343237281
 21
-572.9946997691359
 31
0.0
  0
LINE
  5
5C7
330
5C5
100
AcDbEntity
  8
1
  6
Continuous
 62
     3
100
AcDbLine
 10
1341.718330904518
 20
-572.9946997691359
 30
0.0
 11
1311.77343237281
 21
-572.9946997691359
 31
0.0
  0
LINE
  5
5C8
330
5C5
100
AcDbEntity
  8
1
  6
Continuous
 62
     3
100
AcDbLine
 10
1375.718330904518
 20
-606.4947607691356
 30
0.0
 11
1311.77343237281
 21
-606.4947607691356
 31
0.0
  0
SOLID
  5
5C9
330
5C5
100
AcDbEntity
  8
1
 62
     3
100
AcDbTrace
 10
1313.312648631254
 20
-602.9947607691356
 30
0.0
 11
1314.234216114366
 21
-602.9947607691356
 31
0.0
 12
1313.77343237281
 22
-606.4947607691356
 32
0.0
 13
1313.77343237281
 23
-606.4947607691356
 33
0.0
  0
SOLID
  5
5CA
330
5C5
100
AcDbEntity
  8
1
 62
     3
100
AcDbTrace
 10
1314.234216114366
 20
-576.4946997691359
 30
0.0
 11
1313.312648631254
 21
-576.4946997691359
 31
0.0
 12
1313.77343237281
 22
-572.9946997691359
 32
0.0
 13
1313.77343237281
 23
-572.9946997691359
 33
0.0
  0
MTEXT
  5
5CB
330
5C5
100
AcDbEntity
  8
1
 62
     4
100
AcDbMText
 10
1311.77343237281
 20
-594.336754628447
 30
0.0
 40
3.5
 41
0.0
 71
     7
 72
     1
  1
33.5
  7
CONVERTER_13
 11
0.0
 21
1.0
 31
0.0
 73
     1
 44
0.60024009603842
  0
ENDBLK
  5
5CD
330
5C5
100
AcDbEntity
  8
0
100
AcDbBlockEnd
  0
BLOCK
  5
5D7
330
5D0
100
AcDbEntity
  8
0
100
AcDbBlockBegin
  2
*D25
 70
     1
 71
     0
 10
0.0
 20
0.0
 30
0.0
  3
*D25
  1

  0
LINE
  5
5D1
330
5D0
100
AcDbEntity
  8
1
  6
Continuous
 62
     3
100
AcDbLine
 10
1305.10908856091
 20
-606.4947607691356
 30
0.0
 11
1305.10908856091
 21
-561.4947607691356
 31
0.0
  0
LINE
  5
5D2
330
5D0
100
AcDbEntity
  8
1
  6
Continuous
 62
     3
100
AcDbLine
 10
1370.718330904518
 20
-561.4947607691356
 30
0.0
 11
1303.10908856091
 21
-561.4947607691356
 31
0.0
  0
LINE
  5
5D3
330
5D0
100
AcDbEntity
  8
1
  6
Continuous
 62
     3
100
AcDbLine
 10
1375.718330904518
 20
-606.4947607691356
 30
0.0
 11
1303.10908856091
 21
-606.4947607691356
 31
0.0
  0
SOLID
  5
5D4
330
5D0
100
AcDbEntity
  8
1
 62
     3
100
AcDbTrace
 10
1304.648304819354
 20
-602.9947607691356
 30
0.0
 11
1305.569872302466
 21
-602.9947607691356
 31
0.0
 12
1305.10908856091
 22
-606.4947607691356
 32
0.0
 13
1305.10908856091
 23
-606.4947607691356
 33
0.0
  0
SOLID
  5
5D5
330
5D0
100
AcDbEntity
  8
1
 62
     3
100
AcDbTrace
 10
1305.569872302466
 20
-564.9947607691356
 30
0.0
 11
1304.648304819354
 21
-564.9947607691356
 31
0.0
 12
1305.10908856091
 22
-561.4947607691356
 32
0.0
 13
1305.10908856091
 23
-561.4947607691356
 33
0.0
  0
MTEXT
  5
5D6
330
5D0
100
AcDbEntity
  8
1
 62
     4
100
AcDbMText
 10
1303.10908856091
 20
-585.297477783807
 30
0.0
 40
3.5
 41
0.0
 71
     7
 72
     1
  1
45
  7
CONVERTER_13
 11
0.0
 21
1.0
 31
0.0
 73
     1
 44
0.60024009603842
  0
ENDBLK
  5
5D8
330
5D0
100
AcDbEntity
  8
0
100
AcDbBlockEnd
  0
BLOCK
  5
5E2
330
5DB
100
AcDbEntity
  8
0
100
AcDbBlockBegin
  2
*D26
 70
     1
 71
     0
 10
0.0
 20
0.0
 30
0.0
  3
*D26
  1

  0
LINE
  5
5DC
330
5DB
100
AcDbEntity
  8
1
  6
Continuous
 62
     3
100
AcDbLine
 10
1141.89459398814
 20
-606.4947607691356
 30
0.0
 11
1141.89459398814
 21
-673.2447607691356
 31
0.0
  0
LINE
  5
5DD
330
5DB
100
AcDbEntity
  8
1
  6
Continuous
 62
     3
100
AcDbLine
 10
1169.278268069262
 20
-673.2447607691356
 30
0.0
 11
1139.89459398814
 21
-673.2447607691356
 31
0.0
  0
LINE
  5
5DE
330
5DB
100
AcDbEntity
  8
1
  6
Continuous
 62
     3
100
AcDbLine
 10
1211.218330904518
 20
-606.4947607691356
 30
0.0
 11
1139.89459398814
 21
-606.4947607691356
 31
0.0
  0
SOLID
  5
5DF
330
5DB
100
AcDbEntity
  8
1
 62
     3
100
AcDbTrace
 10
1142.355377729696
 20
-609.9947607691356
 30
0.0
 11
1141.433810246584
 21
-609.9947607691356
 31
0.0
 12
1141.89459398814
 22
-606.4947607691356
 32
0.0
 13
1141.89459398814
 23
-606.4947607691356
 33
0.0
  0
SOLID
  5
5E0
330
5DB
100
AcDbEntity
  8
1
 62
     3
100
AcDbTrace
 10
1141.433810246584
 20
-669.7447607691356
 30
0.0
 11
1142.355377729696
 21
-669.7447607691356
 31
0.0
 12
1141.89459398814
 22
-673.2447607691356
 32
0.0
 13
1141.89459398814
 23
-673.2447607691356
 33
0.0
  0
MTEXT
  5
5E1
330
5DB
100
AcDbEntity
  8
1
 62
     4
100
AcDbMText
 10
1139.89459398814
 20
-640.73626423431
 30
0.0
 40
3.5
 41
0.0
 71
     7
 72
     1
  1
67
  7
CONVERTER_13
 11
0.0
 21
1.0
 31
0.0
 73
     1
 44
0.60024009603842
  0
ENDBLK
  5
5E3
330
5DB
100
AcDbEntity
  8
0
100
AcDbBlockEnd
  0
BLOCK
  5
5ED
330
5E6
100
AcDbEntity
  8
0
100
AcDbBlockBegin
  2
*D27
 70
     1
 71
     0
 10
0.0
 20
0.0
 30
0.0
  3
*D27
  1

  0
LINE
  5
5E7
330
5E6
100
AcDbEntity
  8
1
  6
Continuous
 62
     3
100
AcDbLine
 10
1305.10908856091
 20
-606.4947607691356
 30
0.0
 11
1305.10908856091
 21
-673.2447607691356
 31
0.0
  0
LINE
  5
5E8
330
5E6
100
AcDbEntity
  8
1
  6
Continuous
 62
     3
100
AcDbLine
 10
1333.778268069262
 20
-673.2447607691356
 30
0.0
 11
1303.10908856091
 21
-673.2447607691356
 31
0.0
  0
LINE
  5
5E9
330
5E6
100
AcDbEntity
  8
1
  6
Continuous
 62
     3
100
AcDbLine
 10
1375.718330904518
 20
-606.4947607691356
 30
0.0
 11
1303.10908856091
 21
-606.4947607691356
 31
0.0
  0
SOLID
  5
5EA
330
5E6
100
AcDbEntity
  8
1
 62
     3
100
AcDbTrace
 10
1305.569872302466
 20
-609.9947607691356
 30
0.0
 11
1304.648304819354
 21
-609.9947607691356
 31
0.0
 12
1305.10908856091
 22
-606.4947607691356
 32
0.0
 13
1305.10908856091
 23
-606.4947607691356
 33
0.0
  0
SOLID
  5
5EB
330
5E6
100
AcDbEntity
  8
1
 62
     3
100
AcDbTrace
 10
1304.648304819354
 20
-669.7447607691356
 30
0.0
 11
1305.569872302466
 21
-669.7447607691356
 31
0.0
 12
1305.10908856091
 22
-673.2447607691356
 32
0.0
 13
1305.10908856091
 23
-673.2447607691356
 33
0.0
  0
MTEXT
  5
5EC
330
5E6
100
AcDbEntity
  8
1
 62
     4
100
AcDbMText
 10
1303.10908856091
 20
-640.900248240612
 30
0.0
 40
3.5
 41
0.0
 71
     7
 72
     1
  1
67
  7
CONVERTER_13
 11
0.0
 21
1.0
 31
0.0
 73
     1
 44
0.60024009603842
  0
ENDBLK
  5
5EE
330
5E6
100
AcDbEntity
  8
0
100
AcDbBlockEnd
  0
ENDSEC
  0
SECTION
  2
ENTITIES
  0
INSERT
  5
50
330
1F
100
AcDbEntity
  8
0
100
AcDbBlockReference
  2
TOP__2
 10
4653.00082440163
 20
-5765.546086921167
 30
0.0
  0
INSERT
  5
51
330
1F
100
AcDbEntity
  8
0
100
AcDbBlockReference
  2
rahmen
 10
1051.176181315137
 20
-718.5529434758257
 30
0.0
  0
LINE
  5
4A0
330
1F
100
AcDbEntity
  8
0
  6
Continuous
 62
     1
100
AcDbLine
 10
1206.718403904518
 20
-584.9946387691357
 30
0.0
 11
1206.718403904518
 21
-581.9945167691358
 31
0.0
  0
LINE
  5
4A1
330
1F
100
AcDbEntity
  8
1
  6
Continuous
 62
     1
100
AcDbLine
 10
1219.718403904518
 20
-584.9946387691357
 30
0.0
 11
1206.718403904518
 21
-584.9946387691357
 31
0.0
  0
LINE
  5
4A2
330
1F
100
AcDbEntity
  8
0
  6
Continuous
 62
     1
100
AcDbLine
 10
1206.718403904518
 20
-581.9945167691358
 30
0.0
 11
1206.718403904518
 21
-554.6949557691356
 31
0.0
  0
LINE
  5
4A3
330
1F
100
AcDbEntity
  8
1
  6
Continuous
 62
     1
100
AcDbLine
 10
1219.718403904518
 20
-581.9945167691358
 30
0.0
 11
1206.718403904518
 21
-581.9945167691358
 31
0.0
  0
LINE
  5
4A4
330
1F
100
AcDbEntity
  8
1
  6
DASH_CENTER
 62
     3
100
AcDbLine
 10
1372.184040546992
 20
-619.4947607691356
 30
0.0
 11
1383.954009523674
 21
-619.4947607691356
 31
0.0
  0
LINE
  5
4A5
330
1F
100
AcDbEntity
  8
1
  6
Continuous
 62
     4
100
AcDbLine
 10
1381.318334982453
 20
-628.4947607691356
 30
0.0
 11
1381.318334982456
 21
-610.4947607691356
 31
0.0
  0
LINE
  5
4A6
330
1F
100
AcDbEntity
  8
1
  6
Continuous
 62
     4
100
AcDbLine
 10
1376.818334982456
 20
-610.4947607691356
 30
0.0
 11
1376.818334982456
 21
-628.4947607691356
 31
0.0
  0
LINE
  5
4A7
330
1F
100
AcDbEntity
  8
1
  6
Continuous
 62
     4
100
AcDbLine
 10
1381.818334982456
 20
-626.9947607691356
 30
0.0
 11
1382.518334982456
 21
-626.9947607691356
 31
0.0
  0
LINE
  5
4A8
330
1F
100
AcDbEntity
  8
1
  6
Continuous
 62
     3
100
AcDbLine
 10
1381.318334982453
 20
-628.4947607691356
 30
0.0
 11
1381.718330904518
 21
-628.4947607691356
 31
0.0
  0
LINE
  5
4A9
330
1F
100
AcDbEntity
  8
1
  6
Continuous
 62
     4
100
AcDbLine
 10
1381.718330904518
 20
-628.0947648470728
 30
0.0
 11
1381.818334982456
 21
-627.9947607691356
 31
0.0
  0
LINE
  5
4AA
102
{ACAD_REACTORS
330
5F3
330
5F3
102
}
330
1F
100
AcDbEntity
  8
1
  6
Continuous
 62
     4
100
AcDbLine
 10
1376.818334982456
 20
-628.4947607691356
 30
0.0
 11
1381.318334982453
 21
-628.4947607691356
 31
0.0
  0
LINE
  5
4AB
330
1F
100
AcDbEntity
  8
1
  6
Continuous
 62
     3
100
AcDbLine
 10
1376.818334982456
 20
-610.4947607691356
 30
0.0
 11
1375.718330904518
 21
-610.4947607691356
 31
0.0
  0
LINE
  5
4AC
330
1F
100
AcDbEntity
  8
1
  6
Continuous
 62
     3
100
AcDbLine
 10
1381.318334982456
 20
-610.4947607691356
 30
0.0
 11
1381.718330904518
 21
-610.4947607691356
 31
0.0
  0
LINE
  5
4AD
330
1F
100
AcDbEntity
  8
1
  6
Continuous
 62
     4
100
AcDbLine
 10
1381.718330904518
 20
-610.8947566911978
 30
0.0
 11
1381.818334982456
 21
-610.9947607691356
 31
0.0
  0
LINE
  5
4AE
330
1F
100
AcDbEntity
  8
1
  6
Continuous
 62
     4
100
AcDbLine
 10
1376.818334982456
 20
-610.4947607691356
 30
0.0
 11
1381.318334982456
 21
-610.4947607691356
 31
0.0
  0
LINE
  5
4AF
330
1F
100
AcDbEntity
  8
1
  6
Continuous
 62
     1
100
AcDbLine
 10
1396.218330904518
 20
-673.4947607691356
 30
0.0
 11
1396.218330904518
 21
-606.4947607691356
 31
0.0
  0
LINE
  5
4B0
330
1F
100
AcDbEntity
  8
1
  6
Continuous
 62
     1
100
AcDbLine
 10
1381.718330904518
 20
-610.8947566911978
 30
0.0
 11
1381.718330904518
 21
-608.9947607691356
 31
0.0
  0
LINE
  5
4B1
330
1F
100
AcDbEntity
  8
1
  6
Continuous
 62
     1
100
AcDbLine
 10
1375.718330904518
 20
-606.4947607691356
 30
0.0
 11
1396.218330904518
 21
-606.4947607691356
 31
0.0
  0
LINE
  5
4B2
330
1F
100
AcDbEntity
  8
1
  6
Continuous
 62
     1
100
AcDbLine
 10
1375.718330904518
 20
-610.9947607691356
 30
0.0
 11
1375.718330904518
 21
-606.4947607691356
 31
0.0
  0
LINE
  5
4B3
330
1F
100
AcDbEntity
  8
1
  6
Continuous
 62
     1
100
AcDbLine
 10
1375.218330904518
 20
-617.4947607691356
 30
0.0
 11
1375.718330904518
 21
-617.4947607691356
 31
0.0
  0
LINE
  5
4B4
330
1F
100
AcDbEntity
  8
1
  6
Continuous
 62
     1
100
AcDbLine
 10
1375.218330904518
 20
-625.4947607691356
 30
0.0
 11
1375.218330904518
 21
-617.4947607691356
 31
0.0
  0
LINE
  5
4B5
330
1F
100
AcDbEntity
  8
1
  6
Continuous
 62
     1
100
AcDbLine
 10
1375.718330904518
 20
-625.4947607691356
 30
0.0
 11
1375.218330904518
 21
-625.4947607691356
 31
0.0
  0
LINE
  5
4B6
330
1F
100
AcDbEntity
  8
1
  6
Continuous
 62
     1
100
AcDbLine
 10
1375.718330904518
 20
-627.9947607691356
 30
0.0
 11
1375.718330904518
 21
-625.4947607691356
 31
0.0
  0
LINE
  5
4B7
102
{ACAD_REACTORS
330
5F3
330
5F3
102
}
330
1F
100
AcDbEntity
  8
1
  6
Continuous
 62
     1
100
AcDbLine
 10
1375.218330904518
 20
-661.4947607691356
 30
0.0
 11
1375.718330904518
 21
-661.4947607691356
 31
0.0
  0
LINE
  5
4B8
102
{ACAD_REACTORS
330
5F3
330
5F3
102
}
330
1F
100
AcDbEntity
  8
1
  6
Continuous
 62
     1
100
AcDbLine
 10
1375.218330904518
 20
-669.4947607691356
 30
0.0
 11
1375.218330904518
 21
-661.4947607691356
 31
0.0
  0
LINE
  5
4B9
102
{ACAD_REACTORS
330
5F3
330
5F3
102
}
330
1F
100
AcDbEntity
  8
1
  6
Continuous
 62
     1
100
AcDbLine
 10
1375.718330904518
 20
-669.4947607691356
 30
0.0
 11
1375.218330904518
 21
-669.4947607691356
 31
0.0
  0
LINE
  5
4BA
102
{ACAD_REACTORS
330
5F3
330
5F3
102
}
330
1F
100
AcDbEntity
  8
1
  6
Continuous
 62
     1
100
AcDbLine
 10
1375.718330904518
 20
-673.4947607691356
 30
0.0
 11
1375.718330904518
 21
-669.4947607691356
 31
0.0
  0
LINE
  5
4BB
102
{ACAD_REACTORS
330
5F3
330
5F3
102
}
330
1F
100
AcDbEntity
  8
1
  6
Continuous
 62
     1
100
AcDbLine
 10
1381.718330904518
 20
-673.4947607691356
 30
0.0
 11
1375.718330904518
 21
-673.4947607691356
 31
0.0
  0
LINE
  5
4BC
330
1F
100
AcDbEntity
  8
1
  6
Continuous
 62
     1
100
AcDbLine
 10
1393.718330904518
 20
-608.9947607691356
 30
0.0
 11
1381.718330904518
 21
-608.9947607691356
 31
0.0
  0
LINE
  5
4BD
330
1F
100
AcDbEntity
  8
1
  6
Continuous
 62
     1
100
AcDbLine
 10
1393.718330904518
 20
-673.4947607691356
 30
0.0
 11
1393.718330904518
 21
-608.9947607691356
 31
0.0
  0
LINE
  5
4BE
330
1F
100
AcDbEntity
  8
1
  6
Continuous
 62
     1
100
AcDbLine
 10
1396.218330904518
 20
-673.4947607691356
 30
0.0
 11
1393.718330904518
 21
-673.4947607691356
 31
0.0
  0
LINE
  5
4BF
330
1F
100
AcDbEntity
  8
1
  6
Continuous
 62
     4
100
AcDbLine
 10
1376.318334982456
 20
-610.9947607691356
 30
0.0
 11
1376.818334982456
 21
-610.4947607691356
 31
0.0
  0
LINE
  5
4C0
330
1F
100
AcDbEntity
  8
1
  6
Continuous
 62
     4
100
AcDbLine
 10
1381.318334982456
 20
-610.4947607691356
 30
0.0
 11
1381.718330904518
 21
-610.8947566911978
 31
0.0
  0
LINE
  5
4C1
330
1F
100
AcDbEntity
  8
1
  6
Continuous
 62
     4
100
AcDbLine
 10
1376.318334982456
 20
-610.9947607691356
 30
0.0
 11
1376.318334982456
 21
-627.9947607691356
 31
0.0
  0
LINE
  5
4C2
330
1F
100
AcDbEntity
  8
1
  6
Continuous
 62
     4
100
AcDbLine
 10
1381.818334982456
 20
-610.9947607691356
 30
0.0
 11
1381.818334982456
 21
-627.9947607691356
 31
0.0
  0
LINE
  5
4C3
102
{ACAD_REACTORS
330
5F3
330
5F3
102
}
330
1F
100
AcDbEntity
  8
1
  6
Continuous
 62
     4
100
AcDbLine
 10
1381.718330904518
 20
-628.0947648470728
 30
0.0
 11
1381.318334982453
 21
-628.4947607691356
 31
0.0
  0
LINE
  5
4C4
102
{ACAD_REACTORS
330
5F3
330
5F3
102
}
330
1F
100
AcDbEntity
  8
1
  6
Continuous
 62
     4
100
AcDbLine
 10
1376.818334982456
 20
-628.4947607691356
 30
0.0
 11
1376.318334982456
 21
-627.9947607691356
 31
0.0
  0
LINE
  5
4C5
330
1F
100
AcDbEntity
  8
1
  6
Continuous
 62
     3
100
AcDbLine
 10
1376.318334982456
 20
-610.9947607691356
 30
0.0
 11
1381.818334982456
 21
-610.9947607691356
 31
0.0
  0
LINE
  5
4C6
330
1F
100
AcDbEntity
  8
1
  6
Continuous
 62
     3
100
AcDbLine
 10
1376.318334982456
 20
-627.9947607691356
 30
0.0
 11
1381.818334982456
 21
-627.9947607691356
 31
0.0
  0
LINE
  5
4C7
330
1F
100
AcDbEntity
  8
1
  6
Continuous
 62
     4
100
AcDbLine
 10
1382.518334982456
 20
-611.9947607691356
 30
0.0
 11
1381.818334982456
 21
-611.9947607691356
 31
0.0
  0
LINE
  5
4C8
330
1F
100
AcDbEntity
  8
1
  6
Continuous
 62
     4
100
AcDbLine
 10
1382.518334982456
 20
-626.9947607691356
 30
0.0
 11
1382.518334982456
 21
-611.9947607691356
 31
0.0
  0
LINE
  5
4C9
102
{ACAD_REACTORS
330
5F2
330
5F2
102
}
330
1F
100
AcDbEntity
  8
1
  6
Continuous
 62
     1
100
AcDbLine
 10
1392.518330904518
 20
-671.9947607691356
 30
0.0
 11
1393.718330904518
 21
-671.9947607691356
 31
0.0
  0
LINE
  5
4CA
102
{ACAD_REACTORS
330
5F2
330
5F2
102
}
330
1F
100
AcDbEntity
  8
1
  6
Continuous
 62
     1
100
AcDbLine
 10
1392.518330904518
 20
-608.9947607691356
 30
0.0
 11
1392.518330904518
 21
-671.9947607691356
 31
0.0
  0
LINE
  5
4CB
102
{ACAD_REACTORS
330
5F2
330
5F2
102
}
330
1F
100
AcDbEntity
  8
1
  6
Continuous
 62
     1
100
AcDbLine
 10
1393.718330904518
 20
-608.9947607691356
 30
0.0
 11
1392.518330904518
 21
-608.9947607691356
 31
0.0
  0
LINE
  5
4CC
102
{ACAD_REACTORS
330
5F2
330
5F2
102
}
330
1F
100
AcDbEntity
  8
1
  6
Continuous
 62
     1
100
AcDbLine
 10
1393.718330904518
 20
-671.9947607691356
 30
0.0
 11
1393.718330904518
 21
-608.9947607691356
 31
0.0
  0
LINE
  5
4CD
330
1F
100
AcDbEntity
  8
1
  6
Continuous
 62
     4
100
AcDbLine
 10
1375.718330904518
 20
-610.9947607691356
 30
0.0
 11
1376.318334982456
 21
-610.9947607691356
 31
0.0
  0
LINE
  5
4CE
330
1F
100
AcDbEntity
  8
1
  6
Continuous
 62
     1
100
AcDbLine
 10
1375.718330904518
 20
-617.4947607691356
 30
0.0
 11
1375.718330904518
 21
-610.9947607691356
 31
0.0
  0
LINE
  5
4CF
102
{ACAD_REACTORS
330
5F3
330
5F3
102
}
330
1F
100
AcDbEntity
  8
1
  6
Continuous
 62
     4
100
AcDbLine
 10
1375.718330904518
 20
-627.9947607691356
 30
0.0
 11
1376.318334982456
 21
-627.9947607691356
 31
0.0
  0
LINE
  5
4D0
102
{ACAD_REACTORS
330
5F3
330
5F3
102
}
330
1F
100
AcDbEntity
  8
1
  6
Continuous
 62
     1
100
AcDbLine
 10
1375.718330904518
 20
-661.4947607691356
 30
0.0
 11
1375.718330904518
 21
-627.9947607691356
 31
0.0
  0
LINE
  5
4D1
330
1F
100
AcDbEntity
  8
1
  6
Continuous
 62
     3
100
AcDbLine
 10
1375.718330904518
 20
-628.4947607691356
 30
0.0
 11
1376.818334982456
 21
-628.4947607691356
 31
0.0
  0
LINE
  5
4D2
102
{ACAD_REACTORS
330
5F3
330
5F3
102
}
330
1F
100
AcDbEntity
  8
1
  6
Continuous
 62
     1
100
AcDbLine
 10
1381.718330904518
 20
-673.4947607691356
 30
0.0
 11
1381.718330904518
 21
-628.0947648470728
 31
0.0
  0
LINE
  5
4D3
102
{ACAD_REACTORS
330
5F4
330
5F4
102
}
330
1F
100
AcDbEntity
  8
1
  6
Continuous
 62
     1
100
AcDbLine
 10
1381.718330904518
 20
-610.1947607691357
 30
0.0
 11
1391.718330904518
 21
-610.1947607691357
 31
0.0
  0
LINE
  5
4D4
102
{ACAD_REACTORS
330
5F4
330
5F4
102
}
330
1F
100
AcDbEntity
  8
1
  6
Continuous
 62
     1
100
AcDbLine
 10
1381.718330904518
 20
-608.9947607691356
 30
0.0
 11
1381.718330904518
 21
-610.1947607691357
 31
0.0
  0
LINE
  5
4D5
102
{ACAD_REACTORS
330
5F4
330
5F4
102
}
330
1F
100
AcDbEntity
  8
1
  6
Continuous
 62
     1
100
AcDbLine
 10
1391.718330904518
 20
-608.9947607691356
 30
0.0
 11
1381.718330904518
 21
-608.9947607691356
 31
0.0
  0
LINE
  5
4D6
102
{ACAD_REACTORS
330
5F4
330
5F4
102
}
330
1F
100
AcDbEntity
  8
1
  6
Continuous
 62
     1
100
AcDbLine
 10
1391.718330904518
 20
-610.1947607691357
 30
0.0
 11
1391.718330904518
 21
-608.9947607691356
 31
0.0
  0
LINE
  5
4D7
330
1F
100
AcDbEntity
  8
1
  6
Continuous
 62
     4
100
AcDbLine
 10
1216.818334982453
 20
-628.4947607691356
 30
0.0
 11
1216.818334982456
 21
-610.4947607691356
 31
0.0
  0
LINE
  5
4D8
330
1F
100
AcDbEntity
  8
1
  6
Continuous
 62
     4
100
AcDbLine
 10
1212.318334982456
 20
-610.4947607691356
 30
0.0
 11
1212.318334982456
 21
-628.4947607691356
 31
0.0
  0
LINE
  5
4D9
330
1F
100
AcDbEntity
  8
1
  6
Continuous
 62
     4
100
AcDbLine
 10
1217.318334982456
 20
-626.9947607691356
 30
0.0
 11
1218.018334982456
 21
-626.9947607691356
 31
0.0
  0
LINE
  5
4DA
330
1F
100
AcDbEntity
  8
1
  6
Continuous
 62
     3
100
AcDbLine
 10
1216.818334982453
 20
-628.4947607691356
 30
0.0
 11
1217.218330904518
 21
-628.4947607691356
 31
0.0
  0
LINE
  5
4DB
330
1F
100
AcDbEntity
  8
1
  6
Continuous
 62
     4
100
AcDbLine
 10
1217.218330904518
 20
-628.0947648470728
 30
0.0
 11
1217.318334982456
 21
-627.9947607691356
 31
0.0
  0
LINE
  5
4DC
102
{ACAD_REACTORS
330
5F6
330
5F6
102
}
330
1F
100
AcDbEntity
  8
1
  6
Continuous
 62
     4
100
AcDbLine
 10
1212.318334982456
 20
-628.4947607691356
 30
0.0
 11
1216.818334982453
 21
-628.4947607691356
 31
0.0
  0
LINE
  5
4DD
330
1F
100
AcDbEntity
  8
1
  6
Continuous
 62
     3
100
AcDbLine
 10
1212.318334982456
 20
-610.4947607691356
 30
0.0
 11
1211.218330904518
 21
-610.4947607691356
 31
0.0
  0
LINE
  5
4DE
330
1F
100
AcDbEntity
  8
1
  6
Continuous
 62
     3
100
AcDbLine
 10
1216.818334982456
 20
-610.4947607691356
 30
0.0
 11
1217.218330904518
 21
-610.4947607691356
 31
0.0
  0
LINE
  5
4DF
330
1F
100
AcDbEntity
  8
1
  6
Continuous
 62
     4
100
AcDbLine
 10
1217.218330904518
 20
-610.8947566911978
 30
0.0
 11
1217.318334982456
 21
-610.9947607691356
 31
0.0
  0
LINE
  5
4E0
330
1F
100
AcDbEntity
  8
1
  6
Continuous
 62
     4
100
AcDbLine
 10
1212.318334982456
 20
-610.4947607691356
 30
0.0
 11
1216.818334982456
 21
-610.4947607691356
 31
0.0
  0
LINE
  5
4E1
330
1F
100
AcDbEntity
  8
1
  6
CENTER_DASH_DASH
 62
     3
100
AcDbLine
 10
1208.205505962332
 20
-665.4947607691356
 30
0.0
 11
1219.868821115387
 21
-665.4947607691356
 31
0.0
  0
LINE
  5
4E2
102
{ACAD_REACTORS
330
5F6
330
5F6
102
}
330
1F
100
AcDbEntity
  8
1
  6
Continuous
 62
     1
100
AcDbLine
 10
1210.718330904518
 20
-669.4947607691356
 30
0.0
 11
1210.718330904518
 21
-661.4947607691356
 31
0.0
  0
LINE
  5
4E3
102
{ACAD_REACTORS
330
5F6
330
5F6
102
}
330
1F
100
AcDbEntity
  8
1
  6
Continuous
 62
     1
100
AcDbLine
 10
1217.218330904518
 20
-628.0947648470728
 30
0.0
 11
1217.218330904518
 21
-673.4947607691356
 31
0.0
  0
LINE
  5
4E4
330
1F
100
AcDbEntity
  8
1
  6
Continuous
 62
     1
100
AcDbLine
 10
1231.718330904518
 20
-673.4947607691356
 30
0.0
 11
1231.718330904518
 21
-606.4947607691356
 31
0.0
  0
LINE
  5
4E5
330
1F
100
AcDbEntity
  8
1
  6
DASH_CENTER
 62
     3
100
AcDbLine
 10
1207.684040546992
 20
-619.4947607691356
 30
0.0
 11
1219.454009523674
 21
-619.4947607691356
 31
0.0
  0
LINE
  5
4E6
330
1F
100
AcDbEntity
  8
1
  6
Continuous
 62
     1
100
AcDbLine
 10
1217.218330904518
 20
-610.8947566911978
 30
0.0
 11
1217.218330904518
 21
-608.9947607691356
 31
0.0
  0
LINE
  5
4E7
330
1F
100
AcDbEntity
  8
1
  6
Continuous
 62
     1
100
AcDbLine
 10
1211.218330904518
 20
-606.4947607691356
 30
0.0
 11
1231.718330904518
 21
-606.4947607691356
 31
0.0
  0
LINE
  5
4E8
330
1F
100
AcDbEntity
  8
1
  6
Continuous
 62
     1
100
AcDbLine
 10
1211.218330904518
 20
-610.9947607691356
 30
0.0
 11
1211.218330904518
 21
-606.4947607691356
 31
0.0
  0
LINE
  5
4E9
330
1F
100
AcDbEntity
  8
1
  6
Continuous
 62
     1
100
AcDbLine
 10
1210.718330904518
 20
-617.4947607691356
 30
0.0
 11
1211.218330904518
 21
-617.4947607691356
 31
0.0
  0
LINE
  5
4EA
330
1F
100
AcDbEntity
  8
1
  6
Continuous
 62
     1
100
AcDbLine
 10
1210.718330904518
 20
-625.4947607691356
 30
0.0
 11
1210.718330904518
 21
-617.4947607691356
 31
0.0
  0
LINE
  5
4EB
330
1F
100
AcDbEntity
  8
1
  6
Continuous
 62
     1
100
AcDbLine
 10
1211.218330904518
 20
-625.4947607691356
 30
0.0
 11
1210.718330904518
 21
-625.4947607691356
 31
0.0
  0
LINE
  5
4EC
330
1F
100
AcDbEntity
  8
1
  6
Continuous
 62
     1
100
AcDbLine
 10
1211.218330904518
 20
-627.9947607691356
 30
0.0
 11
1211.218330904518
 21
-625.4947607691356
 31
0.0
  0
LINE
  5
4ED
102
{ACAD_REACTORS
330
5F6
330
5F6
102
}
330
1F
100
AcDbEntity
  8
1
  6
Continuous
 62
     1
100
AcDbLine
 10
1210.718330904518
 20
-661.4947607691356
 30
0.0
 11
1211.218330904518
 21
-661.4947607691356
 31
0.0
  0
LINE
  5
4EE
102
{ACAD_REACTORS
330
5F6
330
5F6
102
}
330
1F
100
AcDbEntity
  8
1
  6
Continuous
 62
     1
100
AcDbLine
 10
1211.218330904518
 20
-669.4947607691356
 30
0.0
 11
1210.718330904518
 21
-669.4947607691356
 31
0.0
  0
LINE
  5
4EF
102
{ACAD_REACTORS
330
5F6
330
5F6
102
}
330
1F
100
AcDbEntity
  8
1
  6
Continuous
 62
     1
100
AcDbLine
 10
1211.218330904518
 20
-673.4947607691356
 30
0.0
 11
1211.218330904518
 21
-669.4947607691356
 31
0.0
  0
LINE
  5
4F0
102
{ACAD_REACTORS
330
5F6
330
5F6
102
}
330
1F
100
AcDbEntity
  8
1
  6
Continuous
 62
     1
100
AcDbLine
 10
1217.218330904518
 20
-673.4947607691356
 30
0.0
 11
1211.218330904518
 21
-673.4947607691356
 31
0.0
  0
LINE
  5
4F1
330
1F
100
AcDbEntity
  8
1
  6
Continuous
 62
     1
100
AcDbLine
 10
1229.218330904518
 20
-608.9947607691356
 30
0.0
 11
1217.218330904518
 21
-608.9947607691356
 31
0.0
  0
LINE
  5
4F2
330
1F
100
AcDbEntity
  8
1
  6
Continuous
 62
     1
100
AcDbLine
 10
1229.218330904518
 20
-673.4947607691356
 30
0.0
 11
1229.218330904518
 21
-608.9947607691356
 31
0.0
  0
LINE
  5
4F3
330
1F
100
AcDbEntity
  8
1
  6
Continuous
 62
     1
100
AcDbLine
 10
1231.718330904518
 20
-673.4947607691356
 30
0.0
 11
1229.218330904518
 21
-673.4947607691356
 31
0.0
  0
LINE
  5
4F4
330
1F
100
AcDbEntity
  8
1
  6
Continuous
 62
     4
100
AcDbLine
 10
1211.818334982456
 20
-610.9947607691356
 30
0.0
 11
1212.318334982456
 21
-610.4947607691356
 31
0.0
  0
LINE
  5
4F5
330
1F
100
AcDbEntity
  8
1
  6
Continuous
 62
     4
100
AcDbLine
 10
1216.818334982456
 20
-610.4947607691356
 30
0.0
 11
1217.218330904518
 21
-610.8947566911978
 31
0.0
  0
LINE
  5
4F6
330
1F
100
AcDbEntity
  8
1
  6
Continuous
 62
     4
100
AcDbLine
 10
1211.818334982456
 20
-610.9947607691356
 30
0.0
 11
1211.818334982456
 21
-627.9947607691356
 31
0.0
  0
LINE
  5
4F7
330
1F
100
AcDbEntity
  8
1
  6
Continuous
 62
     4
100
AcDbLine
 10
1217.318334982456
 20
-610.9947607691356
 30
0.0
 11
1217.318334982456
 21
-627.9947607691356
 31
0.0
  0
LINE
  5
4F8
102
{ACAD_REACTORS
330
5F6
330
5F6
102
}
330
1F
100
AcDbEntity
  8
1
  6
Continuous
 62
     4
100
AcDbLine
 10
1217.218330904518
 20
-628.0947648470728
 30
0.0
 11
1216.818334982453
 21
-628.4947607691356
 31
0.0
  0
LINE
  5
4F9
102
{ACAD_REACTORS
330
5F6
330
5F6
102
}
330
1F
100
AcDbEntity
  8
1
  6
Continuous
 62
     4
100
AcDbLine
 10
1212.318334982456
 20
-628.4947607691356
 30
0.0
 11
1211.818334982456
 21
-627.9947607691356
 31
0.0
  0
LINE
  5
4FA
330
1F
100
AcDbEntity
  8
1
  6
Continuous
 62
     3
100
AcDbLine
 10
1211.818334982456
 20
-610.9947607691356
 30
0.0
 11
1217.318334982456
 21
-610.9947607691356
 31
0.0
  0
LINE
  5
4FB
330
1F
100
AcDbEntity
  8
1
  6
Continuous
 62
     3
100
AcDbLine
 10
1211.818334982456
 20
-627.9947607691356
 30
0.0
 11
1217.318334982456
 21
-627.9947607691356
 31
0.0
  0
LINE
  5
4FC
330
1F
100
AcDbEntity
  8
1
  6
Continuous
 62
     4
100
AcDbLine
 10
1218.018334982456
 20
-611.9947607691356
 30
0.0
 11
1217.318334982456
 21
-611.9947607691356
 31
0.0
  0
LINE
  5
4FD
330
1F
100
AcDbEntity
  8
1
  6
Continuous
 62
     4
100
AcDbLine
 10
1218.018334982456
 20
-626.9947607691356
 30
0.0
 11
1218.018334982456
 21
-611.9947607691356
 31
0.0
  0
LINE
  5
4FE
102
{ACAD_REACTORS
330
5F9
330
5F9
102
}
330
1F
100
AcDbEntity
  8
1
  6
Continuous
 62
     1
100
AcDbLine
 10
1228.018330904518
 20
-671.9947607691356
 30
0.0
 11
1229.218330904518
 21
-671.9947607691356
 31
0.0
  0
LINE
  5
4FF
102
{ACAD_REACTORS
330
5F9
330
5F9
102
}
330
1F
100
AcDbEntity
  8
1
  6
Continuous
 62
     1
100
AcDbLine
 10
1228.018330904518
 20
-608.9947607691356
 30
0.0
 11
1228.018330904518
 21
-671.9947607691356
 31
0.0
  0
LINE
  5
500
102
{ACAD_REACTORS
330
5F9
330
5F9
102
}
330
1F
100
AcDbEntity
  8
1
  6
Continuous
 62
     1
100
AcDbLine
 10
1229.218330904518
 20
-608.9947607691356
 30
0.0
 11
1228.018330904518
 21
-608.9947607691356
 31
0.0
  0
LINE
  5
501
102
{ACAD_REACTORS
330
5F9
330
5F9
102
}
330
1F
100
AcDbEntity
  8
1
  6
Continuous
 62
     1
100
AcDbLine
 10
1229.218330904518
 20
-671.9947607691356
 30
0.0
 11
1229.218330904518
 21
-608.9947607691356
 31
0.0
  0
LINE
  5
502
330
1F
100
AcDbEntity
  8
1
  6
Continuous
 62
     4
100
AcDbLine
 10
1211.218330904518
 20
-610.9947607691356
 30
0.0
 11
1211.818334982456
 21
-610.9947607691356
 31
0.0
  0
LINE
  5
503
330
1F
100
AcDbEntity
  8
1
  6
Continuous
 62
     1
100
AcDbLine
 10
1211.218330904518
 20
-617.4947607691356
 30
0.0
 11
1211.218330904518
 21
-610.9947607691356
 31
0.0
  0
LINE
  5
504
102
{ACAD_REACTORS
330
5F6
330
5F6
102
}
330
1F
100
AcDbEntity
  8
1
  6
Continuous
 62
     4
100
AcDbLine
 10
1211.218330904518
 20
-627.9947607691356
 30
0.0
 11
1211.818334982456
 21
-627.9947607691356
 31
0.0
  0
LINE
  5
505
102
{ACAD_REACTORS
330
5F6
330
5F6
102
}
330
1F
100
AcDbEntity
  8
1
  6
Continuous
 62
     1
100
AcDbLine
 10
1211.218330904518
 20
-661.4947607691356
 30
0.0
 11
1211.218330904518
 21
-627.9947607691356
 31
0.0
  0
LINE
  5
506
330
1F
100
AcDbEntity
  8
1
  6
Continuous
 62
     3
100
AcDbLine
 10
1211.218330904518
 20
-628.4947607691356
 30
0.0
 11
1212.318334982456
 21
-628.4947607691356
 31
0.0
  0
LINE
  5
507
102
{ACAD_REACTORS
330
5F8
330
5F8
102
}
330
1F
100
AcDbEntity
  8
1
  6
Continuous
 62
     1
100
AcDbLine
 10
1217.218330904518
 20
-610.1947607691357
 30
0.0
 11
1227.218330904518
 21
-610.1947607691357
 31
0.0
  0
LINE
  5
508
102
{ACAD_REACTORS
330
5F8
330
5F8
102
}
330
1F
100
AcDbEntity
  8
1
  6
Continuous
 62
     1
100
AcDbLine
 10
1217.218330904518
 20
-608.9947607691356
 30
0.0
 11
1217.218330904518
 21
-610.1947607691357
 31
0.0
  0
LINE
  5
509
102
{ACAD_REACTORS
330
5F8
330
5F8
102
}
330
1F
100
AcDbEntity
  8
1
  6
Continuous
 62
     1
100
AcDbLine
 10
1227.218330904518
 20
-608.9947607691356
 30
0.0
 11
1217.218330904518
 21
-608.9947607691356
 31
0.0
  0
LINE
  5
50A
102
{ACAD_REACTORS
330
5F8
330
5F8
102
}
330
1F
100
AcDbEntity
  8
1
  6
Continuous
 62
     1
100
AcDbLine
 10
1227.218330904518
 20
-610.1947607691357
 30
0.0
 11
1227.218330904518
 21
-608.9947607691356
 31
0.0
  0
LINE
  5
50B
330
1F
100
AcDbEntity
  8
0
  6
Continuous
 62
     1
100
AcDbLine
 10
1206.718403904518
 20
-540.4947607691356
 30
0.0
 11
1206.718403904518
 21
-554.6949557691356
 31
0.0
  0
LINE
  5
50C
102
{ACAD_REACTORS
330
5FA
330
5FA
102
}
330
1F
100
AcDbEntity
  8
1
  6
Continuous
 62
     1
100
AcDbLine
 10
1396.159614904518
 20
-605.4947807691356
 30
0.0
 11
1373.718330904518
 21
-605.4947607691356
 31
0.0
  0
LINE
  5
50D
102
{ACAD_REACTORS
330
5FA
330
5FA
102
}
330
1F
100
AcDbEntity
  8
1
  6
Continuous
 62
     1
100
AcDbLine
 10
1401.030308993921
 20
-612.4959278063195
 30
0.0
 11
1397.011054947511
 21
-605.9703469501063
 31
0.0
  0
LINE
  5
50E
102
{ACAD_REACTORS
330
5FA
330
5FA
102
}
330
1F
100
AcDbEntity
  8
1
  6
Continuous
 62
     1
100
AcDbLine
 10
1402.818412126305
 20
-611.3947585243009
 30
0.0
 11
1398.713921287067
 21
-604.9214057751237
 31
0.0
  0
LINE
  5
50F
102
{ACAD_REACTORS
330
5FA
330
5FA
102
}
330
1F
100
AcDbEntity
  8
1
  6
Continuous
 62
     1
100
AcDbLine
 10
1402.818412126305
 20
-611.3947585243009
 30
0.0
 11
1400.886543817981
 21
-608.0680028101668
 31
0.0
  0
LINE
  5
510
102
{ACAD_REACTORS
330
5FA
330
5FA
102
}
330
1F
100
AcDbEntity
  8
1
  6
Continuous
 62
     1
100
AcDbLine
 10
1402.589563416233
 20
-607.0192395995917
 30
0.0
 11
1404.60651525869
 21
-610.2935892422823
 31
0.0
  0
LINE
  5
511
102
{ACAD_REACTORS
330
5FA
330
5FA
102
}
330
1F
100
AcDbEntity
  8
1
  6
Continuous
 62
     1
100
AcDbLine
 10
1405.650947904518
 20
-605.4947607691356
 30
0.0
 11
1403.441231041171
 21
-605.4947607989369
 31
0.0
  0
LINE
  5
512
102
{ACAD_REACTORS
330
5FA
330
5FA
102
}
330
1F
100
AcDbEntity
  8
1
  6
Continuous
 62
     1
100
AcDbLine
 10
1405.650947904518
 20
-603.4947607691356
 30
0.0
 11
1403.440986904518
 21
-603.4947157691356
 31
0.0
  0
LINE
  5
513
330
1F
100
AcDbEntity
  8
0
  6
DASH_CENTER
 62
     3
100
AcDbLine
 10
1213.018330904518
 20
-690.9947607691356
 30
0.0
 11
1218.019217727738
 21
-690.9947607691356
 31
0.0
  0
LINE
  5
514
102
{ACAD_REACTORS
330
5FC
330
5FC
102
}
330
1F
100
AcDbEntity
  8
0
  6
Continuous
 62
     1
100
AcDbLine
 10
1228.018330904518
 20
-611.9947607691356
 30
0.0
 11
1228.018330904518
 21
-690.9947607691356
 31
0.0
  0
LINE
  5
515
102
{ACAD_REACTORS
330
5FC
330
5FC
102
}
330
1F
100
AcDbEntity
  8
0
  6
Continuous
 62
     1
100
AcDbLine
 10
1226.518330904518
 20
-610.4947607691356
 30
0.0
 11
1228.018330904518
 21
-611.9947607691356
 31
0.0
  0
LINE
  5
516
102
{ACAD_REACTORS
330
5FC
330
5FC
102
}
330
1F
100
AcDbEntity
  8
0
  6
Continuous
 62
     1
100
AcDbLine
 10
1219.518330904518
 20
-610.4947607691356
 30
0.0
 11
1226.518330904518
 21
-610.4947607691356
 31
0.0
  0
LINE
  5
517
102
{ACAD_REACTORS
330
5FC
330
5FC
102
}
330
1F
100
AcDbEntity
  8
0
  6
Continuous
 62
     1
100
AcDbLine
 10
1218.018330904518
 20
-611.9947607691357
 30
0.0
 11
1219.518330904518
 21
-610.4947607691356
 31
0.0
  0
LINE
  5
518
102
{ACAD_REACTORS
330
5FC
330
5FC
102
}
330
1F
100
AcDbEntity
  8
0
  6
Continuous
 62
     1
100
AcDbLine
 10
1218.019217727738
 20
-690.9947607691356
 30
0.0
 11
1218.018330904518
 21
-611.9947607691357
 31
0.0
  0
LINE
  5
519
330
1F
100
AcDbEntity
  8
0
  6
DASH_CENTER
 62
     3
100
AcDbLine
 10
1417.650947904518
 20
-583.4947607691356
 30
0.0
 11
1417.650947904518
 21
-623.4947607691356
 31
0.0
  0
LINE
  5
51A
330
1F
100
AcDbEntity
  8
0
  6
DASH_CENTER
 62
     3
100
AcDbLine
 10
1402.718330904518
 20
-548.4947607691356
 30
0.0
 11
1377.718330904518
 21
-548.4947607691356
 31
0.0
  0
LINE
  5
51B
102
{ACAD_REACTORS
330
5FA
330
5FA
102
}
330
1F
100
AcDbEntity
  8
0
  6
Continuous
 62
     1
100
AcDbLine
 10
1382.718330904518
 20
-560.4947607691356
 30
0.0
 11
1373.718330904518
 21
-560.4947607691356
 31
0.0
  0
LINE
  5
51C
102
{ACAD_REACTORS
330
5FA
330
5FA
102
}
330
1F
100
AcDbEntity
  8
0
  6
Continuous
 62
     1
100
AcDbLine
 10
1382.718330904518
 20
-558.4947607691356
 30
0.0
 11
1382.718330904518
 21
-560.4947607691356
 31
0.0
  0
LINE
  5
51D
102
{ACAD_REACTORS
330
5FA
330
5FA
102
}
330
1F
100
AcDbEntity
  8
0
  6
Continuous
 62
     1
100
AcDbLine
 10
1373.718330904518
 20
-558.4947607691356
 30
0.0
 11
1382.718330904518
 21
-558.4947607691356
 31
0.0
  0
LINE
  5
51E
102
{ACAD_REACTORS
330
5FA
330
5FA
102
}
330
1F
100
AcDbEntity
  8
0
  6
Continuous
 62
     1
100
AcDbLine
 10
1370.718330904518
 20
-602.4947607691356
 30
0.0
 11
1370.718330904518
 21
-561.4947607691356
 31
0.0
  0
LINE
  5
51F
102
{ACAD_REACTORS
330
5FA
330
5FA
102
}
330
1F
100
AcDbEntity
  8
0
  6
Continuous
 62
     1
100
AcDbLine
 10
1406.650947904518
 20
-615.4947607691356
 30
0.0
 11
1406.650947904518
 21
-606.4947607691356
 31
0.0
  0
LINE
  5
520
102
{ACAD_REACTORS
330
5FA
330
5FA
102
}
330
1F
100
AcDbEntity
  8
0
  6
Continuous
 62
     1
100
AcDbLine
 10
1417.650947904518
 20
-618.4947607691356
 30
0.0
 11
1409.650947904518
 21
-618.4947607691356
 31
0.0
  0
LINE
  5
521
102
{ACAD_REACTORS
330
5FA
330
5FA
102
}
330
1F
100
AcDbEntity
  8
0
  6
Continuous
 62
     1
100
AcDbLine
 10
1417.650947904518
 20
-616.4947607691356
 30
0.0
 11
1417.650947904518
 21
-618.4947607691356
 31
0.0
  0
LINE
  5
522
102
{ACAD_REACTORS
330
5FA
330
5FA
102
}
330
1F
100
AcDbEntity
  8
0
  6
Continuous
 62
     1
100
AcDbLine
 10
1409.650947904518
 20
-616.4947607691356
 30
0.0
 11
1417.650947904518
 21
-616.4947607691356
 31
0.0
  0
LINE
  5
523
102
{ACAD_REACTORS
330
5FA
330
5FA
102
}
330
1F
100
AcDbEntity
  8
0
  6
Continuous
 62
     1
100
AcDbLine
 10
1408.650947904518
 20
-606.4947607691356
 30
0.0
 11
1408.650947904518
 21
-615.4947607691356
 31
0.0
  0
LINE
  5
524
330
1F
100
AcDbEntity
  8
0
  6
Continuous
 62
     1
100
AcDbLine
 10
1402.733223904518
 20
-611.4472757691356
 30
0.0
 11
1402.903511904518
 21
-611.3424167691355
 31
0.0
  0
LINE
  5
525
102
{ACAD_REACTORS
330
5FA
330
5FA
102
}
330
1F
100
AcDbEntity
  8
0
  6
Continuous
 62
     1
100
AcDbLine
 10
1373.718330904518
 20
-603.4947607691356
 30
0.0
 11
1396.159736904518
 21
-603.4947607691356
 31
0.0
  0
LINE
  5
526
102
{ACAD_REACTORS
330
5FA
330
5FA
102
}
330
1F
100
AcDbEntity
  8
0
  6
Continuous
 62
     1
100
AcDbLine
 10
1372.718330904518
 20
-561.4947607691356
 30
0.0
 11
1372.718330904518
 21
-602.4947607691356
 31
0.0
  0
LINE
  5
527
330
1F
100
AcDbEntity
  8
0
  6
Continuous
 62
     1
100
AcDbLine
 10
1219.718403904518
 20
-584.9946387691357
 30
0.0
 11
1222.120014904518
 21
-584.9946387691357
 31
0.0
  0
LINE
  5
528
330
1F
100
AcDbEntity
  8
0
  6
Continuous
 62
     1
100
AcDbLine
 10
1219.718403904518
 20
-581.9945167691358
 30
0.0
 11
1222.120197904518
 21
-581.9945167691358
 31
0.0
  0
LINE
  5
529
330
1F
100
AcDbEntity
  8
0
  6
Continuous
 62
     1
100
AcDbLine
 10
1417.650947904518
 20
-583.4947607691356
 30
0.0
 11
1402.718330904518
 21
-583.4947607691356
 31
0.0
  0
LINE
  5
52A
330
1F
100
AcDbEntity
  8
0
  6
DASH_CENTER
 62
     3
100
AcDbLine
 10
1417.650947904518
 20
-548.4947607691356
 30
0.0
 11
1417.650947904518
 21
-583.4947607691356
 31
0.0
  0
LINE
  5
52B
330
1F
100
AcDbEntity
  8
0
  6
DASH_CENTER
 62
     3
100
AcDbLine
 10
1402.718330904518
 20
-548.4947607691356
 30
0.0
 11
1417.650947904518
 21
-548.4947607691356
 31
0.0
  0
LINE
  5
52C
330
1F
100
AcDbEntity
  8
0
  6
Continuous
 62
     1
100
AcDbLine
 10
1402.718330904518
 20
-583.4947607691356
 30
0.0
 11
1402.718330904518
 21
-548.4947607691356
 31
0.0
  0
LINE
  5
52D
330
1F
100
AcDbEntity
  8
0
  6
Continuous
 62
     1
100
AcDbLine
 10
1384.718330904518
 20
-558.4947607691356
 30
0.0
 11
1384.718330904518
 21
-548.4947607691356
 31
0.0
  0
LINE
  5
52E
330
1F
100
AcDbEntity
  8
0
  6
Continuous
 62
     1
100
AcDbLine
 10
1382.718330904518
 20
-558.4947607691356
 30
0.0
 11
1384.718330904518
 21
-558.4947607691356
 31
0.0
  0
LINE
  5
52F
330
1F
100
AcDbEntity
  8
0
  6
Continuous
 62
     1
100
AcDbLine
 10
1382.718330904518
 20
-558.4947607691356
 30
0.0
 11
1382.718330904518
 21
-548.4947607691356
 31
0.0
  0
LINE
  5
530
330
1F
100
AcDbEntity
  8
0
  6
Continuous
 62
     3
100
AcDbLine
 10
1219.718403904518
 20
-540.4947607691356
 30
0.0
 11
1246.822163904518
 21
-540.4947607691356
 31
0.0
  0
LINE
  5
531
330
1F
100
AcDbEntity
  8
0
  6
Continuous
 62
     3
100
AcDbLine
 10
1249.718403904518
 20
-544.6695657691355
 30
0.0
 11
1246.822163904518
 21
-540.4947607691356
 31
0.0
  0
LINE
  5
532
330
1F
100
AcDbEntity
  8
0
  6
Continuous
 62
     3
100
AcDbLine
 10
1249.718403904518
 20
-544.6695657691355
 30
0.0
 11
1249.718403904518
 21
-595.4947607691356
 31
0.0
  0
LINE
  5
533
330
1F
100
AcDbEntity
  8
0
  6
Continuous
 62
     3
100
AcDbLine
 10
1251.405903904518
 20
-597.3573097691356
 30
0.0
 11
1249.718403904518
 21
-595.4947607691356
 31
0.0
  0
LINE
  5
534
330
1F
100
AcDbEntity
  8
0
  6
Continuous
 62
     3
100
AcDbLine
 10
1248.405903904518
 20
-598.7323097691356
 30
0.0
 11
1251.405903904518
 21
-597.3573097691356
 31
0.0
  0
LINE
  5
535
330
1F
100
AcDbEntity
  8
0
  6
Continuous
 62
     3
100
AcDbLine
 10
1251.780903904518
 20
-599.1073097691356
 30
0.0
 11
1248.405903904518
 21
-598.7323097691356
 31
0.0
  0
LINE
  5
536
330
1F
100
AcDbEntity
  8
0
  6
Continuous
 62
     3
100
AcDbLine
 10
1246.530903904518
 20
-601.8573097691356
 30
0.0
 11
1251.780903904518
 21
-599.1073097691356
 31
0.0
  0
LINE
  5
537
330
1F
100
AcDbEntity
  8
0
  6
Continuous
 62
     3
100
AcDbLine
 10
1252.905903904518
 20
-603.2323097691356
 30
0.0
 11
1246.530903904518
 21
-601.8573097691356
 31
0.0
  0
LINE
  5
538
330
1F
100
AcDbEntity
  8
0
  6
Continuous
 62
     3
100
AcDbLine
 10
1248.155903904518
 20
-604.4823097691356
 30
0.0
 11
1252.905903904518
 21
-603.2323097691356
 31
0.0
  0
LINE
  5
539
330
1F
100
AcDbEntity
  8
0
  6
Continuous
 62
     3
100
AcDbLine
 10
1251.030903904518
 20
-606.6073097691356
 30
0.0
 11
1248.155903904518
 21
-604.4823097691356
 31
0.0
  0
LINE
  5
53A
330
1F
100
AcDbEntity
  8
0
  6
Continuous
 62
     3
100
AcDbLine
 10
1248.155903904518
 20
-607.8573097691356
 30
0.0
 11
1251.030903904518
 21
-606.6073097691356
 31
0.0
  0
LINE
  5
53B
330
1F
100
AcDbEntity
  8
0
  6
Continuous
 62
     3
100
AcDbLine
 10
1251.030903904518
 20
-608.4823097691356
 30
0.0
 11
1248.155903904518
 21
-607.8573097691356
 31
0.0
  0
LINE
  5
53C
330
1F
100
AcDbEntity
  8
0
  6
Continuous
 62
     3
100
AcDbLine
 10
1248.155903904518
 20
-609.9823097691356
 30
0.0
 11
1251.030903904518
 21
-608.4823097691356
 31
0.0
  0
LINE
  5
53D
330
1F
100
AcDbEntity
  8
0
  6
Continuous
 62
     3
100
AcDbLine
 10
1251.155903904518
 20
-611.4823097691356
 30
0.0
 11
1248.155903904518
 21
-609.9823097691356
 31
0.0
  0
LINE
  5
53E
330
1F
100
AcDbEntity
  8
0
  6
Continuous
 62
     3
100
AcDbLine
 10
1247.780903904518
 20
-613.3573097691356
 30
0.0
 11
1251.155903904518
 21
-611.4823097691356
 31
0.0
  0
LINE
  5
53F
330
1F
100
AcDbEntity
  8
0
  6
Continuous
 62
     3
100
AcDbLine
 10
1251.155903904518
 20
-614.1073097691356
 30
0.0
 11
1247.780903904518
 21
-613.3573097691356
 31
0.0
  0
LINE
  5
540
330
1F
100
AcDbEntity
  8
0
  6
Continuous
 62
     3
100
AcDbLine
 10
1249.280903904518
 20
-615.2323097691356
 30
0.0
 11
1251.155903904518
 21
-614.1073097691356
 31
0.0
  0
LINE
  5
541
330
1F
100
AcDbEntity
  8
0
  6
Continuous
 62
     3
100
AcDbLine
 10
1252.655903904518
 20
-615.7323097691356
 30
0.0
 11
1249.280903904518
 21
-615.2323097691356
 31
0.0
  0
LINE
  5
542
330
1F
100
AcDbEntity
  8
0
  6
Continuous
 62
     3
100
AcDbLine
 10
1248.018330904518
 20
-618.4947607691356
 30
0.0
 11
1252.655903904518
 21
-615.7323097691356
 31
0.0
  0
LINE
  5
543
330
1F
100
AcDbEntity
  8
0
  6
Continuous
 62
     3
100
AcDbLine
 10
1218.155903904518
 20
-542.7323097691356
 30
0.0
 11
1219.718403904518
 21
-540.4947607691356
 31
0.0
  0
LINE
  5
544
330
1F
100
AcDbEntity
  8
0
  6
Continuous
 62
     3
100
AcDbLine
 10
1216.655903904518
 20
-540.3573097691356
 30
0.0
 11
1218.155903904518
 21
-542.7323097691356
 31
0.0
  0
LINE
  5
545
330
1F
100
AcDbEntity
  8
0
  6
Continuous
 62
     3
100
AcDbLine
 10
1215.155903904518
 20
-543.3573097691356
 30
0.0
 11
1216.655903904518
 21
-540.3573097691356
 31
0.0
  0
LINE
  5
546
330
1F
100
AcDbEntity
  8
0
  6
Continuous
 62
     3
100
AcDbLine
 10
1214.530903904518
 20
-541.8573097691356
 30
0.0
 11
1215.155903904518
 21
-543.3573097691356
 31
0.0
  0
LINE
  5
547
330
1F
100
AcDbEntity
  8
0
  6
Continuous
 62
     3
100
AcDbLine
 10
1213.030903904518
 20
-544.1073097691356
 30
0.0
 11
1214.530903904518
 21
-541.8573097691356
 31
0.0
  0
LINE
  5
548
330
1F
100
AcDbEntity
  8
0
  6
Continuous
 62
     3
100
AcDbLine
 10
1211.780903904518
 20
-540.4823097691356
 30
0.0
 11
1213.030903904518
 21
-544.1073097691356
 31
0.0
  0
LINE
  5
549
330
1F
100
AcDbEntity
  8
0
  6
Continuous
 62
     3
100
AcDbLine
 10
1210.655903904518
 20
-544.1073097691356
 30
0.0
 11
1211.780903904518
 21
-540.4823097691356
 31
0.0
  0
LINE
  5
54A
330
1F
100
AcDbEntity
  8
0
  6
Continuous
 62
     3
100
AcDbLine
 10
1210.030903904518
 20
-542.2323097691356
 30
0.0
 11
1210.655903904518
 21
-544.1073097691356
 31
0.0
  0
LINE
  5
54B
330
1F
100
AcDbEntity
  8
0
  6
Continuous
 62
     3
100
AcDbLine
 10
1208.905903904518
 20
-545.3573097691356
 30
0.0
 11
1210.030903904518
 21
-542.2323097691356
 31
0.0
  0
LINE
  5
54C
330
1F
100
AcDbEntity
  8
0
  6
Continuous
 62
     3
100
AcDbLine
 10
1206.718403904518
 20
-540.4947607691356
 30
0.0
 11
1208.905903904518
 21
-545.3573097691356
 31
0.0
  0
LINE
  5
54D
330
1F
100
AcDbEntity
  8
0
  6
Continuous
 62
     1
100
AcDbLine
 10
1249.718403904518
 20
-595.4947607691356
 30
0.0
 11
1219.718403904518
 21
-595.4947607691356
 31
0.0
  0
LINE
  5
54E
330
1F
100
AcDbEntity
  8
0
  6
Continuous
 62
     1
100
AcDbLine
 10
1219.718403904518
 20
-595.4947607691356
 30
0.0
 11
1219.718403904518
 21
-584.9946387691357
 31
0.0
  0
LINE
  5
54F
330
1F
100
AcDbEntity
  8
0
  6
Continuous
 62
     1
100
AcDbLine
 10
1219.718403904518
 20
-595.4947607691356
 30
0.0
 11
1219.718403904518
 21
-605.4947607691356
 31
0.0
  0
LINE
  5
550
330
1F
100
AcDbEntity
  8
0
  6
Continuous
 62
     1
100
AcDbLine
 10
1219.718403904518
 20
-605.4947607691356
 30
0.0
 11
1238.018330904518
 21
-605.4947607691356
 31
0.0
  0
LINE
  5
551
330
1F
100
AcDbEntity
  8
0
  6
Continuous
 62
     1
100
AcDbLine
 10
1206.718403904518
 20
-605.4947607691356
 30
0.0
 11
1219.718403904518
 21
-605.4947607691356
 31
0.0
  0
LINE
  5
552
330
1F
100
AcDbEntity
  8
0
  6
Continuous
 62
     1
100
AcDbLine
 10
1233.018330904518
 20
-618.4947607691356
 30
0.0
 11
1248.018330904518
 21
-618.4947607691356
 31
0.0
  0
LINE
  5
553
330
1F
100
AcDbEntity
  8
0
  6
Continuous
 62
     1
100
AcDbLine
 10
1233.018330904518
 20
-612.4947607691356
 30
0.0
 11
1233.018330904518
 21
-618.4947607691356
 31
0.0
  0
LINE
  5
554
330
1F
100
AcDbEntity
  8
0
  6
Continuous
 62
     1
100
AcDbLine
 10
1238.018330904518
 20
-612.4947607691356
 30
0.0
 11
1233.018330904518
 21
-612.4947607691356
 31
0.0
  0
LINE
  5
555
330
1F
100
AcDbEntity
  8
0
  6
Continuous
 62
     1
100
AcDbLine
 10
1238.018330904518
 20
-605.4947607691356
 30
0.0
 11
1238.018330904518
 21
-612.4947607691356
 31
0.0
  0
LINE
  5
556
330
1F
100
AcDbEntity
  8
0
  6
Continuous
 62
     1
100
AcDbLine
 10
1209.197102904518
 20
-580.9945167691358
 30
0.0
 11
1210.536823904518
 21
-585.9945167691357
 31
0.0
  0
LINE
  5
557
330
1F
100
AcDbEntity
  8
0
  6
Continuous
 62
     1
100
AcDbLine
 10
1211.785175904518
 20
-580.9942727691356
 30
0.0
 11
1213.124958904518
 21
-585.9945167691357
 31
0.0
  0
LINE
  5
558
330
1F
100
AcDbEntity
  8
0
  6
Continuous
 62
     1
100
AcDbLine
 10
1214.373432904518
 20
-580.9942727691356
 30
0.0
 11
1215.713215904518
 21
-585.9946387691357
 31
0.0
  0
LINE
  5
559
330
1F
100
AcDbEntity
  8
0
  6
Continuous
 62
     1
100
AcDbLine
 10
1216.961628904518
 20
-580.9942727691356
 30
0.0
 11
1218.301411904518
 21
-585.9946387691357
 31
0.0
  0
LINE
  5
55A
330
1F
100
AcDbEntity
  8
0
  6
Continuous
 62
     1
100
AcDbLine
 10
1219.549763904518
 20
-580.9943947691356
 30
0.0
 11
1220.889485904518
 21
-585.9946387691357
 31
0.0
  0
LINE
  5
55B
330
1F
100
AcDbEntity
  8
0
  6
Continuous
 62
     1
100
AcDbLine
 10
1222.137959904518
 20
-580.9945167691358
 30
0.0
 11
1223.477741904518
 21
-585.9946387691357
 31
0.0
  0
LINE
  5
55C
330
1F
100
AcDbEntity
  8
0
  6
Continuous
 62
     1
100
AcDbLine
 10
1224.718403904518
 20
-583.4946387691357
 30
0.0
 11
1222.120014904518
 21
-584.9946387691357
 31
0.0
  0
LINE
  5
55D
330
1F
100
AcDbEntity
  8
0
  6
Continuous
 62
     1
100
AcDbLine
 10
1224.718403904518
 20
-583.4946387691357
 30
0.0
 11
1222.120197904518
 21
-581.9945167691358
 31
0.0
  0
LINE
  5
55E
102
{ACAD_REACTORS
330
5FC
330
5FC
102
}
330
1F
100
AcDbEntity
  8
0
  6
DASH_CENTER
 62
     3
100
AcDbLine
 10
1218.019217727738
 20
-690.9947607691356
 30
0.0
 11
1228.018330904518
 21
-690.9947607691356
 31
0.0
  0
LINE
  5
55F
330
1F
100
AcDbEntity
  8
0
  6
DASH_CENTER
 62
     3
100
AcDbLine
 10
1228.018330904518
 20
-690.9947607691356
 30
0.0
 11
1233.018330904518
 21
-690.9947607691356
 31
0.0
  0
LINE
  5
560
102
{ACAD_REACTORS
330
5FD
330
5FD
102
}
330
1F
100
AcDbEntity
  8
0
  6
DASH_CENTER
 62
     3
100
AcDbLine
 10
1382.519217727738
 20
-690.9947607691356
 30
0.0
 11
1392.518330904518
 21
-690.9947607691356
 31
0.0
  0
LINE
  5
561
102
{ACAD_REACTORS
330
5FD
330
5FD
102
}
330
1F
100
AcDbEntity
  8
0
  6
Continuous
 62
     1
100
AcDbLine
 10
1382.519217727738
 20
-690.9947607691356
 30
0.0
 11
1382.518330904518
 21
-611.9947607691357
 31
0.0
  0
LINE
  5
562
102
{ACAD_REACTORS
330
5FD
330
5FD
102
}
330
1F
100
AcDbEntity
  8
0
  6
Continuous
 62
     1
100
AcDbLine
 10
1382.518330904518
 20
-611.9947607691357
 30
0.0
 11
1384.018330904518
 21
-610.4947607691356
 31
0.0
  0
LINE
  5
563
102
{ACAD_REACTORS
330
5FD
330
5FD
102
}
330
1F
100
AcDbEntity
  8
0
  6
Continuous
 62
     1
100
AcDbLine
 10
1384.018330904518
 20
-610.4947607691356
 30
0.0
 11
1391.018330904518
 21
-610.4947607691356
 31
0.0
  0
LINE
  5
564
102
{ACAD_REACTORS
330
5FD
330
5FD
102
}
330
1F
100
AcDbEntity
  8
0
  6
Continuous
 62
     1
100
AcDbLine
 10
1391.018330904518
 20
-610.4947607691356
 30
0.0
 11
1392.518330904518
 21
-611.9947607691357
 31
0.0
  0
LINE
  5
565
102
{ACAD_REACTORS
330
5FD
330
5FD
102
}
330
1F
100
AcDbEntity
  8
0
  6
Continuous
 62
     1
100
AcDbLine
 10
1392.518330904518
 20
-611.9947607691357
 30
0.0
 11
1392.518330904518
 21
-690.9947607691356
 31
0.0
  0
LINE
  5
566
330
1F
100
AcDbEntity
  8
0
  6
DASH_CENTER
 62
     3
100
AcDbLine
 10
1377.518330904518
 20
-690.9947607691356
 30
0.0
 11
1382.519217727738
 21
-690.9947607691356
 31
0.0
  0
LINE
  5
567
330
1F
100
AcDbEntity
  8
0
  6
DASH_CENTER
 62
     3
100
AcDbLine
 10
1392.518330904518
 20
-690.9947607691356
 30
0.0
 11
1397.518330904518
 21
-690.9947607691356
 31
0.0
  0
LINE
  5
568
330
1F
100
AcDbEntity
  8
0
  6
Continuous
 62
     1
100
AcDbLine
 10
1206.718403904518
 20
-605.4947607691356
 30
0.0
 11
1206.718403904518
 21
-584.9946387691357
 31
0.0
  0
LINE
  5
569
330
1F
100
AcDbEntity
  8
0
  6
Continuous
 62
     1
100
AcDbLine
 10
1219.718403904518
 20
-581.9945167691358
 30
0.0
 11
1219.718403904518
 21
-540.4947607691356
 31
0.0
  0
ARC
  5
56A
102
{ACAD_REACTORS
330
5FA
330
5FA
102
}
330
1F
100
AcDbEntity
  8
0
  6
Continuous
 62
     1
100
AcDbCircle
 10
1373.718330904518
 20
-561.4947607691356
 30
0.0
 40
1.0
100
AcDbArc
 50
90.0
 51
180.0
  0
ARC
  5
56B
102
{ACAD_REACTORS
330
5FA
330
5FA
102
}
330
1F
100
AcDbEntity
  8
0
  6
Continuous
 62
     1
100
AcDbCircle
 10
1373.718330904518
 20
-561.4947607691356
 30
0.0
 40
3.0
100
AcDbArc
 50
90.0
 51
180.0
  0
ARC
  5
56C
102
{ACAD_REACTORS
330
5FA
330
5FA
102
}
330
1F
100
AcDbEntity
  8
0
  6
Continuous
 62
     1
100
AcDbCircle
 10
1373.718330904518
 20
-602.4947607691356
 30
0.0
 40
3.0
100
AcDbArc
 50
180.0
 51
-90.0
  0
ARC
  5
56D
102
{ACAD_REACTORS
330
5FA
330
5FA
102
}
330
1F
100
AcDbEntity
  8
0
  6
Continuous
 62
     1
100
AcDbCircle
 10
1396.159614904518
 20
-606.4947607691356
 30
0.0
 40
0.9999800000002873
100
AcDbArc
 50
31.62949599999218
 51
90.0
  0
ARC
  5
56E
102
{ACAD_REACTORS
330
5FA
330
5FA
102
}
330
1F
100
AcDbEntity
  8
0
  6
Continuous
 62
     1
100
AcDbCircle
 10
1402.818412126305
 20
-611.3947585243009
 30
0.0
 40
2.099972999755775
100
AcDbArc
 50
-148.3739519999897
 51
31.6260479999947
  0
ARC
  5
56F
102
{ACAD_REACTORS
330
5FA
330
5FA
102
}
330
1F
100
AcDbEntity
  8
0
  6
Continuous
 62
     1
100
AcDbCircle
 10
1403.440986904518
 20
-606.4947607691356
 30
0.0
 40
1.000000000000054
100
AcDbArc
 50
89.98601200001917
 51
-148.3668350000004
  0
ARC
  5
570
102
{ACAD_REACTORS
330
5FA
330
5FA
102
}
330
1F
100
AcDbEntity
  8
0
  6
Continuous
 62
     1
100
AcDbCircle
 10
1405.650947904518
 20
-606.4947607691356
 30
0.0
 40
1.0
100
AcDbArc
 50
0.0
 51
90.0
  0
ARC
  5
571
102
{ACAD_REACTORS
330
5FA
330
5FA
102
}
330
1F
100
AcDbEntity
  8
0
  6
Continuous
 62
     1
100
AcDbCircle
 10
1409.650947904518
 20
-615.4947607691356
 30
0.0
 40
3.0
100
AcDbArc
 50
180.0
 51
-90.0
  0
ARC
  5
572
102
{ACAD_REACTORS
330
5FA
330
5FA
102
}
330
1F
100
AcDbEntity
  8
0
  6
Continuous
 62
     1
100
AcDbCircle
 10
1409.650947904518
 20
-615.4947607691356
 30
0.0
 40
1.0
100
AcDbArc
 50
180.0
 51
-90.0
  0
ARC
  5
573
102
{ACAD_REACTORS
330
5FA
330
5FA
102
}
330
1F
100
AcDbEntity
  8
0
  6
Continuous
 62
     1
100
AcDbCircle
 10
1405.650947904518
 20
-606.4947607691356
 30
0.0
 40
3.0
100
AcDbArc
 50
0.0
 51
90.0
  0
ARC
  5
574
102
{ACAD_REACTORS
330
5FA
330
5FA
102
}
330
1F
100
AcDbEntity
  8
0
  6
Continuous
 62
     1
100
AcDbCircle
 10
1403.440986904518
 20
-606.4947607691356
 30
0.0
 40
3.000045
100
AcDbArc
 50
90.0
 51
-148.3717260000007
  0
ARC
  5
575
102
{ACAD_REACTORS
330
5FA
330
5FA
102
}
330
1F
100
AcDbEntity
  8
0
  6
Continuous
 62
     1
100
AcDbCircle
 10
1396.159736904518
 20
-606.4945167691355
 30
0.0
 40
2.99975600000035
100
AcDbArc
 50
31.62873399999615
 51
90.0
  0
ARC
  5
576
102
{ACAD_REACTORS
330
5FA
330
5FA
102
}
330
1F
100
AcDbEntity
  8
0
  6
Continuous
 62
     1
100
AcDbCircle
 10
1373.718330904518
 20
-602.4947607691356
 30
0.0
 40
1.0
100
AcDbArc
 50
180.0
 51
-90.0
  0
LWPOLYLINE
  5
57E
330
1F
100
AcDbEntity
  8
1
  6
Continuous
 62
     1
 60
     1
100
AcDbPolyline
 90
        5
 70
     0
 43
0.0
 10
1222.120014904518
 20
-587.1947607691357
 10
1219.718403904518
 20
-584.3654267977365
 10
1219.718403904518
 20
-588.4786439332736
 10
1219.718403904518
 20
-595.1947607691357
 10
1249.718403904518
 20
-595.1947607691357
  0
LWPOLYLINE
  5
57F
330
1F
100
AcDbEntity
  8
1
  6
Continuous
 62
     1
 60
     1
100
AcDbPolyline
 90
        3
 70
     0
 43
0.0
 10
1219.718403904518
 20
-540.1947607691357
 10
1219.718403904518
 20
-584.1946387691356
 10
1222.120197904518
 20
-584.1946387691356
  0
DIMENSION
  5
58B
330
1F
100
AcDbEntity
  8
1
100
AcDbDimension
  2
*D18
 10
1262.23468564604
 20
-610.4947607691356
 30
0.0
 11
1258.48468564604
 21
-597.196303547256
 31
0.0
 70
    32
  1
<>
 71
     5
 42
-1.0
 53
90.0
  3
ME10_DIM_19
100
AcDbAlignedDimension
 13
1229.818794904518
 23
-583.4947607691356
 33
0.0
 14
1226.518330904518
 24
-610.4947607691356
 34
0.0
 50
90.0
100
AcDbRotatedDimension
  0
DIMENSION
  5
597
330
1F
100
AcDbEntity
  8
1
100
AcDbDimension
  2
*D19
 10
1218.019217727737
 20
-700.2380080712187
 30
0.0
 11
1238.60293452095
 21
-696.4442580712187
 31
0.0
 70
    32
  1
<>
 71
     5
 42
-1.0
 53
0.00013888888889
  3
ME10_DIM_20
100
AcDbAlignedDimension
 13
1228.018330904518
 23
-690.9947607691356
 33
0.0
 14
1218.019217727738
 24
-690.9947607691356
 34
0.0
100
AcDbRotatedDimension
  0
DIMENSION
  5
5A3
330
1F
100
AcDbEntity
  8
1
100
AcDbDimension
  2
*D20
 10
1382.519217727738
 20
-700.9806525412197
 30
0.0
 11
1402.857417855552
 21
-697.1869025412196
 31
0.0
 70
    32
  1
<>
 71
     5
 42
-1.0
 53
0.00013888888889
  3
ME10_DIM_21
100
AcDbAlignedDimension
 13
1392.518330904518
 23
-690.9947607691356
 33
0.0
 14
1382.519217727738
 24
-690.9947607691356
 34
0.0
100
AcDbRotatedDimension
  0
DIMENSION
  5
5AE
330
1F
100
AcDbEntity
  8
1
100
AcDbDimension
  2
*D21
 10
1150.30280292995
 20
-606.4947607691356
 30
0.0
 11
1146.55280292995
 21
-588.763716064154
 31
0.0
 70
    32
  1
<>
 71
     5
 42
-1.0
 53
-90.0
  3
ME10_DIM_22
100
AcDbAlignedDimension
 13
1177.718330904518
 23
-572.9946997691359
 33
0.0
 14
1211.218330904518
 24
-606.4947607691356
 34
0.0
 50
-90.0
100
AcDbRotatedDimension
  0
DIMENSION
  5
5B9
330
1F
100
AcDbEntity
  8
1
100
AcDbDimension
  2
*D22
 10
1141.89459398814
 20
-606.4947607691356
 30
0.0
 11
1138.14459398814
 21
-583.751129964225
 31
0.0
 70
    32
  1
<>
 71
     5
 42
-1.0
 53
-90.0
  3
ME10_DIM_23
100
AcDbAlignedDimension
 13
1161.932104275919
 23
-561.4947607691402
 33
0.0
 14
1211.218330904518
 24
-606.4947607691356
 34
0.0
 50
-90.0
100
AcDbRotatedDimension
  0
DIMENSION
  5
5C4
330
1F
100
AcDbEntity
  8
1
100
AcDbDimension
  2
*D23
 10
1448.59378865183
 20
-610.4947607691356
 30
0.0
 11
1444.84378865183
 21
-596.706383021671
 31
0.0
 70
    32
  1
<>
 71
     5
 42
-1.0
 53
90.0
  3
ME10_DIM_24
100
AcDbAlignedDimension
 13
1393.818794904518
 23
-583.4947607691356
 33
0.0
 14
1391.018330904518
 24
-610.4947607691356
 34
0.0
 50
90.0
100
AcDbRotatedDimension
  0
DIMENSION
  5
5CF
330
1F
100
AcDbEntity
  8
1
100
AcDbDimension
  2
*D24
 10
1313.77343237281
 20
-606.4947607691356
 30
0.0
 11
1310.02343237281
 21
-589.568004628447
 31
0.0
 70
    32
  1
<>
 71
     5
 42
-1.0
 53
90.0
  3
ME10_DIM_25
100
AcDbAlignedDimension
 13
1341.718330904518
 23
-572.9946997691359
 33
0.0
 14
1375.718330904518
 24
-606.4947607691356
 34
0.0
 50
90.0
100
AcDbRotatedDimension
  0
DIMENSION
  5
5DA
330
1F
100
AcDbEntity
  8
1
100
AcDbDimension
  2
*D25
 10
1305.10908856091
 20
-606.4947607691356
 30
0.0
 11
1301.35908856091
 21
-582.672477783807
 31
0.0
 70
    32
  1
<>
 71
     5
 42
-1.0
 53
90.0
  3
ME10_DIM_26
100
AcDbAlignedDimension
 13
1370.718330904518
 23
-561.4947607691356
 33
0.0
 14
1375.718330904518
 24
-606.4947607691356
 34
0.0
 50
90.0
100
AcDbRotatedDimension
  0
DIMENSION
  5
5E5
330
1F
100
AcDbEntity
  8
1
100
AcDbDimension
  2
*D26
 10
1141.89459398814
 20
-606.4947607691356
 30
0.0
 11
1138.14459398814
 21
-638.11126423431
 31
0.0
 70
    32
  1
67
 71
     5
 42
-1.0
 53
-90.0
  3
ME10_DIM_27
100
AcDbAlignedDimension
 13
1169.278268069262
 23
-673.2447607691356
 33
0.0
 14
1211.218330904518
 24
-606.4947607691356
 34
0.0
 50
-90.0
100
AcDbRotatedDimension
  0
DIMENSION
  5
5F0
330
1F
100
AcDbEntity
  8
1
100
AcDbDimension
  2
*D27
 10
1305.10908856091
 20
-606.4947607691356
 30
0.0
 11
1301.35908856091
 21
-638.275248240612
 31
0.0
 70
    32
  1
67
 71
     5
 42
-1.0
 53
-90.0
  3
ME10_DIM_28
100
AcDbAlignedDimension
 13
1333.778268069262
 23
-673.2447607691356
 33
0.0
 14
1375.718330904518
 24
-606.4947607691356
 34
0.0
 50
-90.0
100
AcDbRotatedDimension
  0
HATCH
  5
5F1
330
1F
100
AcDbEntity
  8
1
  6
Continuous
 62
     3
100
AcDbHatch
 10
0.0
 20
0.0
 30
0.0
210
0.0
220
0.0
230
1.0
  2
_USER
 70
     0
 71
     0
 91
        1
 92
        1
 93
       10
 72
     1
 10
1219.718403904518
 20
-540.4947607691356
 11
1219.718403904518
 21
-581.9945167691358
 72
     1
 10
1219.718403904518
 20
-581.9945167691358
 11
1222.120197904518
 21
-581.9945167691358
 72
     1
 10
1222.120197904518
 20
-581.9945167691358
 11
1224.718403904518
 21
-583.4946387691357
 72
     1
 10
1224.718403904518
 20
-583.4946387691357
 11
1222.120014904518
 21
-584.9946387691357
 72
     1
 10
1222.120014904518
 20
-584.9946387691357
 11
1219.718403904518
 21
-584.9946387691357
 72
     1
 10
1219.718403904518
 20
-584.9946387691357
 11
1219.718403904518
 21
-595.4947607691356
 72
     1
 10
1219.718403904518
 20
-595.4947607691356
 11
1249.718403904518
 21
-595.4947607691356
 72
     1
 10
1249.718403904518
 20
-595.4947607691356
 11
1249.718403904518
 21
-544.6695657691355
 72
     1
 10
1249.718403904518
 20
-544.6695657691355
 11
1246.822163904518
 21
-540.4947607691356
 72
     1
 10
1246.822163904518
 20
-540.4947607691356
 11
1219.718403904518
 21
-540.4947607691356
 97
        0
 75
     1
 76
     0
 52
45.0
 41
5.0
 77
     0
 78
     1
 53
45.0
 43
0.0
 44
0.0
 45
-3.535533905932737
 46
3.535533905932738
 79
     0
 98
        1
 10
0.0
 20
0.0
  0
HATCH
  5
5F2
330
1F
100
AcDbEntity
  8
1
  6
Continuous
 62
     3
100
AcDbHatch
 10
0.0
 20
0.0
 30
0.0
210
0.0
220
0.0
230
1.0
  2
CUSTOM0
 70
     0
 71
     1
 91
        1
 92
        1
 93
        4
 72
     1
 10
1392.518330904518
 20
-671.9947607691356
 11
1393.718330904518
 21
-671.9947607691356
 72
     1
 10
1393.718330904518
 20
-671.9947607691356
 11
1393.718330904518
 21
-608.9947607691356
 72
     1
 10
1393.718330904518
 20
-608.9947607691356
 11
1392.518330904518
 21
-608.9947607691356
 72
     1
 10
1392.518330904518
 20
-608.9947607691356
 11
1392.518330904518
 21
-671.9947607691356
 97
        4
330
4CB
330
4CC
330
4C9
330
4CA
 75
     1
 76
     2
 52
45.0
 41
0.8
 77
     0
 78
     2
 53
45.0
 43
0.0
 44
0.0
 45
-1.131370849898476
 46
0.0000000000000001
 79
     0
 53
135.0
 43
0.0
 44
0.0
 45
0.0000000000000004
 46
-1.131370849898476
 79
     0
 98
        1
 10
0.0
 20
0.0
  0
HATCH
  5
5F3
330
1F
100
AcDbEntity
  8
1
  6
Continuous
 62
     3
100
AcDbHatch
 10
0.0
 20
0.0
 30
0.0
210
0.0
220
0.0
230
1.0
  2
_USER
 70
     0
 71
     1
 91
        1
 92
        1
 93
       11
 72
     1
 10
1381.718330904518
 20
-628.0947648470728
 11
1381.718330904518
 21
-673.4947607691356
 72
     1
 10
1381.718330904518
 20
-673.4947607691356
 11
1375.718330904518
 21
-673.4947607691356
 72
     1
 10
1375.718330904518
 20
-673.4947607691356
 11
1375.718330904518
 21
-669.4947607691356
 72
     1
 10
1375.718330904518
 20
-669.4947607691356
 11
1375.218330904518
 21
-669.4947607691356
 72
     1
 10
1375.218330904518
 20
-669.4947607691356
 11
1375.218330904518
 21
-661.4947607691356
 72
     1
 10
1375.218330904518
 20
-661.4947607691356
 11
1375.718330904518
 21
-661.4947607691356
 72
     1
 10
1375.718330904518
 20
-661.4947607691356
 11
1375.718330904518
 21
-627.9947607691356
 72
     1
 10
1375.718330904518
 20
-627.9947607691356
 11
1376.318334982456
 21
-627.9947607691356
 72
     1
 10
1376.318334982456
 20
-627.9947607691356
 11
1376.818334982456
 21
-628.4947607691356
 72
     1
 10
1376.818334982456
 20
-628.4947607691356
 11
1381.318334982453
 21
-628.4947607691356
 72
     1
 10
1381.318334982453
 20
-628.4947607691356
 11
1381.718330904518
 21
-628.0947648470728
 97
       11
330
4AA
330
4C4
330
4CF
330
4D0
330
4B7
330
4B8
330
4B9
330
4BA
330
4BB
330
4D2
330
4C3
 75
     1
 76
     0
 52
-45.0
 41
3.0
 77
     0
 78
     1
 53
-45.0
 43
0.0
 44
0.0
 45
2.121320343559642
 46
2.121320343559643
 79
     0
 98
        1
 10
0.0
 20
0.0
  0
HATCH
  5
5F4
330
1F
100
AcDbEntity
  8
1
  6
Continuous
 62
     3
100
AcDbHatch
 10
0.0
 20
0.0
 30
0.0
210
0.0
220
0.0
230
1.0
  2
CUSTOM1
 70
     0
 71
     1
 91
        1
 92
        1
 93
        4
 72
     1
 10
1381.718330904518
 20
-610.1947607691357
 11
1391.718330904518
 21
-610.1947607691357
 72
     1
 10
1391.718330904518
 20
-610.1947607691357
 11
1391.718330904518
 21
-608.9947607691356
 72
     1
 10
1391.718330904518
 20
-608.9947607691356
 11
1381.718330904518
 21
-608.9947607691356
 72
     1
 10
1381.718330904518
 20
-608.9947607691356
 11
1381.718330904518
 21
-610.1947607691357
 97
        4
330
4D5
330
4D6
330
4D3
330
4D4
 75
     1
 76
     2
 52
45.0
 41
0.8
 77
     0
 78
     2
 53
45.0
 43
0.0
 44
0.0
 45
-1.131370849898476
 46
0.0000000000000001
 79
     0
 53
135.0
 43
0.0
 44
0.0
 45
0.0000000000000004
 46
-1.131370849898476
 79
     0
 98
        1
 10
0.0
 20
0.0
  0
HATCH
  5
5F5
330
1F
100
AcDbEntity
  8
1
  6
Continuous
 62
     3
100
AcDbHatch
 10
0.0
 20
0.0
 30
0.0
210
0.0
220
0.0
230
1.0
  2
_USER
 70
     0
 71
     0
 91
        1
 92
        1
 93
       12
 72
     1
 10
1393.718330904518
 20
-671.9947607691356
 11
1393.718330904518
 21
-608.9947607691356
 72
     1
 10
1393.718330904518
 20
-608.9947607691356
 11
1381.718330904518
 21
-608.9947607691356
 72
     1
 10
1381.718330904518
 20
-608.9947607691356
 11
1381.718330904518
 21
-610.8947566911978
 72
     1
 10
1381.718330904518
 20
-610.8947566911978
 11
1381.318334982456
 21
-610.4947607691356
 72
     1
 10
1381.318334982456
 20
-610.4947607691356
 11
1376.818334982456
 21
-610.4947607691356
 72
     1
 10
1376.818334982456
 20
-610.4947607691356
 11
1376.318334982456
 21
-610.9947607691356
 72
     1
 10
1376.318334982456
 20
-610.9947607691356
 11
1375.718330904518
 21
-610.9947607691356
 72
     1
 10
1375.718330904518
 20
-610.9947607691356
 11
1375.718330904518
 21
-606.4947607691356
 72
     1
 10
1375.718330904518
 20
-606.4947607691356
 11
1396.218330904518
 21
-606.4947607691356
 72
     1
 10
1396.218330904518
 20
-606.4947607691356
 11
1396.218330904518
 21
-673.4947607691356
 72
     1
 10
1396.218330904518
 20
-673.4947607691356
 11
1393.718330904518
 21
-673.4947607691356
 72
     1
 10
1393.718330904518
 20
-673.4947607691356
 11
1393.718330904518
 21
-671.9947607691356
 97
        0
 75
     1
 76
     0
 52
-45.0
 41
3.0
 77
     0
 78
     1
 53
-45.0
 43
0.0
 44
0.0
 45
2.121320343559642
 46
2.121320343559643
 79
     0
 98
        1
 10
0.0
 20
0.0
  0
HATCH
  5
5F6
330
1F
100
AcDbEntity
  8
1
  6
Continuous
 62
     3
100
AcDbHatch
 10
0.0
 20
0.0
 30
0.0
210
0.0
220
0.0
230
1.0
  2
_USER
 70
     0
 71
     1
 91
        1
 92
        1
 93
       11
 72
     1
 10
1217.218330904518
 20
-628.0947648470728
 11
1217.218330904518
 21
-673.4947607691356
 72
     1
 10
1217.218330904518
 20
-673.4947607691356
 11
1211.218330904518
 21
-673.4947607691356
 72
     1
 10
1211.218330904518
 20
-673.4947607691356
 11
1211.218330904518
 21
-669.4947607691356
 72
     1
 10
1211.218330904518
 20
-669.4947607691356
 11
1210.718330904518
 21
-669.4947607691356
 72
     1
 10
1210.718330904518
 20
-669.4947607691356
 11
1210.718330904518
 21
-661.4947607691356
 72
     1
 10
1210.718330904518
 20
-661.4947607691356
 11
1211.218330904518
 21
-661.4947607691356
 72
     1
 10
1211.218330904518
 20
-661.4947607691356
 11
1211.218330904518
 21
-627.9947607691356
 72
     1
 10
1211.218330904518
 20
-627.9947607691356
 11
1211.818334982456
 21
-627.9947607691356
 72
     1
 10
1211.818334982456
 20
-627.9947607691356
 11
1212.318334982456
 21
-628.4947607691356
 72
     1
 10
1212.318334982456
 20
-628.4947607691356
 11
1216.818334982453
 21
-628.4947607691356
 72
     1
 10
1216.818334982453
 20
-628.4947607691356
 11
1217.218330904518
 21
-628.0947648470728
 97
       11
330
4DC
330
4F9
330
504
330
505
330
4ED
330
4E2
330
4EE
330
4EF
330
4F0
330
4E3
330
4F8
 75
     1
 76
     0
 52
45.0
 41
3.0
 77
     0
 78
     1
 53
45.0
 43
0.0
 44
0.0
 45
-2.121320343559642
 46
2.121320343559643
 79
     0
 98
        1
 10
0.0
 20
0.0
  0
HATCH
  5
5F7
330
1F
100
AcDbEntity
  8
1
  6
Continuous
 62
     3
100
AcDbHatch
 10
0.0
 20
0.0
 30
0.0
210
0.0
220
0.0
230
1.0
  2
_USER
 70
     0
 71
     0
 91
        1
 92
        1
 93
       12
 72
     1
 10
1229.218330904518
 20
-671.9947607691356
 11
1229.218330904518
 21
-608.9947607691356
 72
     1
 10
1229.218330904518
 20
-608.9947607691356
 11
1217.218330904518
 21
-608.9947607691356
 72
     1
 10
1217.218330904518
 20
-608.9947607691356
 11
1217.218330904518
 21
-610.8947566911978
 72
     1
 10
1217.218330904518
 20
-610.8947566911978
 11
1216.818334982456
 21
-610.4947607691356
 72
     1
 10
1216.818334982456
 20
-610.4947607691356
 11
1212.318334982456
 21
-610.4947607691356
 72
     1
 10
1212.318334982456
 20
-610.4947607691356
 11
1211.818334982456
 21
-610.9947607691356
 72
     1
 10
1211.818334982456
 20
-610.9947607691356
 11
1211.218330904518
 21
-610.9947607691356
 72
     1
 10
1211.218330904518
 20
-610.9947607691356
 11
1211.218330904518
 21
-606.4947607691356
 72
     1
 10
1211.218330904518
 20
-606.4947607691356
 11
1231.718330904518
 21
-606.4947607691356
 72
     1
 10
1231.718330904518
 20
-606.4947607691356
 11
1231.718330904518
 21
-673.4947607691356
 72
     1
 10
1231.718330904518
 20
-673.4947607691356
 11
1229.218330904518
 21
-673.4947607691356
 72
     1
 10
1229.218330904518
 20
-673.4947607691356
 11
1229.218330904518
 21
-671.9947607691356
 97
        0
 75
     1
 76
     0
 52
45.0
 41
3.0
 77
     0
 78
     1
 53
45.0
 43
0.0
 44
0.0
 45
-2.121320343559642
 46
2.121320343559643
 79
     0
 98
        1
 10
0.0
 20
0.0
  0
HATCH
  5
5F8
330
1F
100
AcDbEntity
  8
1
  6
Continuous
 62
     3
100
AcDbHatch
 10
0.0
 20
0.0
 30
0.0
210
0.0
220
0.0
230
1.0
  2
CUSTOM2
 70
     0
 71
     1
 91
        1
 92
        1
 93
        4
 72
     1
 10
1217.218330904518
 20
-610.1947607691357
 11
1227.218330904518
 21
-610.1947607691357
 72
     1
 10
1227.218330904518
 20
-610.1947607691357
 11
1227.218330904518
 21
-608.9947607691356
 72
     1
 10
1227.218330904518
 20
-608.9947607691356
 11
1217.218330904518
 21
-608.9947607691356
 72
     1
 10
1217.218330904518
 20
-608.9947607691356
 11
1217.218330904518
 21
-610.1947607691357
 97
        4
330
509
330
50A
330
507
330
508
 75
     1
 76
     2
 52
45.0
 41
0.8
 77
     0
 78
     2
 53
45.0
 43
0.0
 44
0.0
 45
-1.131370849898476
 46
0.0000000000000001
 79
     0
 53
135.0
 43
0.0
 44
0.0
 45
0.0000000000000004
 46
-1.131370849898476
 79
     0
 98
        1
 10
0.0
 20
0.0
  0
HATCH
  5
5F9
330
1F
100
AcDbEntity
  8
1
  6
Continuous
 62
     3
100
AcDbHatch
 10
0.0
 20
0.0
 30
0.0
210
0.0
220
0.0
230
1.0
  2
CUSTOM3
 70
     0
 71
     1
 91
        1
 92
        1
 93
        4
 72
     1
 10
1228.018330904518
 20
-671.9947607691356
 11
1229.218330904518
 21
-671.9947607691356
 72
     1
 10
1229.218330904518
 20
-671.9947607691356
 11
1229.218330904518
 21
-608.9947607691356
 72
     1
 10
1229.218330904518
 20
-608.9947607691356
 11
1228.018330904518
 21
-608.9947607691356
 72
     1
 10
1228.018330904518
 20
-608.9947607691356
 11
1228.018330904518
 21
-671.9947607691356
 97
        4
330
500
330
501
330
4FE
330
4FF
 75
     1
 76
     2
 52
45.0
 41
0.8
 77
     0
 78
     2
 53
45.0
 43
0.0
 44
0.0
 45
-1.131370849898476
 46
0.0000000000000001
 79
     0
 53
135.0
 43
0.0
 44
0.0
 45
0.0000000000000004
 46
-1.131370849898476
 79
     0
 98
        1
 10
0.0
 20
0.0
  0
HATCH
  5
5FA
330
1F
100
AcDbEntity
  8
1
  6
Continuous
 62
     3
100
AcDbHatch
 10
0.0
 20
0.0
 30
0.0
210
0.0
220
0.0
230
1.0
  2
_USER
 70
     0
 71
     1
 91
        1
 92
        1
 93
       31
 72
     1
 10
1408.650947904518
 20
-606.4947607691356
 11
1408.650947904518
 21
-615.4947607691356
 72
     2
 10
1409.650947904518
 20
-615.4947607691356
 40
1.0
 50
180.0
 51
270.0
 73
     1
 72
     1
 10
1409.650947904518
 20
-616.4947607691356
 11
1417.650947904518
 21
-616.4947607691356
 72
     1
 10
1417.650947904518
 20
-616.4947607691356
 11
1417.650947904518
 21
-618.4947607691356
 72
     1
 10
1417.650947904518
 20
-618.4947607691356
 11
1409.650947904518
 21
-618.4947607691356
 72
     2
 10
1409.650947904518
 20
-615.4947607691356
 40
3.0
 50
90.0
 51
180.0
 73
     0
 72
     1
 10
1406.650947904518
 20
-615.4947607691356
 11
1406.650947904518
 21
-606.4947607691356
 72
     2
 10
1405.650947904518
 20
-606.4947607691356
 40
1.0
 50
0.0
 51
90.0
 73
     1
 72
     1
 10
1405.650947904518
 20
-605.4947607691356
 11
1403.441231041171
 21
-605.4947607989369
 72
     2
 10
1403.440986904518
 20
-606.4947607691356
 40
1.000000000000054
 50
89.98601200001917
 51
211.6331649999996
 73
     1
 72
     1
 10
1402.589563416233
 20
-607.0192395995917
 11
1404.60651525869
 21
-610.2935892422823
 72
     2
 10
1402.818412126305
 20
-611.3947585243009
 40
2.099972999755775
 50
328.3739520000053
 51
508.3739519999896
 73
     0
 72
     1
 10
1401.030308993921
 20
-612.4959278063195
 11
1397.011054947511
 21
-605.9703469501063
 72
     2
 10
1396.159614904518
 20
-606.4947607691356
 40
0.9999800000002873
 50
31.62949599999218
 51
90.0
 73
     1
 72
     1
 10
1396.159614904518
 20
-605.4947807691356
 11
1373.718330904518
 21
-605.4947607691356
 72
     2
 10
1373.718330904518
 20
-602.4947607691356
 40
3.0
 50
90.0
 51
180.0
 73
     0
 72
     1
 10
1370.718330904518
 20
-602.4947607691356
 11
1370.718330904518
 21
-561.4947607691356
 72
     2
 10
1373.718330904518
 20
-561.4947607691356
 40
3.0
 50
180.0
 51
270.0
 73
     0
 72
     1
 10
1373.718330904518
 20
-558.4947607691356
 11
1382.718330904518
 21
-558.4947607691356
 72
     1
 10
1382.718330904518
 20
-558.4947607691356
 11
1382.718330904518
 21
-560.4947607691356
 72
     1
 10
1382.718330904518
 20
-560.4947607691356
 11
1373.718330904518
 21
-560.4947607691356
 72
     2
 10
1373.718330904518
 20
-561.4947607691356
 40
1.0
 50
90.0
 51
180.0
 73
     1
 72
     1
 10
1372.718330904518
 20
-561.4947607691356
 11
1372.718330904518
 21
-602.4947607691356
 72
     2
 10
1373.718330904518
 20
-602.4947607691356
 40
1.0
 50
180.0
 51
270.0
 73
     1
 72
     1
 10
1373.718330904518
 20
-603.4947607691356
 11
1396.159736904518
 21
-603.4947607691356
 72
     2
 10
1396.159736904518
 20
-606.4945167691355
 40
2.99975600000035
 50
270.0
 51
328.3712660000038
 73
     0
 72
     1
 10
1398.713921287067
 20
-604.9214057751237
 11
1402.818412126305
 21
-611.3947585243009
 72
     1
 10
1402.818412126305
 20
-611.3947585243009
 11
1400.886543817981
 21
-608.0680028101668
 72
     2
 10
1403.440986904518
 20
-606.4947607691356
 40
3.000045
 50
148.3717260000007
 51
270.0
 73
     0
 72
     1
 10
1403.440986904518
 20
-603.4947157691356
 11
1405.650947904518
 21
-603.4947607691356
 72
     2
 10
1405.650947904518
 20
-606.4947607691356
 40
3.0
 50
270.0
 51
360.0
 73
     0
 97
       31
330
523
330
572
330
522
330
521
330
520
330
571
330
51F
330
570
330
511
330
56F
330
510
330
56E
330
50D
330
56D
330
50C
330
56C
330
51E
330
56B
330
51D
330
51C
330
51B
330
56A
330
526
330
576
330
525
330
575
330
50E
330
50F
330
574
330
512
330
573
 75
     1
 76
     0
 52
45.0
 41
1.5
 77
     0
 78
     1
 53
45.0
 43
0.0
 44
0.0
 45
-1.060660171779821
 46
1.060660171779821
 79
     0
 98
        1
 10
0.0
 20
0.0
  0
HATCH
  5
5FB
330
1F
100
AcDbEntity
  8
1
  6
Continuous
 62
     3
100
AcDbHatch
 10
0.0
 20
0.0
 30
0.0
210
0.0
220
0.0
230
1.0
  2
_USER
 70
     0
 71
     0
 91
        1
 92
        1
 93
        4
 72
     1
 10
1417.650947904518
 20
-548.4947607691356
 11
1402.718330904518
 21
-548.4947607691356
 72
     1
 10
1402.718330904518
 20
-548.4947607691356
 11
1402.718330904518
 21
-583.4947607691356
 72
     1
 10
1402.718330904518
 20
-583.4947607691356
 11
1417.650947904518
 21
-583.4947607691356
 72
     1
 10
1417.650947904518
 20
-583.4947607691356
 11
1417.650947904518
 21
-548.4947607691356
 97
        0
 75
     1
 76
     0
 52
45.0
 41
5.0
 77
     0
 78
     1
 53
45.0
 43
0.0
 44
0.0
 45
-3.535533905932737
 46
3.535533905932738
 79
     0
 98
        1
 10
0.0
 20
0.0
  0
HATCH
  5
5FC
330
1F
100
AcDbEntity
  8
1
  6
Continuous
 62
     3
100
AcDbHatch
 10
0.0
 20
0.0
 30
0.0
210
0.0
220
0.0
230
1.0
  2
_USER
 70
     0
 71
     1
 91
        1
 92
        1
 93
        6
 72
     1
 10
1228.018330904518
 20
-611.9947607691356
 11
1228.018330904518
 21
-690.9947607691356
 72
     1
 10
1228.018330904518
 20
-690.9947607691356
 11
1218.019217727738
 21
-690.9947607691356
 72
     1
 10
1218.019217727738
 20
-690.9947607691356
 11
1218.018330904518
 21
-611.9947607691357
 72
     1
 10
1218.018330904518
 20
-611.9947607691357
 11
1219.518330904518
 21
-610.4947607691356
 72
     1
 10
1219.518330904518
 20
-610.4947607691356
 11
1226.518330904518
 21
-610.4947607691356
 72
     1
 10
1226.518330904518
 20
-610.4947607691356
 11
1228.018330904518
 21
-611.9947607691356
 97
        6
330
516
330
517
330
518
330
55E
330
514
330
515
 75
     1
 76
     0
 52
90.00000000000003
 41
1.0
 77
     0
 78
     1
 53
90.00000000000003
 43
0.0
 44
0.0
 45
-1.0
 46
-0.0000000000000004
 79
     0
 98
        1
 10
0.0
 20
0.0
  0
HATCH
  5
5FD
330
1F
100
AcDbEntity
  8
1
  6
Continuous
 62
     3
100
AcDbHatch
 10
0.0
 20
0.0
 30
0.0
210
0.0
220
0.0
230
1.0
  2
_USER
 70
     0
 71
     1
 91
        1
 92
        1
 93
        6
 72
     1
 10
1392.518330904518
 20
-611.9947607691357
 11
1392.518330904518
 21
-690.9947607691356
 72
     1
 10
1392.518330904518
 20
-690.9947607691356
 11
1382.519217727738
 21
-690.9947607691356
 72
     1
 10
1382.519217727738
 20
-690.9947607691356
 11
1382.518330904518
 21
-611.9947607691357
 72
     1
 10
1382.518330904518
 20
-611.9947607691357
 11
1384.018330904518
 21
-610.4947607691356
 72
     1
 10
1384.018330904518
 20
-610.4947607691356
 11
1391.018330904518
 21
-610.4947607691356
 72
     1
 10
1391.018330904518
 20
-610.4947607691356
 11
1392.518330904518
 21
-611.9947607691357
 97
        6
330
563
330
562
330
561
330
560
330
565
330
564
 75
     1
 76
     0
 52
90.00000000000003
 41
1.0
 77
     0
 78
     1
 53
90.00000000000003
 43
0.0
 44
0.0
 45
-1.0
 46
-0.0000000000000004
 79
     0
 98
        1
 10
0.0
 20
0.0
  0
ENDSEC
  0
SECTION
  2
OBJECTS
  0
DICTIONARY
  5
C
330
0
100
AcDbDictionary
281
     1
  3
ACAD_GROUP
350
D
  3
ACAD_LAYOUT
350
1A
  3
ACAD_MLINESTYLE
350
17
  3
ACAD_PLOTSETTINGS
350
19
  3
ACAD_PLOTSTYLENAME
350
E
  0
DICTIONARY
  5
D
102
{ACAD_REACTORS
330
C
102
}
330
C
100
AcDbDictionary
281
     1
  0
DICTIONARY
  5
1A
102
{ACAD_REACTORS
330
C
102
}
330
C
100
AcDbDictionary
281
     1
  3
Layout1
350
1E
  3
Layout2
350
26
  3
Model
350
22
  0
DICTIONARY
  5
17
102
{ACAD_REACTORS
330
C
102
}
330
C
100
AcDbDictionary
281
     1
  3
Standard
350
18
  0
DICTIONARY
  5
19
102
{ACAD_REACTORS
330
C
102
}
330
C
100
AcDbDictionary
281
     1
  0
ACDBDICTIONARYWDFLT
  5
E
102
{ACAD_REACTORS
330
C
102
}
330
C
100
AcDbDictionary
281
     1
  3
Normal
350
F
100
AcDbDictionaryWithDefault
340
F
  0
LAYOUT
  5
1E
102
{ACAD_REACTORS
330
1A
102
}
330
1A
100
AcDbPlotSettings
  1

  2

  4

  6

 40
0.0
 41
0.0
 42
0.0
 43
0.0
 44
0.0
 45
0.0
 46
0.0
 47
0.0
 48
0.0
 49
0.0
140
0.0
141
0.0
142
1.0
143
1.0
 70
   688
 72
     0
 73
     0
 74
     5
  7

 75
    16
147
1.0
148
0.0
149
0.0
100
AcDbLayout
  1
Layout1
 70
     1
 71
     1
 10
0.0
 20
0.0
 11
0.0
 21
0.0
 12
0.0
 22
0.0
 32
0.0
 14
0.0
 24
0.0
 34
0.0
 15
0.0
 25
0.0
 35
0.0
146
0.0
 13
0.0
 23
0.0
 33
0.0
 16
1.0
 26
0.0
 36
0.0
 17
0.0
 27
1.0
 37
0.0
 76
     0
330
1B
  0
LAYOUT
  5
26
102
{ACAD_REACTORS
330
1A
102
}
330
1A
100
AcDbPlotSettings
  1

  2

  4

  6

 40
0.0
 41
0.0
 42
0.0
 43
0.0
 44
0.0
 45
0.0
 46
0.0
 47
0.0
 48
0.0
 49
0.0
140
0.0
141
0.0
142
1.0
143
1.0
 70
   688
 72
     0
 73
     0
 74
     5
  7

 75
    16
147
1.0
148
0.0
149
0.0
100
AcDbLayout
  1
Layout2
 70
     1
 71
     2
 10
0.0
 20
0.0
 11
0.0
 21
0.0
 12
0.0
 22
0.0
 32
0.0
 14
0.0
 24
0.0
 34
0.0
 15
0.0
 25
0.0
 35
0.0
146
0.0
 13
0.0
 23
0.0
 33
0.0
 16
1.0
 26
0.0
 36
0.0
 17
0.0
 27
1.0
 37
0.0
 76
     0
330
23
  0
LAYOUT
  5
22
102
{ACAD_REACTORS
330
1A
102
}
330
1A
100
AcDbPlotSettings
  1

  2

  4

  6

 40
0.0
 41
0.0
 42
0.0
 43
0.0
 44
0.0
 45
0.0
 46
0.0
 47
0.0
 48
0.0
 49
0.0
140
0.0
141
0.0
142
1.0
143
1.0
 70
  1712
 72
     0
 73
     0
 74
     0
  7

 75
     0
147
1.0
148
0.0
149
0.0
100
AcDbLayout
  1
Model
 70
     1
 71
     0
 10
0.0
 20
0.0
 11
0.0
 21
0.0
 12
0.0
 22
0.0
 32
0.0
 14
1051.176181315137
 24
-718.5529434758257
 34
0.0
 15
1635.176181315137
 25
-308.5529434758257
 35
0.0
146
0.0
 13
0.0
 23
0.0
 33
0.0
 16
1.0
 26
0.0
 36
0.0
 17
0.0
 27
1.0
 37
0.0
 76
     0
330
1F
  0
MLINESTYLE
  5
18
102
{ACAD_REACTORS
330
17
102
}
330
17
100
AcDbMlineStyle
  2
Standard
 70
     0
  3

 62
   256
 51
90.0
 52
90.0
 71
     2
 49
0.5
 62
   256
  6
BYLAYER
 49
-0.5
 62
   256
  6
BYLAYER
  0
ACDBPLACEHOLDER
  5
F
102
{ACAD_REACTORS
330
E
102
}
330
E
  0
ENDSEC
  0
EOF
