  0
SECTION
  2
HEADER
  9
$ACADVER
  1
AC1015
  9
$ACADMAINTVER
 70
     6
  9
$DWGCODEPAGE
  3
ANSI_1252
  9
$INSBASE
 10
0.0
 20
0.0
 30
0.0
  9
$EXTMIN
 10
-1237.799904123951
 20
-593.5850785498885
 30
0.0
  9
$EXTMAX
 10
-643.7999041239509
 20
-397.7444029799372
 30
0.0
  9
$LIMMIN
 10
0.0
 20
0.0
  9
$LIMMAX
 10
12.0
 20
9.0
  9
$ORTHOMODE
 70
     0
  9
$REGENMODE
 70
     1
  9
$FILLMODE
 70
     1
  9
$QTEXTMODE
 70
     0
  9
$MIRRTEXT
 70
     1
  9
$LTSCALE
 40
1.0
  9
$ATTMODE
 70
     1
  9
$TEXTSIZE
 40
0.2
  9
$TRACEWID
 40
0.05
  9
$TEXTSTYLE
  7
Standard
  9
$CLAYER
  8
0
  9
$CELTYPE
  6
ByLayer
  9
$CECOLOR
 62
   256
  9
$CELTSCALE
 40
1.0
  9
$DISPSILH
 70
     0
  9
$DIMSCALE
 40
1.0
  9
$DIMASZ
 40
0.18
  9
$DIMEXO
 40
0.0625
  9
$DIMDLI
 40
0.38
  9
$DIMRND
 40
0.0
  9
$DIMDLE
 40
0.0
  9
$DIMEXE
 40
0.18
  9
$DIMTP
 40
0.0
  9
$DIMTM
 40
0.0
  9
$DIMTXT
 40
0.18
  9
$DIMCEN
 40
0.09
  9
$DIMTSZ
 40
0.0
  9
$DIMTOL
 70
     0
  9
$DIMLIM
 70
     0
  9
$DIMTIH
 70
     1
  9
$DIMTOH
 70
     1
  9
$DIMSE1
 70
     0
  9
$DIMSE2
 70
     0
  9
$DIMTAD
 70
     0
  9
$DIMZIN
 70
     0
  9
$DIMBLK
  1

  9
$DIMASO
 70
     1
  9
$DIMSHO
 70
     1
  9
$DIMPOST
  1

  9
$DIMAPOST
  1

  9
$DIMALT
 70
     0
  9
$DIMALTD
 70
     2
  9
$DIMALTF
 40
25.4
  9
$DIMLFAC
 40
1.0
  9
$DIMTOFL
 70
     0
  9
$DIMTVP
 40
0.0
  9
$DIMTIX
 70
     0
  9
$DIMSOXD
 70
     0
  9
$DIMSAH
 70
     0
  9
$DIMBLK1
  1

  9
$DIMBLK2
  1

  9
$DIMSTYLE
  2
Standard
  9
$DIMCLRD
 70
     0
  9
$DIMCLRE
 70
     0
  9
$DIMCLRT
 70
     0
  9
$DIMTFAC
 40
1.0
  9
$DIMGAP
 40
0.09
  9
$DIMJUST
 70
     0
  9
$DIMSD1
 70
     0
  9
$DIMSD2
 70
     0
  9
$DIMTOLJ
 70
     1
  9
$DIMTZIN
 70
     0
  9
$DIMALTZ
 70
     0
  9
$DIMALTTZ
 70
     0
  9
$DIMUPT
 70
     0
  9
$DIMDEC
 70
     4
  9
$DIMTDEC
 70
     4
  9
$DIMALTU
 70
     2
  9
$DIMALTTD
 70
     2
  9
$DIMTXSTY
  7
Standard
  9
$DIMAUNIT
 70
     0
  9
$DIMADEC
 70
     0
  9
$DIMALTRND
 40
0.0
  9
$DIMAZIN
 70
     0
  9
$DIMDSEP
 70
    46
  9
$DIMATFIT
 70
     3
  9
$DIMFRAC
 70
     0
  9
$DIMLDRBLK
  1

  9
$DIMLUNIT
 70
     2
  9
$DIMLWD
 70
    -2
  9
$DIMLWE
 70
    -2
  9
$DIMTMOVE
 70
     0
  9
$LUNITS
 70
     2
  9
$LUPREC
 70
     4
  9
$SKETCHINC
 40
0.1
  9
$FILLETRAD
 40
0.5
  9
$AUNITS
 70
     0
  9
$AUPREC
 70
     0
  9
$MENU
  1
.
  9
$ELEVATION
 40
0.0
  9
$PELEVATION
 40
0.0
  9
$THICKNESS
 40
0.0
  9
$LIMCHECK
 70
     0
  9
$CHAMFERA
 40
0.5
  9
$CHAMFERB
 40
0.5
  9
$CHAMFERC
 40
1.0
  9
$CHAMFERD
 40
0.0
  9
$SKPOLY
 70
     0
  9
$TDCREATE
 40
2456573.411652592
  9
$TDUCREATE
 40
2456573.328319259
  9
$TDUPDATE
 40
2456573.411652604
  9
$TDUUPDATE
 40
2456573.328319271
  9
$TDINDWG
 40
0.0000000116
  9
$TDUSRTIMER
 40
0.0000000116
  9
$USRTIMER
 70
     1
  9
$ANGBASE
 50
0.0
  9
$ANGDIR
 70
     0
  9
$PDMODE
 70
     0
  9
$PDSIZE
 40
0.0
  9
$PLINEWID
 40
0.0
  9
$SPLFRAME
 70
     0
  9
$SPLINETYPE
 70
     6
  9
$SPLINESEGS
 70
     8
  9
$HANDSEED
  5
45F
  9
$SURFTAB1
 70
     6
  9
$SURFTAB2
 70
     6
  9
$SURFTYPE
 70
     6
  9
$SURFU
 70
     6
  9
$SURFV
 70
     6
  9
$UCSBASE
  2

  9
$UCSNAME
  2

  9
$UCSORG
 10
0.0
 20
0.0
 30
0.0
  9
$UCSXDIR
 10
1.0
 20
0.0
 30
0.0
  9
$UCSYDIR
 10
0.0
 20
1.0
 30
0.0
  9
$UCSORTHOREF
  2

  9
$UCSORTHOVIEW
 70
     0
  9
$UCSORGTOP
 10
0.0
 20
0.0
 30
0.0
  9
$UCSORGBOTTOM
 10
0.0
 20
0.0
 30
0.0
  9
$UCSORGLEFT
 10
0.0
 20
0.0
 30
0.0
  9
$UCSORGRIGHT
 10
0.0
 20
0.0
 30
0.0
  9
$UCSORGFRONT
 10
0.0
 20
0.0
 30
0.0
  9
$UCSORGBACK
 10
0.0
 20
0.0
 30
0.0
  9
$PUCSBASE
  2

  9
$PUCSNAME
  2

  9
$PUCSORG
 10
0.0
 20
0.0
 30
0.0
  9
$PUCSXDIR
 10
1.0
 20
0.0
 30
0.0
  9
$PUCSYDIR
 10
0.0
 20
1.0
 30
0.0
  9
$PUCSORTHOREF
  2

  9
$PUCSORTHOVIEW
 70
     0
  9
$PUCSORGTOP
 10
0.0
 20
0.0
 30
0.0
  9
$PUCSORGBOTTOM
 10
0.0
 20
0.0
 30
0.0
  9
$PUCSORGLEFT
 10
0.0
 20
0.0
 30
0.0
  9
$PUCSORGRIGHT
 10
0.0
 20
0.0
 30
0.0
  9
$PUCSORGFRONT
 10
0.0
 20
0.0
 30
0.0
  9
$PUCSORGBACK
 10
0.0
 20
0.0
 30
0.0
  9
$USERI1
 70
     0
  9
$USERI2
 70
     0
  9
$USERI3
 70
     0
  9
$USERI4
 70
     0
  9
$USERI5
 70
     0
  9
$USERR1
 40
18.0
  9
$USERR2
 40
0.0
  9
$USERR3
 40
0.0
  9
$USERR4
 40
0.0
  9
$USERR5
 40
0.0
  9
$WORLDVIEW
 70
     1
  9
$SHADEDGE
 70
     3
  9
$SHADEDIF
 70
    70
  9
$TILEMODE
 70
     1
  9
$MAXACTVP
 70
    64
  9
$PINSBASE
 10
0.0
 20
0.0
 30
0.0
  9
$PLIMCHECK
 70
     0
  9
$PEXTMIN
 10
1.00000000000000E+20
 20
1.00000000000000E+20
 30
1.00000000000000E+20
  9
$PEXTMAX
 10
-1.00000000000000E+20
 20
-1.00000000000000E+20
 30
-1.00000000000000E+20
  9
$PLIMMIN
 10
0.0
 20
0.0
  9
$PLIMMAX
 10
12.0
 20
9.0
  9
$UNITMODE
 70
     0
  9
$VISRETAIN
 70
     1
  9
$PLINEGEN
 70
     0
  9
$PSLTSCALE
 70
     1
  9
$TREEDEPTH
 70
  3020
  9
$CMLSTYLE
  2
Standard
  9
$CMLJUST
 70
     0
  9
$CMLSCALE
 40
1.0
  9
$PROXYGRAPHICS
 70
     1
  9
$MEASUREMENT
 70
     1
  9
$CELWEIGHT
370
    -1
  9
$ENDCAPS
280
     0
  9
$JOINSTYLE
280
     0
  9
$LWDISPLAY
290
     0
  9
$INSUNITS
 70
     1
  9
$HYPERLINKBASE
  1

  9
$STYLESHEET
  1

  9
$XEDIT
290
     1
  9
$CEPSNTYPE
380
     0
  9
$PSTYLEMODE
290
     1
  9
$FINGERPRINTGUID
  2
{E03ECC5D-7719-4AE7-9164-61390A2C26FE}
  9
$VERSIONGUID
  2
{FAEB1C32-E019-11D5-929B-00C0DF256EC4}
  9
$EXTNAMES
290
     1
  9
$PSVPSCALE
 40
0.0
  9
$OLESTARTUP
290
     0
  0
ENDSEC
  0
SECTION
  2
CLASSES
  0
CLASS
  1
ACDBDICTIONARYWDFLT
  2
AcDbDictionaryWithDefault
  3
ObjectDBX Classes
 90
        0
280
     0
281
     0
  0
CLASS
  1
VISUALSTYLE
  2
AcDbVisualStyle
  3
ObjectDBX Classes
 90
     4095
280
     0
281
     0
  0
CLASS
  1
MATERIAL
  2
AcDbMaterial
  3
ObjectDBX Classes
 90
     1153
280
     0
281
     0
  0
CLASS
  1
SCALE
  2
AcDbScale
  3
ObjectDBX Classes
 90
     1153
280
     0
281
     0
  0
CLASS
  1

  2
exOdDbCircle
  3

 90
        0
280
     0
281
     1
  0
CLASS
  1

  2
exOdDbSpline
  3

 90
        0
280
     0
281
     1
  0
CLASS
  1

  2
exOdDbPolyline
  3

 90
        0
280
     0
281
     1
  0
CLASS
  1
DICTIONARYVAR
  2
AcDbDictionaryVar
  3
ObjectDBX Classes
 90
        0
280
     0
281
     0
  0
CLASS
  1
ACDBPLACEHOLDER
  2
AcDbPlaceHolder
  3
ObjectDBX Classes
 90
        0
280
     0
281
     0
  0
CLASS
  1
LAYOUT
  2
AcDbLayout
  3
ObjectDBX Classes
 90
        0
280
     0
281
     0
  0
ENDSEC
  0
SECTION
  2
TABLES
  0
TABLE
  2
VPORT
  5
8
330
0
100
AcDbSymbolTable
 70
     1
  0
VPORT
  5
29
330
8
100
AcDbSymbolTableRecord
100
AcDbViewportTableRecord
  2
*Active
 70
     0
 10
0.0
 20
0.0
 11
1.0
 21
1.0
 12
-940.7999041239509
 22
-495.6647407649128
 13
0.0
 23
0.0
 14
0.5
 24
0.5
 15
0.5
 25
0.5
 16
0.0
 26
0.0
 36
1.0
 17
0.0
 27
0.0
 37
0.0
 40
407.6924791086353
 41
1.60267857142857
 42
50.0
 43
0.0
 44
0.0
 50
0.0
 51
0.0
 71
     0
 72
   100
 73
     1
 74
     3
 75
     0
 76
     0
 77
     0
 78
     0
281
     0
 65
     1
110
0.0
120
0.0
130
0.0
111
1.0
121
0.0
131
0.0
112
0.0
122
1.0
132
0.0
 79
     0
146
0.0
  0
ENDTAB
  0
TABLE
  2
LTYPE
  5
5
330
0
100
AcDbSymbolTable
 70
     8
  0
LTYPE
  5
14
330
5
100
AcDbSymbolTableRecord
100
AcDbLinetypeTableRecord
  2
ByBlock
 70
     0
  3

 72
    65
 73
     0
 40
0.0
  0
LTYPE
  5
15
330
5
100
AcDbSymbolTableRecord
100
AcDbLinetypeTableRecord
  2
ByLayer
 70
     0
  3

 72
    65
 73
     0
 40
0.0
  0
LTYPE
  5
16
330
5
100
AcDbSymbolTableRecord
100
AcDbLinetypeTableRecord
  2
Continuous
 70
     0
  3
Solid line
 72
    65
 73
     0
 40
0.0
  0
LTYPE
  5
3F
330
5
100
AcDbSymbolTableRecord
100
AcDbLinetypeTableRecord
  2
DASHED
 70
     0
  3
Dashed
 72
    65
 73
     2
 40
15.0
 49
7.0
 74
     0
 49
-8.0
 74
     0
  0
LTYPE
  5
40
330
5
100
AcDbSymbolTableRecord
100
AcDbLinetypeTableRecord
  2
DOTTED
 70
     0
  3
Dotted
 72
    65
 73
     2
 40
1.0
 49
0.0
 74
     0
 49
-1.0
 74
     0
  0
LTYPE
  5
41
330
5
100
AcDbSymbolTableRecord
100
AcDbLinetypeTableRecord
  2
DOT_CENTER
 70
     0
  3
Dot_Center
 72
    65
 73
     4
 40
14.0
 49
12.0
 74
     0
 49
-1.0
 74
     0
 49
0.0
 74
     0
 49
-1.0
 74
     0
  0
LTYPE
  5
42
330
5
100
AcDbSymbolTableRecord
100
AcDbLinetypeTableRecord
  2
LONG_DASHED
 70
     0
  3
Long_Dashed
 72
    65
 73
     2
 40
15.0
 49
10.0
 74
     0
 49
-5.0
 74
     0
  0
LTYPE
  5
43
330
5
100
AcDbSymbolTableRecord
100
AcDbLinetypeTableRecord
  2
DASH_CENTER
 70
     0
  3
Dash_Center
 72
    65
 73
     4
 40
14.0
 49
11.0
 74
     0
 49
-1.0
 74
     0
 49
1.0
 74
     0
 49
-1.0
 74
     0
  0
LTYPE
  5
44
330
5
100
AcDbSymbolTableRecord
100
AcDbLinetypeTableRecord
  2
PHANTOM
 70
     0
  3
Phantom
 72
    65
 73
     6
 40
13.0
 49
10.0
 74
     0
 49
-1.0
 74
     0
 49
0.0
 74
     0
 49
-1.0
 74
     0
 49
0.0
 74
     0
 49
-1.0
 74
     0
  0
LTYPE
  5
45
330
5
100
AcDbSymbolTableRecord
100
AcDbLinetypeTableRecord
  2
CENTER_DASH_DASH
 70
     0
  3
Center_Dash_Dash
 72
    65
 73
     6
 40
14.0
 49
9.0
 74
     0
 49
-1.0
 74
     0
 49
1.0
 74
     0
 49
-1.0
 74
     0
 49
1.0
 74
     0
 49
-1.0
 74
     0
  0
ENDTAB
  0
TABLE
  2
LAYER
  5
2
330
0
100
AcDbSymbolTable
 70
     5
  0
LAYER
  5
10
330
2
100
AcDbSymbolTableRecord
100
AcDbLayerTableRecord
  2
0
 70
     0
 62
     7
  6
Continuous
370
    -3
390
F
  0
LAYER
  5
46
330
2
100
AcDbSymbolTableRecord
100
AcDbLayerTableRecord
  2
25
 70
     0
 62
     3
  6
Continuous
370
    -3
390
F
  0
LAYER
  5
47
330
2
100
AcDbSymbolTableRecord
100
AcDbLayerTableRecord
  2
50
 70
     0
 62
     1
  6
Continuous
370
    -3
390
F
  0
LAYER
  5
48
330
2
100
AcDbSymbolTableRecord
100
AcDbLayerTableRecord
  2
1
 70
     0
 62
     7
  6
Continuous
370
    -3
390
F
  0
LAYER
  5
49
330
2
100
AcDbSymbolTableRecord
100
AcDbLayerTableRecord
  2
70
 70
     0
 62
     7
  6
Continuous
370
    -3
390
F
  0
ENDTAB
  0
TABLE
  2
STYLE
  5
3
330
0
100
AcDbSymbolTable
 70
     4
  0
STYLE
  5
11
330
3
100
AcDbSymbolTableRecord
100
AcDbTextStyleTableRecord
  2
Standard
 70
     0
 40
0.0
 41
1.0
 50
0.0
 71
     0
 42
0.2
  3
txt
  4

  0
STYLE
  5
3B5
330
3
100
AcDbSymbolTableRecord
100
AcDbTextStyleTableRecord
  2
CONVERTER_11
 70
     0
 40
0.0
 41
0.9
 50
15.0
 71
     0
 42
0.2
  3
txt.shx
  4

  0
STYLE
  5
3B8
330
3
100
AcDbSymbolTableRecord
100
AcDbTextStyleTableRecord
  2
CONVERTER_12
 70
     0
 40
0.0
 41
0.9
 50
0.0
 71
     0
 42
0.2
  3
txt.shx
  4

  0
STYLE
  5
3C7
330
3
100
AcDbSymbolTableRecord
100
AcDbTextStyleTableRecord
  2
CONVERTER_13
 70
     0
 40
0.0
 41
0.81
 50
0.0
 71
     0
 42
0.2
  3
txt.shx
  4

  0
ENDTAB
  0
TABLE
  2
VIEW
  5
6
330
0
100
AcDbSymbolTable
 70
     0
  0
ENDTAB
  0
TABLE
  2
UCS
  5
7
330
0
100
AcDbSymbolTable
 70
     0
  0
ENDTAB
  0
TABLE
  2
APPID
  5
9
330
0
100
AcDbSymbolTable
 70
     1
  0
APPID
  5
12
330
9
100
AcDbSymbolTableRecord
100
AcDbRegAppTableRecord
  2
ACAD
 70
     0
  0
ENDTAB
  0
TABLE
  2
DIMSTYLE
  5
A
330
0
100
AcDbSymbolTable
 70
    10
100
AcDbDimStyleTable
  0
DIMSTYLE
105
27
330
A
100
AcDbSymbolTableRecord
100
AcDbDimStyleTableRecord
  2
Standard
 70
     0
340
11
  0
DIMSTYLE
105
3D4
102
{ACAD_REACTORS
330
3D5
102
}
330
A
100
AcDbSymbolTableRecord
100
AcDbDimStyleTableRecord
  2
ME10_DIM_10
 70
     0
 41
3.5
 42
0.0
 44
2.0
 73
     0
 74
     0
 77
     1
 78
     8
140
3.5
147
2.0
172
     1
173
     1
174
     1
175
     1
176
     3
177
     3
178
     4
271
     2
340
3B8
  0
DIMSTYLE
105
3E0
102
{ACAD_REACTORS
330
3E1
102
}
330
A
100
AcDbSymbolTableRecord
100
AcDbDimStyleTableRecord
  2
ME10_DIM_11
 70
     0
 41
3.5
 42
0.0
 44
2.0
 73
     0
 74
     0
 77
     1
 78
     8
140
3.5
147
2.0
172
     1
173
     1
174
     1
175
     1
176
     3
177
     3
178
     4
271
     2
340
3B8
  0
DIMSTYLE
105
3EB
102
{ACAD_REACTORS
330
3EC
102
}
330
A
100
AcDbSymbolTableRecord
100
AcDbDimStyleTableRecord
  2
ME10_DIM_12
 70
     0
 41
3.5
 42
0.0
 44
2.0
 73
     0
 74
     0
 77
     1
 78
     8
140
3.5
147
2.0
172
     1
173
     1
174
     1
175
     1
176
     3
177
     3
178
     4
271
     0
340
3B8
  0
DIMSTYLE
105
3F6
102
{ACAD_REACTORS
330
3F7
102
}
330
A
100
AcDbSymbolTableRecord
100
AcDbDimStyleTableRecord
  2
ME10_DIM_13
 70
     0
 41
3.5
 42
0.0
 44
2.0
 73
     0
 74
     0
 77
     1
 78
     8
140
3.5
147
2.0
172
     1
173
     1
174
     1
175
     1
176
     3
177
     3
178
     4
271
     0
340
3B8
  0
DIMSTYLE
105
401
102
{ACAD_REACTORS
330
402
102
}
330
A
100
AcDbSymbolTableRecord
100
AcDbDimStyleTableRecord
  2
ME10_DIM_14
 70
     0
 41
3.5
 42
0.0
 44
2.0
 73
     0
 74
     0
 77
     1
 78
     8
140
3.5
147
2.0
172
     1
173
     1
174
     1
175
     1
176
     3
177
     3
178
     4
271
     0
340
3B8
  0
DIMSTYLE
105
40C
102
{ACAD_REACTORS
330
40D
102
}
330
A
100
AcDbSymbolTableRecord
100
AcDbDimStyleTableRecord
  2
ME10_DIM_15
 70
     0
 41
3.5
 42
0.0
 44
2.0
 73
     0
 74
     0
 77
     1
 78
     8
140
3.5
147
2.0
172
     1
173
     1
174
     1
175
     1
176
     3
177
     3
178
     4
271
     2
340
3B8
  0
DIMSTYLE
105
417
102
{ACAD_REACTORS
330
418
102
}
330
A
100
AcDbSymbolTableRecord
100
AcDbDimStyleTableRecord
  2
ME10_DIM_16
 70
     0
  3
(<>)
 41
3.5
 42
0.0
 44
2.0
 73
     0
 74
     0
 77
     1
 78
     8
140
3.5
147
2.0
172
     1
173
     1
174
     1
175
     1
176
     3
177
     3
178
     4
271
     0
340
3B8
  0
DIMSTYLE
105
422
102
{ACAD_REACTORS
330
423
102
}
330
A
100
AcDbSymbolTableRecord
100
AcDbDimStyleTableRecord
  2
ME10_DIM_17
 70
     0
 41
3.5
 42
0.0
 44
2.0
 73
     0
 74
     0
 77
     1
 78
     8
140
3.5
147
2.0
172
     1
173
     1
174
     1
175
     1
176
     3
177
     3
178
     4
271
     1
340
3B8
  0
DIMSTYLE
105
42D
102
{ACAD_REACTORS
330
42E
102
}
330
A
100
AcDbSymbolTableRecord
100
AcDbDimStyleTableRecord
  2
ME10_DIM_18
 70
     0
 41
3.5
 42
0.0
 44
2.0
 73
     0
 74
     0
 77
     1
 78
     8
140
3.5
147
2.0
172
     1
173
     1
174
     1
175
     1
176
     3
177
     3
178
     4
271
     2
340
3B8
  0
ENDTAB
  0
TABLE
  2
BLOCK_RECORD
  5
1
330
0
100
AcDbSymbolTable
 70
    13
  0
BLOCK_RECORD
  5
1F
330
1
100
AcDbSymbolTableRecord
100
AcDbBlockTableRecord
  2
*Model_Space
340
22
  0
BLOCK_RECORD
  5
1B
330
1
100
AcDbSymbolTableRecord
100
AcDbBlockTableRecord
  2
*Paper_Space
340
1E
  0
BLOCK_RECORD
  5
23
330
1
100
AcDbSymbolTableRecord
100
AcDbBlockTableRecord
  2
*Paper_Space0
340
26
  0
BLOCK_RECORD
  5
4A
330
1
100
AcDbSymbolTableRecord
100
AcDbBlockTableRecord
  2
45140-9-0950_03__1
340
0
102
{BLKREFS
331
70
102
}
  0
BLOCK_RECORD
  5
4D
330
1
100
AcDbSymbolTableRecord
100
AcDbBlockTableRecord
  2
45140-9-0950_03__2
340
0
102
{BLKREFS
331
76
102
}
  0
BLOCK_RECORD
  5
73
330
1
100
AcDbSymbolTableRecord
100
AcDbBlockTableRecord
  2
45140-9-0950_03__3
340
0
102
{BLKREFS
331
77
102
}
  0
BLOCK_RECORD
  5
3CA
330
1
100
AcDbSymbolTableRecord
100
AcDbBlockTableRecord
  2
*D4
340
0
  0
BLOCK_RECORD
  5
3D6
330
1
100
AcDbSymbolTableRecord
100
AcDbBlockTableRecord
  2
*D5
340
0
  0
BLOCK_RECORD
  5
3E2
330
1
100
AcDbSymbolTableRecord
100
AcDbBlockTableRecord
  2
*D6
340
0
  0
BLOCK_RECORD
  5
3ED
330
1
100
AcDbSymbolTableRecord
100
AcDbBlockTableRecord
  2
*D7
340
0
  0
BLOCK_RECORD
  5
3F8
330
1
100
AcDbSymbolTableRecord
100
AcDbBlockTableRecord
  2
*D8
340
0
  0
BLOCK_RECORD
  5
403
330
1
100
AcDbSymbolTableRecord
100
AcDbBlockTableRecord
  2
*D9
340
0
  0
BLOCK_RECORD
  5
40E
330
1
100
AcDbSymbolTableRecord
100
AcDbBlockTableRecord
  2
*D10
340
0
  0
BLOCK_RECORD
  5
419
330
1
100
AcDbSymbolTableRecord
100
AcDbBlockTableRecord
  2
*D11
340
0
  0
BLOCK_RECORD
  5
424
330
1
100
AcDbSymbolTableRecord
100
AcDbBlockTableRecord
  2
*D12
340
0
  0
ENDTAB
  0
ENDSEC
  0
SECTION
  2
BLOCKS
  0
BLOCK
  5
20
330
1F
100
AcDbEntity
  8
0
100
AcDbBlockBegin
  2
*Model_Space
 70
     0
 10
0.0
 20
0.0
 30
0.0
  3
*Model_Space
  1

  0
ENDBLK
  5
21
330
1F
100
AcDbEntity
  8
0
100
AcDbBlockEnd
  0
BLOCK
  5
1C
330
1B
100
AcDbEntity
 67
     1
  8
0
100
AcDbBlockBegin
  2
*Paper_Space
 70
     0
 10
0.0
 20
0.0
 30
0.0
  3
*Paper_Space
  1

  0
ENDBLK
  5
1D
330
1B
100
AcDbEntity
 67
     1
  8
0
100
AcDbBlockEnd
  0
BLOCK
  5
24
330
23
100
AcDbEntity
  8
0
100
AcDbBlockBegin
  2
*Paper_Space0
 70
     0
 10
0.0
 20
0.0
 30
0.0
  3
*Paper_Space0
  1

  0
ENDBLK
  5
25
330
23
100
AcDbEntity
  8
0
100
AcDbBlockEnd
  0
BLOCK
  5
4B
330
4A
100
AcDbEntity
  8
0
100
AcDbBlockBegin
  2
45140-9-0950_03__1
 70
     0
 10
-633.1841661677661
 20
-396.2040929344151
 30
0.0
  3
45140-9-0950_03__1
  1

  0
POINT
  5
78
330
4A
100
AcDbEntity
  8
1
 62
     3
 60
     1
100
AcDbPoint
 10
82.86785494770686
 20
-86.09165924319308
 30
0.0
  0
POINT
  5
79
330
4A
100
AcDbEntity
  8
1
 62
     3
 60
     1
100
AcDbPoint
 10
-107.4980781348381
 20
-96.88900960535801
 30
0.0
  0
POINT
  5
7A
330
4A
100
AcDbEntity
  8
1
 62
     3
 60
     1
100
AcDbPoint
 10
-85.72307548875108
 20
-96.88901187452501
 30
0.0
  0
POINT
  5
7B
330
4A
100
AcDbEntity
  8
1
 62
     3
 60
     1
100
AcDbPoint
 10
733.9889516966629
 20
-210.1907563527256
 30
0.0
  0
POINT
  5
7C
330
4A
100
AcDbEntity
  8
1
 62
     3
 60
     1
100
AcDbPoint
 10
-70.25636899347046
 20
-566.889009605358
 30
0.0
  0
POINT
  5
7D
330
4A
100
AcDbEntity
  8
1
 62
     3
 60
     1
100
AcDbPoint
 10
-92.03137163955716
 20
-566.889011874525
 30
0.0
  0
POINT
  5
7E
330
4A
100
AcDbEntity
  8
1
 62
     3
 60
     1
100
AcDbPoint
 10
214.2482739653249
 20
-701.7133700244141
 30
0.0
  0
POINT
  5
7F
330
4A
100
AcDbEntity
  8
1
 62
     3
 60
     1
100
AcDbPoint
 10
-203.7517260346751
 20
-296.7133700244141
 30
0.0
  0
ENDBLK
  5
4C
330
4A
100
AcDbEntity
  8
0
100
AcDbBlockEnd
  0
BLOCK
  5
71
330
4D
100
AcDbEntity
  8
0
100
AcDbBlockBegin
  2
45140-9-0950_03__2
 70
     0
 10
-930.399912770167
 20
-397.7444029799372
 30
0.0
  3
45140-9-0950_03__2
  1

  0
INSERT
  5
70
330
4D
100
AcDbEntity
  8
0
100
AcDbBlockReference
  2
45140-9-0950_03__1
 10
-633.1841661677661
 20
-396.2040929344151
 30
0.0
  0
POINT
  5
80
330
4D
100
AcDbEntity
  8
1
 62
     3
 60
     1
100
AcDbPoint
 10
-500.9674726370761
 20
-298.2536800699361
 30
0.0
  0
POINT
  5
81
330
4D
100
AcDbEntity
  8
1
 62
     3
 60
     1
100
AcDbPoint
 10
-82.96747263707607
 20
-703.2536800699361
 30
0.0
  0
POINT
  5
82
330
4D
100
AcDbEntity
  8
1
 62
     3
 60
     1
100
AcDbPoint
 10
-389.2471182419581
 20
-568.4293219200471
 30
0.0
  0
POINT
  5
83
330
4D
100
AcDbEntity
  8
1
 62
     3
 60
     1
100
AcDbPoint
 10
-367.4721155958714
 20
-568.4293196508801
 30
0.0
  0
POINT
  5
84
330
4D
100
AcDbEntity
  8
1
 62
     3
 60
     1
100
AcDbPoint
 10
436.7732050942619
 20
-211.7310663982476
 30
0.0
  0
POINT
  5
85
330
4D
100
AcDbEntity
  8
1
 62
     3
 60
     1
100
AcDbPoint
 10
-382.938822091152
 20
-98.42932192004707
 30
0.0
  0
POINT
  5
86
330
4D
100
AcDbEntity
  8
1
 62
     3
 60
     1
100
AcDbPoint
 10
-404.7138247372391
 20
-98.42931965088007
 30
0.0
  0
POINT
  5
87
330
4D
100
AcDbEntity
  8
1
 62
     3
 60
     1
100
AcDbPoint
 10
-214.3478916546941
 20
-87.63196928871514
 30
0.0
  0
ENDBLK
  5
72
330
4D
100
AcDbEntity
  8
0
100
AcDbBlockEnd
  0
BLOCK
  5
74
330
73
100
AcDbEntity
  8
0
100
AcDbBlockBegin
  2
45140-9-0950_03__3
 70
     0
 10
100498.745584785
 20
101900.0
 30
0.0
  3
45140-9-0950_03__3
  1

  0
POINT
  5
88
330
73
100
AcDbEntity
  8
1
 62
     3
 60
     1
100
AcDbPoint
 10
-806.621879205908
 20
-298.2536800699309
 30
0.0
  0
POINT
  5
89
330
73
100
AcDbEntity
  8
1
 62
     3
 60
     1
100
AcDbPoint
 10
-388.621879205908
 20
-703.2536800699309
 30
0.0
  0
POINT
  5
8A
330
73
100
AcDbEntity
  8
1
 62
     3
 60
     1
100
AcDbPoint
 10
-694.9015248107899
 20
-568.4293219200481
 30
0.0
  0
POINT
  5
8B
330
73
100
AcDbEntity
  8
1
 62
     3
 60
     1
100
AcDbPoint
 10
-673.1265221647045
 20
-568.4293196508806
 30
0.0
  0
POINT
  5
8C
330
73
100
AcDbEntity
  8
1
 62
     3
 60
     1
100
AcDbPoint
 10
131.1187985254219
 20
-211.7310663982498
 30
0.0
  0
POINT
  5
8D
330
73
100
AcDbEntity
  8
1
 62
     3
 60
     1
100
AcDbPoint
 10
-688.5932286599855
 20
-98.4293219200481
 30
0.0
  0
POINT
  5
8E
330
73
100
AcDbEntity
  8
1
 62
     3
 60
     1
100
AcDbPoint
 10
-710.3682313060708
 20
-98.42931965088064
 30
0.0
  0
POINT
  5
8F
330
73
100
AcDbEntity
  8
1
 62
     3
 60
     1
100
AcDbPoint
 10
-520.0022982235241
 20
-87.63196928871912
 30
0.0
  0
ENDBLK
  5
75
330
73
100
AcDbEntity
  8
0
100
AcDbBlockEnd
  0
BLOCK
  5
3D2
330
3CA
100
AcDbEntity
  8
0
100
AcDbBlockBegin
  2
*D4
 70
     1
 10
0.0
 20
0.0
 30
0.0
  3
*D4
  1

  0
LINE
  5
3CB
330
3CA
100
AcDbEntity
  8
1
  6
Continuous
 62
     3
100
AcDbLine
 10
-844.5962467554666
 20
-455.756658989494
 30
0.0
 11
-854.5962467554764
 21
-455.756658989494
 31
0.0
  0
LINE
  5
3CC
330
3CA
100
AcDbEntity
  8
1
  6
Continuous
 62
     3
100
AcDbLine
 10
-854.5962467554764
 20
-455.756658989494
 30
0.0
 11
-883.1675424102493
 21
-455.756658989494
 31
0.0
  0
LINE
  5
3CD
330
3CA
100
AcDbEntity
  8
1
  6
Continuous
 62
     3
100
AcDbLine
 10
-844.5962467554666
 20
-504.1850471559137
 30
0.0
 11
-844.5962467554666
 21
-453.756658989494
 31
0.0
  0
LINE
  5
3CE
330
3CA
100
AcDbEntity
  8
1
  6
Continuous
 62
     3
100
AcDbLine
 10
-854.5962467554764
 20
-472.8262673465197
 30
0.0
 11
-854.5962467554764
 21
-453.756658989494
 31
0.0
  0
SOLID
  5
3CF
330
3CA
100
AcDbEntity
  8
1
 62
     3
100
AcDbTrace
 10
-848.0962467554666
 20
-456.2174427310499
 30
0.0
 11
-848.0962467554666
 21
-455.2958752479381
 31
0.0
 12
-844.5962467554666
 22
-455.756658989494
 32
0.0
 13
-844.5962467554666
 23
-455.756658989494
 33
0.0
  0
SOLID
  5
3D0
330
3CA
100
AcDbEntity
  8
1
 62
     3
100
AcDbTrace
 10
-851.0962467554764
 20
-455.2958752479381
 30
0.0
 11
-851.0962467554764
 21
-456.2174427310499
 31
0.0
 12
-854.5962467554764
 22
-455.756658989494
 32
0.0
 13
-854.5962467554764
 23
-455.756658989494
 33
0.0
  0
MTEXT
  5
3D1
330
3CA
100
AcDbEntity
  8
1
 62
     4
100
AcDbMText
 10
-883.1675424102493
 20
-453.756658989494
 30
0.0
 40
3.5
 41
0.0
 71
     7
 72
     1
  1
\U+00dc=10...23
  7
CONVERTER_12
 11
0.9999999999970619
 21
2.424068405545306E-6
 31
0.0
 73
     1
 44
0.60024009603842
  0
ENDBLK
  5
3D3
330
3CA
100
AcDbEntity
  8
0
100
AcDbBlockEnd
  0
BLOCK
  5
3DE
330
3D6
100
AcDbEntity
  8
0
100
AcDbBlockBegin
  2
*D5
 70
     1
 10
0.0
 20
0.0
 30
0.0
  3
*D5
  1

  0
LINE
  5
3D7
330
3D6
100
AcDbEntity
  8
1
  6
Continuous
 62
     3
100
AcDbLine
 10
-1178.311885194386
 20
-449.6697247692406
 30
0.0
 11
-1188.311885194604
 21
-449.6697247692406
 31
0.0
  0
LINE
  5
3D8
330
3D6
100
AcDbEntity
  8
1
  6
Continuous
 62
     3
100
AcDbLine
 10
-1188.311885194604
 20
-449.6697247692406
 30
0.0
 11
-1221.002041972968
 21
-449.6697247692406
 31
0.0
  0
LINE
  5
3D9
330
3D6
100
AcDbEntity
  8
1
  6
Continuous
 62
     3
100
AcDbLine
 10
-1178.311885194386
 20
-517.1447087980771
 30
0.0
 11
-1178.311885194386
 21
-447.6697247692406
 31
0.0
  0
LINE
  5
3DA
330
3D6
100
AcDbEntity
  8
1
  6
Continuous
 62
     3
100
AcDbLine
 10
-1188.311885194604
 20
-458.285928988683
 30
0.0
 11
-1188.311885194604
 21
-447.6697247692406
 31
0.0
  0
SOLID
  5
3DB
330
3D6
100
AcDbEntity
  8
1
 62
     3
100
AcDbTrace
 10
-1181.811885194386
 20
-450.1305085107965
 30
0.0
 11
-1181.811885194386
 21
-449.2089410276847
 31
0.0
 12
-1178.311885194386
 22
-449.6697247692406
 32
0.0
 13
-1178.311885194386
 23
-449.6697247692406
 33
0.0
  0
SOLID
  5
3DC
330
3D6
100
AcDbEntity
  8
1
 62
     3
100
AcDbTrace
 10
-1184.811885194604
 20
-449.2089410276847
 30
0.0
 11
-1184.811885194604
 21
-450.1305085107965
 31
0.0
 12
-1188.311885194604
 22
-449.6697247692406
 32
0.0
 13
-1188.311885194604
 23
-449.6697247692406
 33
0.0
  0
MTEXT
  5
3DD
330
3D6
100
AcDbEntity
  8
1
 62
     4
100
AcDbMText
 10
-1221.002041972968
 20
-447.6697247692406
 30
0.0
 40
3.5
 41
0.0
 71
     7
 72
     1
  1
\U+00dc=10...23 (*)
  7
CONVERTER_12
 11
0.9999999999970619
 21
2.424068405545306E-6
 31
0.0
 73
     1
 44
0.60024009603842
  0
ENDBLK
  5
3DF
330
3D6
100
AcDbEntity
  8
0
100
AcDbBlockEnd
  0
BLOCK
  5
3E9
330
3E2
100
AcDbEntity
  8
0
100
AcDbBlockBegin
  2
*D6
 70
     1
 10
0.0
 20
0.0
 30
0.0
  3
*D6
  1

  0
LINE
  5
3E3
330
3E2
100
AcDbEntity
  8
1
  6
Continuous
 62
     3
100
AcDbLine
 10
-1052.31709418883
 20
-462.1789175404036
 30
0.0
 11
-1052.31709418883
 21
-516.644708798077
 31
0.0
  0
LINE
  5
3E4
330
3E2
100
AcDbEntity
  8
1
  6
Continuous
 62
     3
100
AcDbLine
 10
-1188.311885194604
 20
-462.1789175404036
 30
0.0
 11
-1050.31709418883
 21
-462.1789175404036
 31
0.0
  0
LINE
  5
3E5
330
3E2
100
AcDbEntity
  8
1
  6
Continuous
 62
     3
100
AcDbLine
 10
-1178.311885194604
 20
-516.644708798077
 30
0.0
 11
-1050.31709418883
 21
-516.644708798077
 31
0.0
  0
SOLID
  5
3E6
330
3E2
100
AcDbEntity
  8
1
 62
     3
100
AcDbTrace
 10
-1051.856310447274
 20
-465.6789175404036
 30
0.0
 11
-1052.777877930386
 21
-465.6789175404036
 31
0.0
 12
-1052.31709418883
 22
-462.1789175404036
 32
0.0
 13
-1052.31709418883
 23
-462.1789175404036
 33
0.0
  0
SOLID
  5
3E7
330
3E2
100
AcDbEntity
  8
1
 62
     3
100
AcDbTrace
 10
-1052.777877930386
 20
-513.144708798077
 30
0.0
 11
-1051.856310447274
 21
-513.144708798077
 31
0.0
 12
-1052.31709418883
 22
-516.644708798077
 32
0.0
 13
-1052.31709418883
 23
-516.644708798077
 33
0.0
  0
MTEXT
  5
3E8
330
3E2
100
AcDbEntity
  8
1
 62
     4
100
AcDbMText
 10
-1054.31709418883
 20
-486.589887202821
 30
0.0
 40
3.5
 41
0.0
 71
     7
 72
     1
  1
55
  7
CONVERTER_12
 11
0.0
 21
1.0
 31
0.0
 73
     1
 44
0.60024009603842
  0
ENDBLK
  5
3EA
330
3E2
100
AcDbEntity
  8
0
100
AcDbBlockEnd
  0
BLOCK
  5
3F4
330
3ED
100
AcDbEntity
  8
0
100
AcDbBlockBegin
  2
*D7
 70
     1
 10
0.0
 20
0.0
 30
0.0
  3
*D7
  1

  0
LINE
  5
3EE
330
3ED
100
AcDbEntity
  8
1
  6
Continuous
 62
     3
100
AcDbLine
 10
-1052.31709418883
 20
-553.144708798087
 30
0.0
 11
-1052.31709418883
 21
-516.644708798077
 31
0.0
  0
LINE
  5
3EF
330
3ED
100
AcDbEntity
  8
1
  6
Continuous
 62
     3
100
AcDbLine
 10
-1178.311885194604
 20
-516.644708798077
 30
0.0
 11
-1050.31709418883
 21
-516.644708798077
 31
0.0
  0
LINE
  5
3F0
330
3ED
100
AcDbEntity
  8
1
  6
Continuous
 62
     3
100
AcDbLine
 10
-1174.311885194604
 20
-553.144708798087
 30
0.0
 11
-1050.31709418883
 21
-553.144708798087
 31
0.0
  0
SOLID
  5
3F1
330
3ED
100
AcDbEntity
  8
1
 62
     3
100
AcDbTrace
 10
-1052.777877930386
 20
-549.644708798087
 30
0.0
 11
-1051.856310447274
 21
-549.644708798087
 31
0.0
 12
-1052.31709418883
 22
-553.144708798087
 32
0.0
 13
-1052.31709418883
 23
-553.144708798087
 33
0.0
  0
SOLID
  5
3F2
330
3ED
100
AcDbEntity
  8
1
 62
     3
100
AcDbTrace
 10
-1051.856310447274
 20
-520.144708798077
 30
0.0
 11
-1052.777877930386
 21
-520.144708798077
 31
0.0
 12
-1052.31709418883
 22
-516.644708798077
 32
0.0
 13
-1052.31709418883
 23
-516.644708798077
 33
0.0
  0
MTEXT
  5
3F3
330
3ED
100
AcDbEntity
  8
1
 62
     4
100
AcDbMText
 10
-1054.31709418883
 20
-537.664078973017
 30
0.0
 40
3.5
 41
0.0
 71
     7
 72
     1
  1
37
  7
CONVERTER_12
 11
0.0
 21
1.0
 31
0.0
 73
     1
 44
0.60024009603842
  0
ENDBLK
  5
3F5
330
3ED
100
AcDbEntity
  8
0
100
AcDbBlockEnd
  0
BLOCK
  5
3FF
330
3F8
100
AcDbEntity
  8
0
100
AcDbBlockBegin
  2
*D8
 70
     1
 10
0.0
 20
0.0
 30
0.0
  3
*D8
  1

  0
LINE
  5
3F9
330
3F8
100
AcDbEntity
  8
1
  6
Continuous
 62
     3
100
AcDbLine
 10
-1178.311885194386
 20
-449.817641058071
 30
0.0
 11
-1072.031889819644
 21
-449.817641058071
 31
0.0
  0
LINE
  5
3FA
330
3F8
100
AcDbEntity
  8
1
  6
Continuous
 62
     3
100
AcDbLine
 10
-1178.311885194386
 20
-517.144708798077
 30
0.0
 11
-1178.311885194386
 21
-447.817641058071
 31
0.0
  0
LINE
  5
3FB
330
3F8
100
AcDbEntity
  8
1
  6
Continuous
 62
     3
100
AcDbLine
 10
-1072.031889819644
 20
-499.4664112188372
 30
0.0
 11
-1072.031889819644
 21
-447.817641058071
 31
0.0
  0
SOLID
  5
3FC
330
3F8
100
AcDbEntity
  8
1
 62
     3
100
AcDbTrace
 10
-1174.811885194386
 20
-449.3568573165151
 30
0.0
 11
-1174.811885194386
 21
-450.2784247996269
 31
0.0
 12
-1178.311885194386
 22
-449.817641058071
 32
0.0
 13
-1178.311885194386
 23
-449.817641058071
 33
0.0
  0
SOLID
  5
3FD
330
3F8
100
AcDbEntity
  8
1
 62
     3
100
AcDbTrace
 10
-1075.531889819644
 20
-450.2784247996269
 30
0.0
 11
-1075.531889819644
 21
-449.3568573165151
 31
0.0
 12
-1072.031889819644
 22
-449.817641058071
 32
0.0
 13
-1072.031889819644
 23
-449.817641058071
 33
0.0
  0
MTEXT
  5
3FE
330
3F8
100
AcDbEntity
  8
1
 62
     4
100
AcDbMText
 10
-1135.74236858955
 20
-447.817641058071
 30
0.0
 40
3.5
 41
0.0
 71
     7
 72
     1
  1
106
  7
CONVERTER_12
 11
0.9999999999970619
 21
2.424068405545306E-6
 31
0.0
 73
     1
 44
0.60024009603842
  0
ENDBLK
  5
400
330
3F8
100
AcDbEntity
  8
0
100
AcDbBlockEnd
  0
BLOCK
  5
40A
330
403
100
AcDbEntity
  8
0
100
AcDbBlockBegin
  2
*D9
 70
     1
 10
0.0
 20
0.0
 30
0.0
  3
*D9
  1

  0
LINE
  5
404
330
403
100
AcDbEntity
  8
1
  6
Continuous
 62
     3
100
AcDbLine
 10
-893.747424750692
 20
-484.1850471559137
 30
0.0
 11
-893.747424750692
 21
-504.1850471559137
 31
0.0
  0
LINE
  5
405
330
403
100
AcDbEntity
  8
1
  6
Continuous
 62
     3
100
AcDbLine
 10
-847.5962467554766
 20
-484.1850471559137
 30
0.0
 11
-895.747424750692
 21
-484.1850471559137
 31
0.0
  0
LINE
  5
406
330
403
100
AcDbEntity
  8
1
  6
Continuous
 62
     3
100
AcDbLine
 10
-844.5962467554666
 20
-504.1850471559137
 30
0.0
 11
-895.747424750692
 21
-504.1850471559137
 31
0.0
  0
SOLID
  5
407
330
403
100
AcDbEntity
  8
1
 62
     3
100
AcDbTrace
 10
-893.286641009136
 20
-487.6850471559137
 30
0.0
 11
-894.2082084922479
 21
-487.6850471559137
 31
0.0
 12
-893.747424750692
 22
-484.1850471559137
 32
0.0
 13
-893.747424750692
 23
-484.1850471559137
 33
0.0
  0
SOLID
  5
408
330
403
100
AcDbEntity
  8
1
 62
     3
100
AcDbTrace
 10
-894.2082084922479
 20
-500.6850471559137
 30
0.0
 11
-893.286641009136
 21
-500.6850471559137
 31
0.0
 12
-893.747424750692
 22
-504.1850471559137
 32
0.0
 13
-893.747424750692
 23
-504.1850471559137
 33
0.0
  0
MTEXT
  5
409
330
403
100
AcDbEntity
  8
1
 62
     4
100
AcDbMText
 10
-895.747424750692
 20
-495.187440049775
 30
0.0
 40
3.5
 41
0.0
 71
     7
 72
     1
  1
20
  7
CONVERTER_12
 11
0.0
 21
1.0
 31
0.0
 73
     1
 44
0.60024009603842
  0
ENDBLK
  5
40B
330
403
100
AcDbEntity
  8
0
100
AcDbBlockEnd
  0
BLOCK
  5
415
330
40E
100
AcDbEntity
  8
0
100
AcDbBlockBegin
  2
*D10
 70
     1
 10
0.0
 20
0.0
 30
0.0
  3
*D10
  1

  0
LINE
  5
40F
330
40E
100
AcDbEntity
  8
1
  6
Continuous
 62
     3
100
AcDbLine
 10
-893.747424750692
 20
-504.1850471559137
 30
0.0
 11
-893.747424750692
 21
-531.7563758231454
 31
0.0
  0
LINE
  5
410
330
40E
100
AcDbEntity
  8
1
  6
Continuous
 62
     3
100
AcDbLine
 10
-844.5962467554666
 20
-504.1850471559137
 30
0.0
 11
-895.747424750692
 21
-504.1850471559137
 31
0.0
  0
LINE
  5
411
330
40E
100
AcDbEntity
  8
1
  6
Continuous
 62
     3
100
AcDbLine
 10
-844.5962467554666
 20
-531.7563758231454
 30
0.0
 11
-895.747424750692
 21
-531.7563758231454
 31
0.0
  0
SOLID
  5
412
330
40E
100
AcDbEntity
  8
1
 62
     3
100
AcDbTrace
 10
-893.286641009136
 20
-507.6850471559137
 30
0.0
 11
-894.2082084922479
 21
-507.6850471559137
 31
0.0
 12
-893.747424750692
 22
-504.1850471559137
 32
0.0
 13
-893.747424750692
 23
-504.1850471559137
 33
0.0
  0
SOLID
  5
413
330
40E
100
AcDbEntity
  8
1
 62
     3
100
AcDbTrace
 10
-894.2082084922479
 20
-528.2563758231454
 30
0.0
 11
-893.286641009136
 21
-528.2563758231454
 31
0.0
 12
-893.747424750692
 22
-531.7563758231454
 32
0.0
 13
-893.747424750692
 23
-531.7563758231454
 33
0.0
  0
MTEXT
  5
414
330
40E
100
AcDbEntity
  8
1
 62
     4
100
AcDbMText
 10
-895.747424750692
 20
-521.822069680572
 30
0.0
 40
3.5
 41
0.0
 71
     7
 72
     1
  1
\C4;(\C4;28\C4;)
  7
CONVERTER_12
 11
0.0
 21
1.0
 31
0.0
 73
     1
 44
0.60024009603842
  0
ENDBLK
  5
416
330
40E
100
AcDbEntity
  8
0
100
AcDbBlockEnd
  0
BLOCK
  5
420
330
419
100
AcDbEntity
  8
0
100
AcDbBlockBegin
  2
*D11
 70
     1
 10
0.0
 20
0.0
 30
0.0
  3
*D11
  1

  0
LINE
  5
41A
330
419
100
AcDbEntity
  8
1
  6
Continuous
 62
     3
100
AcDbLine
 10
-844.5962467554666
 20
-455.756658989494
 30
0.0
 11
-750.6087802175862
 21
-455.756658989494
 31
0.0
  0
LINE
  5
41B
330
419
100
AcDbEntity
  8
1
  6
Continuous
 62
     3
100
AcDbLine
 10
-750.6087802175862
 20
-504.8628985210514
 30
0.0
 11
-750.6087802175862
 21
-453.756658989494
 31
0.0
  0
LINE
  5
41C
330
419
100
AcDbEntity
  8
1
  6
Continuous
 62
     3
100
AcDbLine
 10
-844.5962467554666
 20
-504.1850471559137
 30
0.0
 11
-844.5962467554666
 21
-453.756658989494
 31
0.0
  0
SOLID
  5
41D
330
419
100
AcDbEntity
  8
1
 62
     3
100
AcDbTrace
 10
-841.0962467554666
 20
-455.2958752479381
 30
0.0
 11
-841.0962467554666
 21
-456.2174427310499
 31
0.0
 12
-844.5962467554666
 22
-455.756658989494
 32
0.0
 13
-844.5962467554666
 23
-455.756658989494
 33
0.0
  0
SOLID
  5
41E
330
419
100
AcDbEntity
  8
1
 62
     3
100
AcDbTrace
 10
-754.1087802175862
 20
-456.2174427310499
 30
0.0
 11
-754.1087802175862
 21
-455.2958752479381
 31
0.0
 12
-750.6087802175862
 22
-455.756658989494
 32
0.0
 13
-750.6087802175862
 23
-455.756658989494
 33
0.0
  0
MTEXT
  5
41F
330
419
100
AcDbEntity
  8
1
 62
     4
100
AcDbMText
 10
-801.695020886087
 20
-453.756658989494
 30
0.0
 40
3.5
 41
0.0
 71
     7
 72
     1
  1
95
  7
CONVERTER_12
 11
0.9999999999970619
 21
2.424068405545306E-6
 31
0.0
 73
     1
 44
0.60024009603842
  0
ENDBLK
  5
421
330
419
100
AcDbEntity
  8
0
100
AcDbBlockEnd
  0
BLOCK
  5
42B
330
424
100
AcDbEntity
  8
0
100
AcDbBlockBegin
  2
*D12
 70
     1
 10
0.0
 20
0.0
 30
0.0
  3
*D12
  1

  0
LINE
  5
425
330
424
100
AcDbEntity
  8
1
  6
Continuous
 62
     3
100
AcDbLine
 10
-900.758378117041
 20
-539.1850471559137
 30
0.0
 11
-900.758378117041
 21
-504.1850471559137
 31
0.0
  0
LINE
  5
426
330
424
100
AcDbEntity
  8
1
  6
Continuous
 62
     3
100
AcDbLine
 10
-844.5962467554666
 20
-539.1850471559137
 30
0.0
 11
-902.758378117041
 21
-539.1850471559137
 31
0.0
  0
LINE
  5
427
330
424
100
AcDbEntity
  8
1
  6
Continuous
 62
     3
100
AcDbLine
 10
-844.5962467554666
 20
-504.1850471559137
 30
0.0
 11
-902.758378117041
 21
-504.1850471559137
 31
0.0
  0
SOLID
  5
428
330
424
100
AcDbEntity
  8
1
 62
     3
100
AcDbTrace
 10
-901.219161858597
 20
-535.6850471559137
 30
0.0
 11
-900.2975943754851
 21
-535.6850471559137
 31
0.0
 12
-900.758378117041
 22
-539.1850471559137
 32
0.0
 13
-900.758378117041
 23
-539.1850471559137
 33
0.0
  0
SOLID
  5
429
330
424
100
AcDbEntity
  8
1
 62
     3
100
AcDbTrace
 10
-900.2975943754851
 20
-507.6850471559137
 30
0.0
 11
-901.219161858597
 21
-507.6850471559137
 31
0.0
 12
-900.758378117041
 22
-504.1850471559137
 32
0.0
 13
-900.758378117041
 23
-504.1850471559137
 33
0.0
  0
MTEXT
  5
42A
330
424
100
AcDbEntity
  8
1
 62
     4
100
AcDbMText
 10
-902.758378117041
 20
-519.036374538705
 30
0.0
 40
3.5
 41
0.0
 71
     7
 72
     1
  1
35
  7
CONVERTER_12
 11
0.0
 21
1.0
 31
0.0
 73
     1
 44
0.60024009603842
  0
ENDBLK
  5
42C
330
424
100
AcDbEntity
  8
0
100
AcDbBlockEnd
  0
ENDSEC
  0
SECTION
  2
ENTITIES
  0
INSERT
  5
76
330
1F
100
AcDbEntity
  8
0
100
AcDbBlockReference
  2
45140-9-0950_03__2
 10
-930.399912770167
 20
-397.7444029799372
 30
0.0
  0
INSERT
  5
77
330
1F
100
AcDbEntity
  8
0
100
AcDbBlockReference
  2
45140-9-0950_03__3
 10
100498.745584785
 20
101900.0
 30
0.0
  0
POINT
  5
90
330
1F
100
AcDbEntity
  8
1
 62
     3
 60
     1
100
AcDbPoint
 10
-1115.36746399086
 20
-298.253680069938
 30
0.0
  0
POINT
  5
91
330
1F
100
AcDbEntity
  8
1
 62
     3
 60
     1
100
AcDbPoint
 10
-697.36746399086
 20
-703.253680069938
 30
0.0
  0
POINT
  5
92
330
1F
100
AcDbEntity
  8
1
 62
     3
 60
     1
100
AcDbPoint
 10
-1003.647109595742
 20
-568.429321920049
 30
0.0
  0
POINT
  5
93
330
1F
100
AcDbEntity
  8
1
 62
     3
 60
     1
100
AcDbPoint
 10
-981.8721069496553
 20
-568.429319650882
 30
0.0
  0
POINT
  5
94
330
1F
100
AcDbEntity
  8
1
 62
     3
 60
     1
100
AcDbPoint
 10
-177.626786259522
 20
-211.7310663982495
 30
0.0
  0
POINT
  5
95
330
1F
100
AcDbEntity
  8
1
 62
     3
 60
     1
100
AcDbPoint
 10
-997.3388134449359
 20
-98.429321920049
 30
0.0
  0
POINT
  5
96
330
1F
100
AcDbEntity
  8
1
 62
     3
 60
     1
100
AcDbPoint
 10
-1019.113816091023
 20
-98.42931965088201
 30
0.0
  0
POINT
  5
97
330
1F
100
AcDbEntity
  8
1
 62
     3
 60
     1
100
AcDbPoint
 10
-828.747883008478
 20
-87.63196928871707
 30
0.0
  0
LINE
  5
98
330
1F
100
AcDbEntity
  8
0
  6
Continuous
 62
     7
100
AcDbLine
 10
-1019.330561275694
 20
-564.6850471347716
 30
0.0
 11
-1019.311884953246
 21
-564.6850471347716
 31
0.0
  0
LINE
  5
99
330
1F
100
AcDbEntity
  8
0
  6
Continuous
 62
     7
100
AcDbLine
 10
-1165.330561337976
 20
-565.6850472570368
 30
0.0
 11
-1165.311885015542
 21
-565.6850472570368
 31
0.0
  0
LINE
  5
9A
330
1F
100
AcDbEntity
  8
25
  6
Continuous
 62
     3
100
AcDbLine
 10
-1212.678766567258
 20
-561.217358711786
 30
0.0
 11
-1211.343033389419
 21
-561.0175020433809
 31
0.0
  0
LINE
  5
9B
330
1F
100
AcDbEntity
  8
25
  6
Continuous
 62
     3
100
AcDbLine
 10
-1211.343033389419
 20
-561.0175020433809
 30
0.0
 11
-1210.026019194118
 21
-560.8213206447828
 31
0.0
  0
LINE
  5
9C
330
1F
100
AcDbEntity
  8
25
  6
Continuous
 62
     3
100
AcDbLine
 10
-1210.026019194118
 20
-560.8213206447828
 30
0.0
 11
-1208.735746404518
 21
-560.6425132461874
 31
0.0
  0
LINE
  5
9D
330
1F
100
AcDbEntity
  8
25
  6
Continuous
 62
     3
100
AcDbLine
 10
-1208.735746404518
 20
-560.6425132461874
 30
0.0
 11
-1207.480237443755
 21
-560.4947785772812
 31
0.0
  0
LINE
  5
9E
330
1F
100
AcDbEntity
  8
25
  6
Continuous
 62
     3
100
AcDbLine
 10
-1207.480237443755
 20
-560.4947785772812
 30
0.0
 11
-1206.267514734993
 21
-560.3918153683763
 31
0.0
  0
LINE
  5
9F
330
1F
100
AcDbEntity
  8
25
  6
Continuous
 62
     3
100
AcDbLine
 10
-1206.267514734993
 20
-560.3918153683763
 30
0.0
 11
-1205.10560070141
 21
-560.3473223492757
 31
0.0
  0
LINE
  5
A0
330
1F
100
AcDbEntity
  8
25
  6
Continuous
 62
     3
100
AcDbLine
 10
-1205.10560070141
 20
-560.3473223492757
 30
0.0
 11
-1203.996445238501
 21
-560.3693182883864
 31
0.0
  0
LINE
  5
A1
330
1F
100
AcDbEntity
  8
25
  6
Continuous
 62
     3
100
AcDbLine
 10
-1203.996445238501
 20
-560.3693182883864
 30
0.0
 11
-1202.917708131279
 21
-560.443102108081
 31
0.0
  0
LINE
  5
A2
330
1F
100
AcDbEntity
  8
25
  6
Continuous
 62
     3
100
AcDbLine
 10
-1202.917708131279
 20
-560.443102108081
 30
0.0
 11
-1201.840976637088
 21
-560.5482927692784
 31
0.0
  0
LINE
  5
A3
330
1F
100
AcDbEntity
  8
25
  6
Continuous
 62
     3
100
AcDbLine
 10
-1201.840976637088
 20
-560.5482927692784
 30
0.0
 11
-1200.7378380133
 21
-560.6645092327809
 31
0.0
  0
LINE
  5
A4
330
1F
100
AcDbEntity
  8
25
  6
Continuous
 62
     3
100
AcDbLine
 10
-1200.7378380133
 20
-560.6645092327809
 30
0.0
 11
-1199.579879517272
 21
-560.771370459289
 31
0.0
  0
LINE
  5
A5
330
1F
100
AcDbEntity
  8
25
  6
Continuous
 62
     3
100
AcDbLine
 10
-1199.579879517272
 20
-560.771370459289
 30
0.0
 11
-1198.338688406349
 21
-560.8484954097795
 31
0.0
  0
LINE
  5
A6
330
1F
100
AcDbEntity
  8
25
  6
Continuous
 62
     3
100
AcDbLine
 10
-1198.338688406349
 20
-560.8484954097795
 30
0.0
 11
-1196.985851937889
 21
-560.8755030449821
 31
0.0
  0
LINE
  5
A7
330
1F
100
AcDbEntity
  8
25
  6
Continuous
 62
     3
100
AcDbLine
 10
-1196.985851937889
 20
-560.8755030449821
 30
0.0
 11
-1195.492957369263
 21
-560.8320123256846
 31
0.0
  0
LINE
  5
A8
330
1F
100
AcDbEntity
  8
25
  6
Continuous
 62
     3
100
AcDbLine
 10
-1195.492957369263
 20
-560.8320123256846
 30
0.0
 11
-1193.831814801915
 21
-560.709614682578
 31
0.0
  0
LINE
  5
A9
330
1F
100
AcDbEntity
  8
25
  6
Continuous
 62
     3
100
AcDbLine
 10
-1193.831814801915
 20
-560.709614682578
 30
0.0
 11
-1191.975125713592
 21
-560.5477914252834
 31
0.0
  0
LINE
  5
AA
330
1F
100
AcDbEntity
  8
25
  6
Continuous
 62
     3
100
AcDbLine
 10
-1191.975125713592
 20
-560.5477914252834
 30
0.0
 11
-1189.89581442614
 21
-560.3979963331795
 31
0.0
  0
LINE
  5
AB
330
1F
100
AcDbEntity
  8
25
  6
Continuous
 62
     3
100
AcDbLine
 10
-1189.89581442614
 20
-560.3979963331795
 30
0.0
 11
-1187.566805261404
 21
-560.3116831856888
 31
0.0
  0
LINE
  5
AC
330
1F
100
AcDbEntity
  8
25
  6
Continuous
 62
     3
100
AcDbLine
 10
-1187.566805261404
 20
-560.3116831856888
 30
0.0
 11
-1184.961022541231
 21
-560.3403057621755
 31
0.0
  0
LINE
  5
AD
330
1F
100
AcDbEntity
  8
25
  6
Continuous
 62
     3
100
AcDbLine
 10
-1184.961022541231
 20
-560.3403057621755
 30
0.0
 11
-1182.051390587467
 21
-560.5353178420766
 31
0.0
  0
LINE
  5
AE
330
1F
100
AcDbEntity
  8
25
  6
Continuous
 62
     3
100
AcDbLine
 10
-1182.051390587467
 20
-560.5353178420766
 30
0.0
 11
-1178.810833721958
 21
-560.9481732048872
 31
0.0
  0
LINE
  5
AF
330
1F
100
AcDbEntity
  8
25
  6
Continuous
 62
     3
100
AcDbLine
 10
-1178.810833721958
 20
-560.9481732048872
 30
0.0
 11
-1178.311885194604
 21
-561.0427552566827
 31
0.0
  0
LINE
  5
B0
330
1F
100
AcDbEntity
  8
25
  6
Continuous
 62
     3
100
AcDbLine
 10
-1189.888023984704
 20
-458.5073187618829
 30
0.0
 11
-1191.143532945467
 21
-458.6550534306871
 31
0.0
  0
LINE
  5
B1
330
1F
100
AcDbEntity
  8
25
  6
Continuous
 62
     3
100
AcDbLine
 10
-1188.59775119509
 20
-458.3285113632875
 30
0.0
 11
-1189.888023984704
 21
-458.5073187618829
 31
0.0
  0
LINE
  5
B2
330
1F
100
AcDbEntity
  8
25
  6
Continuous
 62
     3
100
AcDbLine
 10
-1187.280736999788
 20
-458.1323299646894
 30
0.0
 11
-1188.59775119509
 21
-458.3285113632875
 31
0.0
  0
LINE
  5
B3
330
1F
100
AcDbEntity
  8
50
  6
Continuous
 62
     3
100
AcDbLine
 10
-1220.311885194604
 20
-544.9301564396875
 30
0.0
 11
-1217.311885194604
 21
-544.9301564396875
 31
0.0
  0
LINE
  5
B4
330
1F
100
AcDbEntity
  8
50
  6
Continuous
 62
     3
100
AcDbLine
 10
-1220.311885194604
 20
-544.9301564396875
 30
0.0
 11
-1220.311885194604
 21
-494.9931564396821
 31
0.0
  0
LINE
  5
B5
330
1F
100
AcDbEntity
  8
50
  6
Continuous
 62
     3
100
AcDbLine
 10
-1181.311885194604
 20
-536.644708798077
 30
0.0
 11
-1181.311885194604
 21
-516.644708798077
 31
0.0
  0
LINE
  5
B6
330
1F
100
AcDbEntity
  8
50
  6
Continuous
 62
     3
100
AcDbLine
 10
-1217.311885194604
 20
-524.9301564396874
 30
0.0
 11
-1217.311885194604
 21
-544.9301564396875
 31
0.0
  0
LINE
  5
B7
330
1F
100
AcDbEntity
  8
50
  6
Continuous
 62
     3
100
AcDbLine
 10
-1188.311885194604
 20
-458.2859289886829
 30
0.0
 11
-1188.311885194604
 21
-524.9301564396874
 31
0.0
  0
LINE
  5
B8
330
1F
100
AcDbEntity
  8
50
  6
Continuous
 62
     3
100
AcDbLine
 10
-1188.311885194604
 20
-524.9301564396874
 30
0.0
 11
-1217.311885194604
 21
-524.9301564396874
 31
0.0
  0
LINE
  5
B9
330
1F
100
AcDbEntity
  8
50
  6
Continuous
 62
     3
100
AcDbLine
 10
-1220.311885194604
 20
-544.9301564396875
 30
0.0
 11
-1220.311885194604
 21
-458.1070767513875
 31
0.0
  0
LINE
  5
BA
330
1F
100
AcDbEntity
  8
25
  6
Continuous
 62
     3
100
AcDbLine
 10
-1191.143532945467
 20
-458.6550534306871
 30
0.0
 11
-1192.356255654229
 21
-458.7580166396793
 31
0.0
  0
LINE
  5
BB
330
1F
100
AcDbEntity
  8
25
  6
Continuous
 62
     3
100
AcDbLine
 10
-1192.356255654229
 20
-458.7580166396793
 30
0.0
 11
-1193.518169687812
 21
-458.80250965878
 31
0.0
  0
LINE
  5
BC
330
1F
100
AcDbEntity
  8
25
  6
Continuous
 62
     3
100
AcDbLine
 10
-1193.518169687812
 20
-458.80250965878
 30
0.0
 11
-1194.627325150721
 21
-458.7805137196838
 31
0.0
  0
LINE
  5
BD
330
1F
100
AcDbEntity
  8
25
  6
Continuous
 62
     3
100
AcDbLine
 10
-1194.627325150721
 20
-458.7805137196838
 30
0.0
 11
-1195.706062257943
 21
-458.7067298998874
 31
0.0
  0
LINE
  5
BE
330
1F
100
AcDbEntity
  8
25
  6
Continuous
 62
     3
100
AcDbLine
 10
-1195.706062257943
 20
-458.7067298998874
 30
0.0
 11
-1196.78279375212
 21
-458.6015392386755
 31
0.0
  0
LINE
  5
BF
330
1F
100
AcDbEntity
  8
25
  6
Continuous
 62
     3
100
AcDbLine
 10
-1196.78279375212
 20
-458.6015392386755
 30
0.0
 11
-1197.885932375908
 21
-458.4853227752894
 31
0.0
  0
LINE
  5
C0
330
1F
100
AcDbEntity
  8
25
  6
Continuous
 62
     3
100
AcDbLine
 10
-1197.885932375908
 20
-458.4853227752894
 30
0.0
 11
-1199.04389087195
 21
-458.3784615486795
 31
0.0
  0
LINE
  5
C1
330
1F
100
AcDbEntity
  8
25
  6
Continuous
 62
     3
100
AcDbLine
 10
-1199.04389087195
 20
-458.3784615486795
 30
0.0
 11
-1200.285081982873
 21
-458.3013365982761
 31
0.0
  0
LINE
  5
C2
330
1F
100
AcDbEntity
  8
25
  6
Continuous
 62
     3
100
AcDbLine
 10
-1200.285081982873
 20
-458.3013365982761
 30
0.0
 11
-1201.637918451334
 21
-458.2743289630881
 31
0.0
  0
LINE
  5
C3
330
1F
100
AcDbEntity
  8
25
  6
Continuous
 62
     3
100
AcDbLine
 10
-1201.637918451334
 20
-458.2743289630881
 30
0.0
 11
-1203.130813019945
 21
-458.3178196822839
 31
0.0
  0
LINE
  5
C4
330
1F
100
AcDbEntity
  8
25
  6
Continuous
 62
     3
100
AcDbLine
 10
-1203.130813019945
 20
-458.3178196822839
 30
0.0
 11
-1204.791955587307
 21
-458.4402173253757
 31
0.0
  0
LINE
  5
C5
330
1F
100
AcDbEntity
  8
25
  6
Continuous
 62
     3
100
AcDbLine
 10
-1204.791955587307
 20
-458.4402173253757
 30
0.0
 11
-1206.64864467563
 21
-458.6020405827869
 31
0.0
  0
LINE
  5
C6
330
1F
100
AcDbEntity
  8
25
  6
Continuous
 62
     3
100
AcDbLine
 10
-1206.64864467563
 20
-458.6020405827869
 30
0.0
 11
-1208.727955963082
 21
-458.7518356748761
 31
0.0
  0
LINE
  5
C7
330
1F
100
AcDbEntity
  8
25
  6
Continuous
 62
     3
100
AcDbLine
 10
-1208.727955963082
 20
-458.7518356748761
 30
0.0
 11
-1211.056965127818
 21
-458.8381488223815
 31
0.0
  0
LINE
  5
C8
330
1F
100
AcDbEntity
  8
25
  6
Continuous
 62
     3
100
AcDbLine
 10
-1211.056965127818
 20
-458.8381488223815
 30
0.0
 11
-1213.662747847977
 21
-458.8095262458801
 31
0.0
  0
LINE
  5
C9
330
1F
100
AcDbEntity
  8
25
  6
Continuous
 62
     3
100
AcDbLine
 10
-1213.662747847977
 20
-458.8095262458801
 30
0.0
 11
-1216.572379801741
 21
-458.6145141658773
 31
0.0
  0
LINE
  5
CA
330
1F
100
AcDbEntity
  8
25
  6
Continuous
 62
     3
100
AcDbLine
 10
-1216.572379801741
 20
-458.6145141658773
 30
0.0
 11
-1219.812936667264
 21
-458.201658803183
 31
0.0
  0
LINE
  5
CB
330
1F
100
AcDbEntity
  8
25
  6
Continuous
 62
     3
100
AcDbLine
 10
-1219.812936667264
 20
-458.201658803183
 30
0.0
 11
-1220.311885194604
 21
-458.1070767513875
 31
0.0
  0
LINE
  5
CC
330
1F
100
AcDbEntity
  8
50
  6
Continuous
 62
     3
100
AcDbLine
 10
-1181.311885194604
 20
-536.644708798077
 30
0.0
 11
-1210.311885194604
 21
-536.644708798077
 31
0.0
  0
LINE
  5
CD
330
1F
100
AcDbEntity
  8
50
  6
Continuous
 62
     3
100
AcDbLine
 10
-1210.311885194604
 20
-560.8639030193873
 30
0.0
 11
-1210.311885194604
 21
-536.644708798077
 31
0.0
  0
LINE
  5
CE
330
1F
100
AcDbEntity
  8
50
  6
Continuous
 62
     3
100
AcDbLine
 10
-1178.311885194604
 20
-516.644708798077
 30
0.0
 11
-1181.311885194604
 21
-516.644708798077
 31
0.0
  0
LINE
  5
CF
330
1F
100
AcDbEntity
  8
0
  6
Continuous
 62
     2
100
AcDbLine
 10
-950.7999041239509
 20
-397.7444029799372
 30
0.0
 11
-950.7999041239509
 21
-580.7444029799371
 31
0.0
  0
LINE
  5
D0
330
1F
100
AcDbEntity
  8
0
  6
Continuous
 62
     2
100
AcDbLine
 10
-1237.799904123951
 20
-397.7444029799372
 30
0.0
 11
-1237.799904123951
 21
-580.7444029799371
 31
0.0
  0
LINE
  5
D1
330
1F
100
AcDbEntity
  8
0
  6
Continuous
 62
     2
100
AcDbLine
 10
-1237.799904123951
 20
-397.7444029799372
 30
0.0
 11
-950.7999041239509
 21
-397.7444029799372
 31
0.0
  0
LINE
  5
D2
330
1F
100
AcDbEntity
  8
0
  6
Continuous
 62
     2
100
AcDbLine
 10
-1237.799904123951
 20
-580.7444029799371
 30
0.0
 11
-950.7999041239509
 21
-580.7444029799371
 31
0.0
  0
LINE
  5
D3
330
1F
100
AcDbEntity
  8
0
  6
Continuous
 62
     7
100
AcDbLine
 10
-712.330561275696
 20
-564.6850471347716
 30
0.0
 11
-712.311884953248
 21
-564.6850471347716
 31
0.0
  0
LINE
  5
D4
330
1F
100
AcDbEntity
  8
50
  6
Continuous
 62
     3
100
AcDbLine
 10
-844.5962467554666
 20
-504.1850471559137
 30
0.0
 11
-844.5962467554666
 21
-538.6970139261227
 31
0.0
  0
LINE
  5
D5
330
1F
100
AcDbEntity
  8
25
  6
Continuous
 62
     3
100
AcDbLine
 10
-880.1631286830693
 20
-553.7576970696227
 30
0.0
 11
-878.8273955052302
 21
-553.5578404012167
 31
0.0
  0
LINE
  5
D6
330
1F
100
AcDbEntity
  8
25
  6
Continuous
 62
     3
100
AcDbLine
 10
-878.8273955052302
 20
-553.5578404012167
 30
0.0
 11
-877.5103813099292
 21
-553.3616590026188
 31
0.0
  0
LINE
  5
D7
330
1F
100
AcDbEntity
  8
25
  6
Continuous
 62
     3
100
AcDbLine
 10
-877.5103813099292
 20
-553.3616590026188
 30
0.0
 11
-876.2201085203292
 21
-553.1828516040237
 31
0.0
  0
LINE
  5
D8
330
1F
100
AcDbEntity
  8
25
  6
Continuous
 62
     3
100
AcDbLine
 10
-876.2201085203292
 20
-553.1828516040237
 30
0.0
 11
-874.9645995595663
 21
-553.0351169351177
 31
0.0
  0
LINE
  5
D9
330
1F
100
AcDbEntity
  8
25
  6
Continuous
 62
     3
100
AcDbLine
 10
-874.9645995595663
 20
-553.0351169351177
 30
0.0
 11
-873.7518768508044
 21
-552.9321537262126
 31
0.0
  0
LINE
  5
DA
330
1F
100
AcDbEntity
  8
25
  6
Continuous
 62
     3
100
AcDbLine
 10
-873.7518768508044
 20
-552.9321537262126
 30
0.0
 11
-872.5899628172212
 21
-552.8876607071118
 31
0.0
  0
LINE
  5
DB
330
1F
100
AcDbEntity
  8
25
  6
Continuous
 62
     3
100
AcDbLine
 10
-872.5899628172212
 20
-552.8876607071118
 30
0.0
 11
-871.4808073543122
 21
-552.9096566462226
 31
0.0
  0
LINE
  5
DC
330
1F
100
AcDbEntity
  8
25
  6
Continuous
 62
     3
100
AcDbLine
 10
-871.4808073543122
 20
-552.9096566462226
 30
0.0
 11
-870.4020702470903
 21
-552.9834404659177
 31
0.0
  0
LINE
  5
DD
330
1F
100
AcDbEntity
  8
25
  6
Continuous
 62
     3
100
AcDbLine
 10
-870.4020702470903
 20
-552.9834404659177
 30
0.0
 11
-869.3253387528994
 21
-553.0886311271147
 31
0.0
  0
LINE
  5
DE
330
1F
100
AcDbEntity
  8
25
  6
Continuous
 62
     3
100
AcDbLine
 10
-869.3253387528994
 20
-553.0886311271147
 30
0.0
 11
-868.2222001291102
 21
-553.2048475906176
 31
0.0
  0
LINE
  5
DF
330
1F
100
AcDbEntity
  8
25
  6
Continuous
 62
     3
100
AcDbLine
 10
-868.2222001291102
 20
-553.2048475906176
 30
0.0
 11
-867.0642416330834
 21
-553.3117088171257
 31
0.0
  0
LINE
  5
E0
330
1F
100
AcDbEntity
  8
25
  6
Continuous
 62
     3
100
AcDbLine
 10
-867.0642416330834
 20
-553.3117088171257
 30
0.0
 11
-865.8230505221602
 21
-553.3888337676158
 31
0.0
  0
LINE
  5
E1
330
1F
100
AcDbEntity
  8
25
  6
Continuous
 62
     3
100
AcDbLine
 10
-865.8230505221602
 20
-553.3888337676158
 30
0.0
 11
-864.4702140536992
 21
-553.4158414028186
 31
0.0
  0
LINE
  5
E2
330
1F
100
AcDbEntity
  8
25
  6
Continuous
 62
     3
100
AcDbLine
 10
-864.4702140536992
 20
-553.4158414028186
 30
0.0
 11
-862.9773194850734
 21
-553.3723506835208
 31
0.0
  0
LINE
  5
E3
330
1F
100
AcDbEntity
  8
25
  6
Continuous
 62
     3
100
AcDbLine
 10
-862.9773194850734
 20
-553.3723506835208
 30
0.0
 11
-861.3161769177264
 21
-553.2499530404148
 31
0.0
  0
LINE
  5
E4
330
1F
100
AcDbEntity
  8
25
  6
Continuous
 62
     3
100
AcDbLine
 10
-861.3161769177264
 20
-553.2499530404148
 30
0.0
 11
-859.4594878294033
 21
-553.0881297831197
 31
0.0
  0
LINE
  5
E5
330
1F
100
AcDbEntity
  8
25
  6
Continuous
 62
     3
100
AcDbLine
 10
-859.4594878294033
 20
-553.0881297831197
 30
0.0
 11
-857.3801765419503
 21
-552.9383346910158
 31
0.0
  0
LINE
  5
E6
330
1F
100
AcDbEntity
  8
25
  6
Continuous
 62
     3
100
AcDbLine
 10
-857.3801765419503
 20
-552.9383346910158
 30
0.0
 11
-855.0511673772153
 21
-552.8520215435246
 31
0.0
  0
LINE
  5
E7
330
1F
100
AcDbEntity
  8
25
  6
Continuous
 62
     3
100
AcDbLine
 10
-855.0511673772153
 20
-552.8520215435246
 30
0.0
 11
-852.4453846570423
 21
-552.8806441200118
 31
0.0
  0
LINE
  5
E8
330
1F
100
AcDbEntity
  8
25
  6
Continuous
 62
     3
100
AcDbLine
 10
-852.4453846570423
 20
-552.8806441200118
 30
0.0
 11
-849.5357527032784
 21
-553.0756561999128
 31
0.0
  0
LINE
  5
E9
330
1F
100
AcDbEntity
  8
25
  6
Continuous
 62
     3
100
AcDbLine
 10
-849.5357527032784
 20
-553.0756561999128
 30
0.0
 11
-845.0951952828204
 21
-553.4885115627237
 31
0.0
  0
LINE
  5
EA
330
1F
100
AcDbEntity
  8
25
  6
Continuous
 62
     3
100
AcDbLine
 10
-845.0951952828204
 20
-553.4885115627237
 30
0.0
 11
-844.5962467554666
 21
-553.5830936145187
 31
0.0
  0
LINE
  5
EB
330
1F
100
AcDbEntity
  8
25
  6
Continuous
 62
     3
100
AcDbLine
 10
-856.1723855455764
 20
-473.0476571197187
 30
0.0
 11
-857.4278945063393
 21
-473.1953917885237
 31
0.0
  0
LINE
  5
EC
330
1F
100
AcDbEntity
  8
25
  6
Continuous
 62
     3
100
AcDbLine
 10
-854.8821127559613
 20
-472.8688497211238
 30
0.0
 11
-856.1723855455764
 21
-473.0476571197187
 31
0.0
  0
LINE
  5
ED
330
1F
100
AcDbEntity
  8
25
  6
Continuous
 62
     3
100
AcDbLine
 10
-854.7650991155992
 20
-472.6726683225256
 30
0.0
 11
-854.8821127559613
 21
-472.8688497211238
 31
0.0
  0
LINE
  5
EE
330
1F
100
AcDbEntity
  8
50
  6
Continuous
 62
     3
100
AcDbLine
 10
-887.7962473104153
 20
-532.4704947975238
 30
0.0
 11
-884.7962473104153
 21
-532.4704947975238
 31
0.0
  0
LINE
  5
EF
330
1F
100
AcDbEntity
  8
50
  6
Continuous
 62
     3
100
AcDbLine
 10
-887.7962473104153
 20
-532.4704947975238
 30
0.0
 11
-887.7962473104153
 21
-482.5334947975187
 31
0.0
  0
LINE
  5
F0
330
1F
100
AcDbEntity
  8
50
  6
Continuous
 62
     3
100
AcDbLine
 10
-848.7962473104153
 20
-524.1850471559137
 30
0.0
 11
-848.7962473104153
 21
-504.1850471559137
 31
0.0
  0
LINE
  5
F1
330
1F
100
AcDbEntity
  8
50
  6
Continuous
 62
     3
100
AcDbLine
 10
-884.7962473104153
 20
-512.4704947975238
 30
0.0
 11
-884.7962473104153
 21
-532.4704947975238
 31
0.0
  0
LINE
  5
F2
330
1F
100
AcDbEntity
  8
50
  6
Continuous
 62
     3
100
AcDbLine
 10
-854.5962467554764
 20
-472.8262673465197
 30
0.0
 11
-854.5962467554764
 21
-512.4704947975238
 31
0.0
  0
LINE
  5
F3
330
1F
100
AcDbEntity
  8
50
  6
Continuous
 62
     3
100
AcDbLine
 10
-854.5962467554764
 20
-512.4704947975238
 30
0.0
 11
-884.7962473104153
 21
-512.4704947975238
 31
0.0
  0
LINE
  5
F4
330
1F
100
AcDbEntity
  8
50
  6
Continuous
 62
     3
100
AcDbLine
 10
-887.7962473104153
 20
-532.4704947975238
 30
0.0
 11
-887.7962473104153
 21
-472.6474151092237
 31
0.0
  0
LINE
  5
F5
330
1F
100
AcDbEntity
  8
25
  6
Continuous
 62
     3
100
AcDbLine
 10
-857.4278945063393
 20
-473.1953917885237
 30
0.0
 11
-858.6406172151012
 21
-473.2983549975156
 31
0.0
  0
LINE
  5
F6
330
1F
100
AcDbEntity
  8
25
  6
Continuous
 62
     3
100
AcDbLine
 10
-858.6406172151012
 20
-473.2983549975156
 30
0.0
 11
-859.8025312486843
 21
-473.3428480166167
 31
0.0
  0
LINE
  5
F7
330
1F
100
AcDbEntity
  8
25
  6
Continuous
 62
     3
100
AcDbLine
 10
-859.8025312486843
 20
-473.3428480166167
 30
0.0
 11
-860.9116867115933
 21
-473.3208520775197
 31
0.0
  0
LINE
  5
F8
330
1F
100
AcDbEntity
  8
25
  6
Continuous
 62
     3
100
AcDbLine
 10
-860.9116867115933
 20
-473.3208520775197
 30
0.0
 11
-863.1904243737542
 21
-473.2470682577237
 31
0.0
  0
LINE
  5
F9
330
1F
100
AcDbEntity
  8
25
  6
Continuous
 62
     3
100
AcDbLine
 10
-863.1904243737542
 20
-473.2470682577237
 30
0.0
 11
-864.2671558679313
 21
-473.1418775965117
 31
0.0
  0
LINE
  5
FA
330
1F
100
AcDbEntity
  8
25
  6
Continuous
 62
     3
100
AcDbLine
 10
-864.2671558679313
 20
-473.1418775965117
 30
0.0
 11
-865.3702944917193
 21
-473.0256611331258
 31
0.0
  0
LINE
  5
FB
330
1F
100
AcDbEntity
  8
25
  6
Continuous
 62
     3
100
AcDbLine
 10
-865.3702944917193
 20
-473.0256611331258
 30
0.0
 11
-866.5282529877613
 21
-472.9187999065157
 31
0.0
  0
LINE
  5
FC
330
1F
100
AcDbEntity
  8
25
  6
Continuous
 62
     3
100
AcDbLine
 10
-866.5282529877613
 20
-472.9187999065157
 30
0.0
 11
-867.7694440986843
 21
-472.8416749561127
 31
0.0
  0
LINE
  5
FD
330
1F
100
AcDbEntity
  8
25
  6
Continuous
 62
     3
100
AcDbLine
 10
-867.7694440986843
 20
-472.8416749561127
 30
0.0
 11
-869.1222805671443
 21
-472.8146673209247
 31
0.0
  0
LINE
  5
FE
330
1F
100
AcDbEntity
  8
25
  6
Continuous
 62
     3
100
AcDbLine
 10
-869.1222805671443
 20
-472.8146673209247
 30
0.0
 11
-870.6151751357563
 21
-472.8581580401197
 31
0.0
  0
LINE
  5
FF
330
1F
100
AcDbEntity
  8
25
  6
Continuous
 62
     3
100
AcDbLine
 10
-870.6151751357563
 20
-472.8581580401197
 30
0.0
 11
-872.2763177031184
 21
-472.9805556832119
 31
0.0
  0
LINE
  5
100
330
1F
100
AcDbEntity
  8
25
  6
Continuous
 62
     3
100
AcDbLine
 10
-872.2763177031184
 20
-472.9805556832119
 30
0.0
 11
-874.1330067914414
 21
-473.1423789406226
 31
0.0
  0
LINE
  5
101
330
1F
100
AcDbEntity
  8
25
  6
Continuous
 62
     3
100
AcDbLine
 10
-874.1330067914414
 20
-473.1423789406226
 30
0.0
 11
-876.2123180788933
 21
-473.2921740327127
 31
0.0
  0
LINE
  5
102
330
1F
100
AcDbEntity
  8
25
  6
Continuous
 62
     3
100
AcDbLine
 10
-876.2123180788933
 20
-473.2921740327127
 30
0.0
 11
-878.5413272436292
 21
-473.3784871802177
 31
0.0
  0
LINE
  5
103
330
1F
100
AcDbEntity
  8
25
  6
Continuous
 62
     3
100
AcDbLine
 10
-878.5413272436292
 20
-473.3784871802177
 30
0.0
 11
-881.1471099637884
 21
-473.3498646037167
 31
0.0
  0
LINE
  5
104
330
1F
100
AcDbEntity
  8
25
  6
Continuous
 62
     3
100
AcDbLine
 10
-881.1471099637884
 20
-473.3498646037167
 30
0.0
 11
-884.0567419175522
 21
-473.1548525237138
 31
0.0
  0
LINE
  5
105
330
1F
100
AcDbEntity
  8
25
  6
Continuous
 62
     3
100
AcDbLine
 10
-884.0567419175522
 20
-473.1548525237138
 30
0.0
 11
-887.2972987830753
 21
-472.7419971610198
 31
0.0
  0
LINE
  5
106
330
1F
100
AcDbEntity
  8
25
  6
Continuous
 62
     3
100
AcDbLine
 10
-887.2972987830753
 20
-472.7419971610198
 30
0.0
 11
-887.7962473104153
 21
-472.6474151092237
 31
0.0
  0
LINE
  5
107
330
1F
100
AcDbEntity
  8
50
  6
Continuous
 62
     3
100
AcDbLine
 10
-848.7962473104153
 20
-524.1850471559137
 30
0.0
 11
-877.7962473104153
 21
-524.1850471559137
 31
0.0
  0
LINE
  5
108
330
1F
100
AcDbEntity
  8
50
  6
Continuous
 62
     3
100
AcDbLine
 10
-877.7962473104153
 20
-553.4042413772238
 30
0.0
 11
-877.7962473104153
 21
-524.1850471559137
 31
0.0
  0
LINE
  5
109
330
1F
100
AcDbEntity
  8
50
  6
Continuous
 62
     3
100
AcDbLine
 10
-844.5962467554666
 20
-504.1850471559137
 30
0.0
 11
-848.7962473104153
 21
-504.1850471559137
 31
0.0
  0
LINE
  5
10A
330
1F
100
AcDbEntity
  8
50
  6
Continuous
 62
     3
100
AcDbLine
 10
-844.5962467554666
 20
-504.1850471559137
 30
0.0
 11
-844.5962467554666
 21
-538.6970139261227
 31
0.0
  0
LINE
  5
10B
330
1F
100
AcDbEntity
  8
0
  6
Continuous
 62
     7
100
AcDbLine
 10
-858.330561337985
 20
-565.6850472570386
 30
0.0
 11
-858.311885015537
 21
-565.6850472570386
 31
0.0
  0
LINE
  5
10C
330
1F
100
AcDbEntity
  8
0
  6
Continuous
 62
     2
100
AcDbLine
 10
-643.7999041239509
 20
-397.7444029799373
 30
0.0
 11
-643.7999041239509
 21
-580.7444029799373
 31
0.0
  0
LINE
  5
10D
330
1F
100
AcDbEntity
  8
0
  6
Continuous
 62
     2
100
AcDbLine
 10
-930.7999041239509
 20
-397.7444029799372
 30
0.0
 11
-930.7999041239509
 21
-580.7444029799373
 31
0.0
  0
LINE
  5
10E
330
1F
100
AcDbEntity
  8
0
  6
Continuous
 62
     2
100
AcDbLine
 10
-930.7999041239509
 20
-397.7444029799372
 30
0.0
 11
-643.7999041239509
 21
-397.7444029799373
 31
0.0
  0
LINE
  5
10F
330
1F
100
AcDbEntity
  8
0
  6
Continuous
 62
     2
100
AcDbLine
 10
-930.7999041239509
 20
-580.7444029799373
 30
0.0
 11
-643.7999041239509
 21
-580.7444029799373
 31
0.0
  0
LINE
  5
110
330
1F
100
AcDbEntity
  8
50
  6
Continuous
 62
     3
100
AcDbLine
 10
-1178.311885194604
 20
-516.644708798077
 30
0.0
 11
-1178.311885194604
 21
-561.0427552566827
 31
0.0
  0
LINE
  5
111
330
1F
100
AcDbEntity
  8
0
  6
Continuous
 62
     7
100
AcDbLine
 10
-1178.311885194386
 20
-517.144708798077
 30
0.0
 11
-1178.311885177738
 21
-555.1447087976404
 31
0.0
  0
LINE
  5
112
330
1F
100
AcDbEntity
  8
50
  6
Continuous
 62
     3
100
AcDbLine
 10
-1178.311885194604
 20
-516.644708798077
 30
0.0
 11
-1178.311885194604
 21
-551.1566755682862
 31
0.0
  0
LINE
  5
113
330
1F
100
AcDbEntity
  8
0
  6
Continuous
 62
     7
100
AcDbLine
 10
-1086.899497148854
 20
-495.9651790003169
 30
0.0
 11
-1086.898500409374
 21
-495.9343273152568
 31
0.0
  0
LINE
  5
114
330
1F
100
AcDbEntity
  8
1
  6
DASH_CENTER
 62
     3
100
AcDbLine
 10
-1166.311885194604
 20
-543.1445187163368
 30
0.0
 11
-1181.311885194604
 21
-543.1445187163368
 31
0.0
  0
LINE
  5
115
330
1F
100
AcDbEntity
  8
0
  6
DASHED
 62
     7
100
AcDbLine
 10
-1169.311885194604
 20
-540.644708981437
 30
0.0
 11
-1178.311885194604
 21
-540.644708981437
 31
0.0
  0
LINE
  5
116
330
1F
100
AcDbEntity
  8
0
  6
DASHED
 62
     7
100
AcDbLine
 10
-1163.519800090904
 20
-540.644708981437
 30
0.0
 11
-1169.311885194604
 21
-540.644708981437
 31
0.0
  0
LINE
  5
117
330
1F
100
AcDbEntity
  8
0
  6
DASHED
 62
     7
100
AcDbLine
 10
-1169.311885194604
 20
-545.6443284512471
 30
0.0
 11
-1178.311885194604
 21
-545.6443284512471
 31
0.0
  0
LINE
  5
118
330
1F
100
AcDbEntity
  8
0
  6
DASHED
 62
     7
100
AcDbLine
 10
-1163.957243408534
 20
-545.644708981437
 30
0.0
 11
-1169.311885194604
 21
-545.644708981437
 31
0.0
  0
LINE
  5
119
330
1F
100
AcDbEntity
  8
1
  6
DOT_CENTER
 62
     7
100
AcDbLine
 10
-1080.318168970384
 20
-497.0947089814869
 30
0.0
 11
-1080.318168970384
 21
-507.1947089814868
 31
0.0
  0
LINE
  5
11A
330
1F
100
AcDbEntity
  8
1
  6
DOT_CENTER
 62
     7
100
AcDbLine
 10
-1075.268168970384
 20
-502.144708981487
 30
0.0
 11
-1085.368168970384
 21
-502.144708981487
 31
0.0
  0
LINE
  5
11B
330
1F
100
AcDbEntity
  8
0
  6
Continuous
 62
     7
100
AcDbLine
 10
-1128.448718616594
 20
-530.043650098397
 30
0.0
 11
-1075.582768140624
 21
-523.0837157067969
 31
0.0
  0
LINE
  5
11C
330
1F
100
AcDbEntity
  8
0
  6
Continuous
 62
     7
100
AcDbLine
 10
-1174.311885194604
 20
-553.144708798087
 30
0.0
 11
-1178.311885194604
 21
-553.144708798087
 31
0.0
  0
LINE
  5
11D
330
1F
100
AcDbEntity
  8
0
  6
Continuous
 62
     7
100
AcDbLine
 10
-1178.311885194604
 20
-550.8447087980768
 30
0.0
 11
-1178.311885194604
 21
-516.644708798077
 31
0.0
  0
LINE
  5
11E
330
1F
100
AcDbEntity
  8
0
  6
Continuous
 62
     7
100
AcDbLine
 10
-1178.311885194604
 20
-553.144708798087
 30
0.0
 11
-1178.311885194604
 21
-550.8447087980768
 31
0.0
  0
LINE
  5
11F
330
1F
100
AcDbEntity
  8
0
  6
Continuous
 62
     7
100
AcDbLine
 10
-1164.114851061284
 20
-550.8882866694568
 30
0.0
 11
-1164.272330655634
 21
-552.6882866694569
 31
0.0
  0
LINE
  5
120
330
1F
100
AcDbEntity
  8
0
  6
Continuous
 62
     7
100
AcDbLine
 10
-1163.640347299454
 20
-545.4646838538371
 30
0.0
 11
-1164.114851061284
 21
-550.8882866694568
 31
0.0
  0
LINE
  5
121
330
1F
100
AcDbEntity
  8
0
  6
Continuous
 62
     7
100
AcDbLine
 10
-1082.267422518404
 20
-510.144708798087
 30
0.0
 11
-1082.067666187604
 21
-510.144708798087
 31
0.0
  0
LINE
  5
122
330
1F
100
AcDbEntity
  8
0
  6
Continuous
 62
     7
100
AcDbLine
 10
-1078.567950375154
 20
-510.144708798087
 30
0.0
 11
-1078.368194044344
 21
-510.144708798087
 31
0.0
  0
LINE
  5
123
330
1F
100
AcDbEntity
  8
0
  6
Continuous
 62
     7
100
AcDbLine
 10
-1082.267422518404
 20
-510.144708798087
 30
0.0
 11
-1082.267422518404
 21
-507.144708798087
 31
0.0
  0
LINE
  5
124
330
1F
100
AcDbEntity
  8
0
  6
Continuous
 62
     7
100
AcDbLine
 10
-1082.067666187604
 20
-510.144708798087
 30
0.0
 11
-1078.567950375154
 21
-510.144708798087
 31
0.0
  0
LINE
  5
125
330
1F
100
AcDbEntity
  8
0
  6
Continuous
 62
     7
100
AcDbLine
 10
-1083.167840716884
 20
-506.8447087980868
 30
0.0
 11
-1083.167840716884
 21
-506.8448915499768
 31
0.0
  0
LINE
  5
126
330
1F
100
AcDbEntity
  8
0
  6
Continuous
 62
     7
100
AcDbLine
 10
-1078.368194044344
 20
-507.144708798087
 30
0.0
 11
-1078.368194044344
 21
-510.144708798087
 31
0.0
  0
LINE
  5
127
330
1F
100
AcDbEntity
  8
0
  6
Continuous
 62
     7
100
AcDbLine
 10
-1164.770428004674
 20
-553.144708798087
 30
0.0
 11
-1174.311885194604
 21
-553.144708798087
 31
0.0
  0
LINE
  5
128
330
1F
100
AcDbEntity
  8
0
  6
Continuous
 62
     7
100
AcDbLine
 10
-1077.467840716884
 20
-506.8447087980868
 30
0.0
 11
-1078.013494086074
 21
-506.8447087980868
 31
0.0
  0
LINE
  5
129
330
1F
100
AcDbEntity
  8
0
  6
Continuous
 62
     7
100
AcDbLine
 10
-1077.418839228914
 20
-506.8447087980868
 30
0.0
 11
-1077.467840716884
 21
-506.8447087980868
 31
0.0
  0
LINE
  5
12A
330
1F
100
AcDbEntity
  8
0
  6
Continuous
 62
     7
100
AcDbLine
 10
-1174.311885194604
 20
-516.644708798077
 30
0.0
 11
-1178.311885194604
 21
-516.644708798077
 31
0.0
  0
LINE
  5
12B
330
1F
100
AcDbEntity
  8
0
  6
Continuous
 62
     7
100
AcDbLine
 10
-1094.564612137284
 20
-516.644708798087
 30
0.0
 11
-1174.311885194604
 21
-516.644708798077
 31
0.0
  0
LINE
  5
12C
330
1F
100
AcDbEntity
  8
0
  6
Continuous
 62
     7
100
AcDbLine
 10
-1077.467840716884
 20
-506.8447087980868
 30
0.0
 11
-1077.467840716884
 21
-497.3036055821768
 31
0.0
  0
LINE
  5
12D
330
1F
100
AcDbEntity
  8
0
  6
Continuous
 62
     7
100
AcDbLine
 10
-1083.167840716884
 20
-506.8447087980868
 30
0.0
 11
-1082.567422518404
 21
-506.8447087980868
 31
0.0
  0
LINE
  5
12E
330
1F
100
AcDbEntity
  8
0
  6
Continuous
 62
     7
100
AcDbLine
 10
-1083.167840716884
 20
-496.0231847006468
 30
0.0
 11
-1083.167840716884
 21
-506.8447087980868
 31
0.0
  0
LINE
  5
12F
330
1F
100
AcDbEntity
  8
0
  6
Continuous
 62
     7
100
AcDbLine
 10
-1078.068194044344
 20
-506.8447087980868
 30
0.0
 11
-1078.013494086074
 21
-506.8447087980868
 31
0.0
  0
LINE
  5
130
330
1F
100
AcDbEntity
  8
0
  6
DASHED
 62
     7
100
AcDbLine
 10
-1163.056110174214
 20
-535.644708981437
 30
0.0
 11
-1169.311885194604
 21
-535.644708981437
 31
0.0
  0
LINE
  5
131
330
1F
100
AcDbEntity
  8
0
  6
DASHED
 62
     7
100
AcDbLine
 10
-1169.311885194604
 20
-535.644708981437
 30
0.0
 11
-1169.311885194604
 21
-538.1447091243368
 31
0.0
  0
LINE
  5
132
330
1F
100
AcDbEntity
  8
0
  6
DASHED
 62
     7
100
AcDbLine
 10
-1169.311885194604
 20
-538.1447091243368
 30
0.0
 11
-1169.311885194604
 21
-540.644708981437
 31
0.0
  0
LINE
  5
133
330
1F
100
AcDbEntity
  8
0
  6
DASHED
 62
     7
100
AcDbLine
 10
-1169.311885194604
 20
-538.1447091243368
 30
0.0
 11
-1178.311885194604
 21
-538.1447091243368
 31
0.0
  0
LINE
  5
134
330
1F
100
AcDbEntity
  8
0
  6
DASHED
 62
     7
100
AcDbLine
 10
-1169.311885194604
 20
-540.644708981437
 30
0.0
 11
-1169.311885194604
 21
-545.6443284512471
 31
0.0
  0
LINE
  5
135
330
1F
100
AcDbEntity
  8
0
  6
DASHED
 62
     7
100
AcDbLine
 10
-1169.311885194604
 20
-545.644708981437
 30
0.0
 11
-1169.311885194604
 21
-548.1443283083469
 31
0.0
  0
LINE
  5
136
330
1F
100
AcDbEntity
  8
0
  6
DASHED
 62
     7
100
AcDbLine
 10
-1169.311885194604
 20
-548.1443283083469
 30
0.0
 11
-1169.311885194604
 21
-550.644708981437
 31
0.0
  0
LINE
  5
137
330
1F
100
AcDbEntity
  8
0
  6
DASHED
 62
     7
100
AcDbLine
 10
-1169.311885194604
 20
-548.1443283083469
 30
0.0
 11
-1178.311885194604
 21
-548.1443283083469
 31
0.0
  0
LINE
  5
138
330
1F
100
AcDbEntity
  8
0
  6
DASHED
 62
     7
100
AcDbLine
 10
-1164.420933325214
 20
-550.644708981437
 30
0.0
 11
-1169.311885194604
 21
-550.644708981437
 31
0.0
  0
LINE
  5
139
330
1F
100
AcDbEntity
  8
0
  6
DASHED
 62
     7
100
AcDbLine
 10
-1163.220941681474
 20
-540.6708557042567
 30
0.0
 11
-1163.520356738864
 21
-544.0931854704969
 31
0.0
  0
LINE
  5
13A
330
1F
100
AcDbEntity
  8
0
  6
DASHED
 62
     7
100
AcDbLine
 10
-1163.520356738864
 20
-544.0931854704969
 30
0.0
 11
-1163.640347299454
 21
-545.4646838538371
 31
0.0
  0
LINE
  5
13B
330
1F
100
AcDbEntity
  8
0
  6
DASHED
 62
     7
100
AcDbLine
 10
-1163.220941681474
 20
-540.6708557042567
 30
0.0
 11
-1162.757251764784
 21
-535.370855704257
 31
0.0
  0
LINE
  5
13C
330
1F
100
AcDbEntity
  8
0
  6
DASHED
 62
     7
100
AcDbLine
 10
-1162.757251764784
 20
-535.370855704257
 30
0.0
 11
-1162.720499596054
 21
-534.950776493407
 31
0.0
  0
LINE
  5
13D
330
1F
100
AcDbEntity
  8
0
  6
DASHED
 62
     7
100
AcDbLine
 10
-1140.164091417884
 20
-531.5860081821171
 30
0.0
 11
-1162.287665342874
 21
-534.498631934057
 31
0.0
  0
LINE
  5
13E
330
1F
100
AcDbEntity
  8
0
  6
DASHED
 62
     7
100
AcDbLine
 10
-1128.448718616594
 20
-530.043650098397
 30
0.0
 11
-1140.164091417884
 21
-531.5860081821171
 31
0.0
  0
LINE
  5
13F
330
1F
100
AcDbEntity
  8
1
  6
DOT_CENTER
 62
     3
100
AcDbLine
 10
-1181.177254943944
 20
-541.644708798077
 30
0.0
 11
-1164.177254943944
 21
-541.644708798077
 31
0.0
  0
LINE
  5
140
330
1F
100
AcDbEntity
  8
0
  6
Continuous
 62
     7
100
AcDbLine
 10
-1188.311885194604
 20
-463.1789175404036
 30
0.0
 11
-1188.311885194604
 21
-507.6789175404036
 31
0.0
  0
LINE
  5
141
330
1F
100
AcDbEntity
  8
0
  6
Continuous
 62
     7
100
AcDbLine
 10
-1188.311885194604
 20
-507.6789175404036
 30
0.0
 11
-1188.311885194604
 21
-508.6789175404036
 31
0.0
  0
LINE
  5
142
330
1F
100
AcDbEntity
  8
0
  6
Continuous
 62
     7
100
AcDbLine
 10
-1188.311885194604
 20
-508.6789175404036
 30
0.0
 11
-1131.021942284234
 21
-508.6789175404036
 31
0.0
  0
LINE
  5
143
330
1F
100
AcDbEntity
  8
0
  6
Continuous
 62
     7
100
AcDbLine
 10
-1171.884239149334
 20
-462.1789175404036
 30
0.0
 11
-1188.311885194604
 21
-462.1789175404036
 31
0.0
  0
LINE
  5
144
330
1F
100
AcDbEntity
  8
0
  6
Continuous
 62
     7
100
AcDbLine
 10
-1162.209385030914
 20
-488.6789175404036
 30
0.0
 11
-1131.021743785144
 21
-488.6789175404036
 31
0.0
  0
LINE
  5
145
330
1F
100
AcDbEntity
  8
0
  6
Continuous
 62
     7
100
AcDbLine
 10
-1188.311885194604
 20
-463.1789175404036
 30
0.0
 11
-1188.311885194604
 21
-462.1789175404036
 31
0.0
  0
LINE
  5
146
330
1F
100
AcDbEntity
  8
0
  6
DASHED
 62
     7
100
AcDbLine
 10
-1188.311885194604
 20
-470.6789175404086
 30
0.0
 11
-1183.811885194604
 21
-470.6789175404086
 31
0.0
  0
LINE
  5
147
330
1F
100
AcDbEntity
  8
0
  6
DASHED
 62
     7
100
AcDbLine
 10
-1183.811885194604
 20
-470.6789175404086
 30
0.0
 11
-1183.811885194604
 21
-473.1789175404086
 31
0.0
  0
LINE
  5
148
330
1F
100
AcDbEntity
  8
0
  6
DASHED
 62
     7
100
AcDbLine
 10
-1180.811885194604
 20
-478.1789175404086
 30
0.0
 11
-1180.811885194604
 21
-484.4289175404067
 31
0.0
  0
LINE
  5
149
330
1F
100
AcDbEntity
  8
0
  6
DASHED
 62
     7
100
AcDbLine
 10
-1180.811885194604
 20
-473.1789175404086
 30
0.0
 11
-1180.811885194604
 21
-478.1789175404086
 31
0.0
  0
LINE
  5
14A
330
1F
100
AcDbEntity
  8
0
  6
DASHED
 62
     7
100
AcDbLine
 10
-1180.811885194604
 20
-466.9289175404086
 30
0.0
 11
-1180.811885194604
 21
-473.1789175404086
 31
0.0
  0
LINE
  5
14B
330
1F
100
AcDbEntity
  8
0
  6
DASHED
 62
     7
100
AcDbLine
 10
-1183.511885194604
 20
-467.9289175404086
 30
0.0
 11
-1181.811885194604
 21
-467.9289175404086
 31
0.0
  0
LINE
  5
14C
330
1F
100
AcDbEntity
  8
0
  6
DASHED
 62
     7
100
AcDbLine
 10
-1183.811885194604
 20
-468.2289175404077
 30
0.0
 11
-1183.811885194604
 21
-470.6789175404086
 31
0.0
  0
LINE
  5
14D
330
1F
100
AcDbEntity
  8
0
  6
DASHED
 62
     7
100
AcDbLine
 10
-1183.811885194604
 20
-473.1789175404086
 30
0.0
 11
-1183.811885194604
 21
-478.1789175404086
 31
0.0
  0
LINE
  5
14E
330
1F
100
AcDbEntity
  8
0
  6
DASHED
 62
     7
100
AcDbLine
 10
-1183.811885194604
 20
-480.6789175404086
 30
0.0
 11
-1183.811885194604
 21
-483.1289175404087
 31
0.0
  0
LINE
  5
14F
330
1F
100
AcDbEntity
  8
0
  6
DASHED
 62
     7
100
AcDbLine
 10
-1183.811885194604
 20
-478.1789175404086
 30
0.0
 11
-1183.811885194604
 21
-480.6789175404086
 31
0.0
  0
LINE
  5
150
330
1F
100
AcDbEntity
  8
0
  6
DASHED
 62
     7
100
AcDbLine
 10
-1183.511885194604
 20
-483.4289175404067
 30
0.0
 11
-1181.811885194604
 21
-483.4289175404067
 31
0.0
  0
LINE
  5
151
330
1F
100
AcDbEntity
  8
0
  6
DASHED
 62
     7
100
AcDbLine
 10
-1188.311885194604
 20
-480.6789175404086
 30
0.0
 11
-1183.811885194604
 21
-480.6789175404086
 31
0.0
  0
LINE
  5
152
330
1F
100
AcDbEntity
  8
0
  6
DASHED
 62
     7
100
AcDbLine
 10
-1180.811885194604
 20
-484.4289175404067
 30
0.0
 11
-1180.811885194604
 21
-488.1789175404067
 31
0.0
  0
LINE
  5
153
330
1F
100
AcDbEntity
  8
0
  6
DASHED
 62
     7
100
AcDbLine
 10
-1181.811885194604
 20
-489.1789175404067
 30
0.0
 11
-1188.311885194604
 21
-489.1789175404067
 31
0.0
  0
LINE
  5
154
330
1F
100
AcDbEntity
  8
0
  6
DASHED
 62
     7
100
AcDbLine
 10
-1180.811885194604
 20
-463.1789175404067
 30
0.0
 11
-1180.811885194604
 21
-466.9289175404086
 31
0.0
  0
LINE
  5
155
330
1F
100
AcDbEntity
  8
1
  6
DOT_CENTER
 62
     7
100
AcDbLine
 10
-1190.519919910854
 20
-473.1789175404086
 30
0.0
 11
-1179.519919910854
 21
-473.1789175404086
 31
0.0
  0
LINE
  5
156
330
1F
100
AcDbEntity
  8
1
  6
DOT_CENTER
 62
     7
100
AcDbLine
 10
-1190.519919910854
 20
-478.1789175404086
 30
0.0
 11
-1179.519919910854
 21
-478.1789175404086
 31
0.0
  0
LINE
  5
157
330
1F
100
AcDbEntity
  8
0
  6
DASHED
 62
     7
100
AcDbLine
 10
-1128.812942807174
 20
-499.1789170968077
 30
0.0
 11
-1137.573192644704
 21
-499.1789170968077
 31
0.0
  0
LINE
  5
158
330
1F
100
AcDbEntity
  8
0
  6
DASHED
 62
     7
100
AcDbLine
 10
-1137.573271286484
 20
-505.1789175404047
 30
0.0
 11
-1128.812880822114
 21
-505.1789175404047
 31
0.0
  0
LINE
  5
159
330
1F
100
AcDbEntity
  8
0
  6
DASHED
 62
     7
100
AcDbLine
 10
-1136.646185966174
 20
-503.6789175404047
 30
0.0
 11
-1130.777584423044
 21
-503.6789175404047
 31
0.0
  0
LINE
  5
15A
330
1F
100
AcDbEntity
  8
0
  6
DASHED
 62
     7
100
AcDbLine
 10
-1130.777625818304
 20
-500.6789170968077
 30
0.0
 11
-1136.646144570914
 21
-500.6789170968077
 31
0.0
  0
LINE
  5
15B
330
1F
100
AcDbEntity
  8
1
  6
DOT_CENTER
 62
     7
100
AcDbLine
 10
-1127.111885194604
 20
-502.1789780512377
 30
0.0
 11
-1140.311885194604
 21
-502.1789780512377
 31
0.0
  0
LINE
  5
15C
330
1F
100
AcDbEntity
  8
1
  6
DOT_CENTER
 62
     7
100
AcDbLine
 10
-1133.711885194604
 20
-508.7789780512377
 30
0.0
 11
-1133.711885194604
 21
-495.5789780512366
 31
0.0
  0
LINE
  5
15D
330
1F
100
AcDbEntity
  8
0
  6
DASHED
 62
     7
100
AcDbLine
 10
-1186.311885194604
 20
-490.1789175404036
 30
0.0
 11
-1186.311885194604
 21
-493.7647039780317
 31
0.0
  0
LINE
  5
15E
330
1F
100
AcDbEntity
  8
0
  6
DASHED
 62
     7
100
AcDbLine
 10
-1187.311885194604
 20
-494.7144514463366
 30
0.0
 11
-1188.311885194604
 21
-494.7144514463366
 31
0.0
  0
LINE
  5
15F
330
1F
100
AcDbEntity
  8
1
  6
DASH_CENTER
 62
     3
100
AcDbLine
 10
-1191.311885194604
 20
-475.6789175404086
 30
0.0
 11
-1180.811885194604
 21
-475.6789175404086
 31
0.0
  0
LINE
  5
160
330
1F
100
AcDbEntity
  8
1
  6
DOT_CENTER
 62
     7
100
AcDbLine
 10
-1139.486885194604
 20
-502.1807340512369
 30
0.0
 11
-1127.936885194604
 21
-502.1807340512369
 31
0.0
  0
LINE
  5
161
330
1F
100
AcDbEntity
  8
1
  6
DOT_CENTER
 62
     7
100
AcDbLine
 10
-1133.711885194604
 20
-496.4057340512368
 30
0.0
 11
-1133.711885194604
 21
-507.9557340512367
 31
0.0
  0
LINE
  5
162
330
1F
100
AcDbEntity
  8
1
  6
DOT_CENTER
 62
     7
100
AcDbLine
 10
-1122.486885172724
 20
-502.1789780512368
 30
0.0
 11
-1110.936885172724
 21
-502.1789780512368
 31
0.0
  0
LINE
  5
163
330
1F
100
AcDbEntity
  8
1
  6
DOT_CENTER
 62
     7
100
AcDbLine
 10
-1116.711885172724
 20
-496.4039780512369
 30
0.0
 11
-1116.711885172724
 21
-507.9539780512369
 31
0.0
  0
LINE
  5
164
330
1F
100
AcDbEntity
  8
0
  6
DASHED
 62
     7
100
AcDbLine
 10
-1116.211884741574
 20
-490.4789778944369
 30
0.0
 11
-1116.212236157554
 21
-490.4789778944369
 31
0.0
  0
LINE
  5
165
330
1F
100
AcDbEntity
  8
1
  6
Continuous
 62
     7
100
AcDbLine
 10
-1116.211884741574
 20
-482.5789780512369
 30
0.0
 11
-1116.211884741574
 21
-488.6898623012969
 31
0.0
  0
LINE
  5
166
330
1F
100
AcDbEntity
  8
1
  6
DOT_CENTER
 62
     7
100
AcDbLine
 10
-1085.318169897524
 20
-502.1447089814869
 30
0.0
 11
-1075.318168043244
 21
-502.1447089814869
 31
0.0
  0
LINE
  5
167
330
1F
100
AcDbEntity
  8
1
  6
DOT_CENTER
 62
     7
100
AcDbLine
 10
-1080.318168970384
 20
-497.1447080543469
 30
0.0
 11
-1080.318168970384
 21
-507.1447099086267
 31
0.0
  0
LINE
  5
168
330
1F
100
AcDbEntity
  8
0
  6
Continuous
 62
     7
100
AcDbLine
 10
-1089.178380130464
 20
-499.8734384167967
 30
0.0
 11
-1092.089475485754
 21
-496.4041300687368
 31
0.0
  0
LINE
  5
169
330
1F
100
AcDbEntity
  8
0
  6
Continuous
 62
     7
100
AcDbLine
 10
-1092.824344415624
 20
-496.2434887819668
 30
0.0
 11
-1092.818168969784
 21
-496.2447089795969
 31
0.0
  0
LINE
  5
16A
330
1F
100
AcDbEntity
  8
0
  6
Continuous
 62
     7
100
AcDbLine
 10
-1075.768174325194
 20
-502.1447089814869
 30
0.0
 11
-1078.118168969824
 21
-502.1412185002068
 31
0.0
  0
LINE
  5
16B
330
1F
100
AcDbEntity
  8
0
  6
DASHED
 62
     7
100
AcDbLine
 10
-1088.415923122244
 20
-502.1447089814869
 30
0.0
 11
-1082.518168969824
 21
-502.1481994627768
 31
0.0
  0
LINE
  5
16C
330
1F
100
AcDbEntity
  8
0
  6
Continuous
 62
     7
100
AcDbLine
 10
-1093.082053898954
 20
-499.8447089814868
 30
0.0
 11
-1093.466040056494
 21
-499.8447089814868
 31
0.0
  0
LINE
  5
16D
330
1F
100
AcDbEntity
  8
0
  6
Continuous
 62
     7
100
AcDbLine
 10
-1090.240534341004
 20
-500.5425947275869
 30
0.0
 11
-1092.616179617774
 21
-499.9060424941567
 31
0.0
  0
LINE
  5
16E
330
1F
100
AcDbEntity
  8
0
  6
Continuous
 62
     7
100
AcDbLine
 10
-1093.777210881504
 20
-504.4447089814869
 30
0.0
 11
-1093.082053898954
 21
-504.4447089814969
 31
0.0
  0
LINE
  5
16F
330
1F
100
AcDbEntity
  8
0
  6
Continuous
 62
     7
100
AcDbLine
 10
-1092.616179617774
 20
-504.3833754688069
 30
0.0
 11
-1090.240534341004
 21
-503.7468232353767
 31
0.0
  0
LINE
  5
170
330
1F
100
AcDbEntity
  8
0
  6
Continuous
 62
     7
100
AcDbLine
 10
-1090.018180054534
 20
-503.4570454874968
 30
0.0
 11
-1090.018180054534
 21
-500.8323724754769
 31
0.0
  0
LINE
  5
171
330
1F
100
AcDbEntity
  8
0
  6
Continuous
 62
     7
100
AcDbLine
 10
-1088.944576878424
 20
-503.7906443429267
 30
0.0
 11
-1088.915846969824
 21
-502.1447089814869
 31
0.0
  0
LINE
  5
172
330
1F
100
AcDbEntity
  8
0
  6
Continuous
 62
     7
100
AcDbLine
 10
-1089.818218851784
 20
-502.1447089814869
 30
0.0
 11
-1089.315786047884
 21
-502.1447089814869
 31
0.0
  0
LINE
  5
173
330
1F
100
AcDbEntity
  8
0
  6
Continuous
 62
     7
100
AcDbLine
 10
-1088.915846969824
 20
-502.1447089814869
 30
0.0
 11
-1088.944576878424
 21
-500.4987736200469
 31
0.0
  0
LINE
  5
174
330
1F
100
AcDbEntity
  8
0
  6
Continuous
 62
     7
100
AcDbLine
 10
-1092.089475485754
 20
-507.8852878942369
 30
0.0
 11
-1089.176027249594
 21
-504.4131754917469
 31
0.0
  0
LINE
  5
175
330
1F
100
AcDbEntity
  8
0
  6
Continuous
 62
     7
100
AcDbLine
 10
-1094.906494610724
 20
-510.7789778944368
 30
0.0
 11
-1094.669255735344
 21
-510.7789778944368
 31
0.0
  0
LINE
  5
176
330
1F
100
AcDbEntity
  8
0
  6
Continuous
 62
     7
100
AcDbLine
 10
-1113.561885172724
 20
-512.7789778944368
 30
0.0
 11
-1097.186845460924
 21
-512.7789778944368
 31
0.0
  0
LINE
  5
177
330
1F
100
AcDbEntity
  8
0
  6
Continuous
 62
     7
100
AcDbLine
 10
-1119.861885172724
 20
-512.7789778944368
 30
0.0
 11
-1130.561885172724
 21
-512.7789778944268
 31
0.0
  0
LINE
  5
178
330
1F
100
AcDbEntity
  8
0
  6
Continuous
 62
     7
100
AcDbLine
 10
-1113.561885172724
 20
-512.7789778944368
 30
0.0
 11
-1119.861885172724
 21
-512.7789778944368
 31
0.0
  0
LINE
  5
179
330
1F
100
AcDbEntity
  8
0
  6
Continuous
 62
     7
100
AcDbLine
 10
-1113.561885172724
 20
-512.7789778944368
 30
0.0
 11
-1113.561885194604
 21
-511.6147595635969
 31
0.0
  0
LINE
  5
17A
330
1F
100
AcDbEntity
  8
0
  6
Continuous
 62
     7
100
AcDbLine
 10
-1113.561885194604
 20
-511.6147595635969
 30
0.0
 11
-1113.561885182024
 21
-508.6884559251669
 31
0.0
  0
LINE
  5
17B
330
1F
100
AcDbEntity
  8
0
  6
Continuous
 62
     7
100
AcDbLine
 10
-1119.861885172724
 20
-506.5263910750969
 30
0.0
 11
-1119.861885181554
 21
-508.5781110085768
 31
0.0
  0
LINE
  5
17C
330
1F
100
AcDbEntity
  8
0
  6
Continuous
 62
     7
100
AcDbLine
 10
-1119.861885194604
 20
-511.6147595635969
 30
0.0
 11
-1119.861885172724
 21
-512.7789778944368
 31
0.0
  0
LINE
  5
17D
330
1F
100
AcDbEntity
  8
0
  6
Continuous
 62
     7
100
AcDbLine
 10
-1121.212236157554
 20
-482.2789780512369
 30
0.0
 11
-1120.898390924634
 21
-482.2789780512369
 31
0.0
  0
LINE
  5
17E
330
1F
100
AcDbEntity
  8
0
  6
Continuous
 62
     7
100
AcDbLine
 10
-1117.912236157554
 20
-482.2789780512369
 30
0.0
 11
-1116.511884741574
 21
-482.2789780512369
 31
0.0
  0
LINE
  5
17F
330
1F
100
AcDbEntity
  8
0
  6
Continuous
 62
     7
100
AcDbLine
 10
-1118.212236157554
 20
-482.2789780512369
 30
0.0
 11
-1117.912236157554
 21
-482.2789780512369
 31
0.0
  0
LINE
  5
180
330
1F
100
AcDbEntity
  8
0
  6
Continuous
 62
     7
100
AcDbLine
 10
-1120.898390924634
 20
-482.2789780512369
 30
0.0
 11
-1120.612236157554
 21
-482.2789780512369
 31
0.0
  0
LINE
  5
181
330
1F
100
AcDbEntity
  8
0
  6
Continuous
 62
     7
100
AcDbLine
 10
-1120.612236157554
 20
-482.2789780512369
 30
0.0
 11
-1118.212236157554
 21
-482.2789780512369
 31
0.0
  0
LINE
  5
182
330
1F
100
AcDbEntity
  8
0
  6
Continuous
 62
     7
100
AcDbLine
 10
-1121.212236157554
 20
-482.2789780512369
 30
0.0
 11
-1121.725117002724
 21
-482.2789780512369
 31
0.0
  0
LINE
  5
183
330
1F
100
AcDbEntity
  8
0
  6
DASHED
 62
     7
100
AcDbLine
 10
-1115.912236157554
 20
-490.7789778944368
 30
0.0
 11
-1116.211884741574
 21
-490.7789778944368
 31
0.0
  0
LINE
  5
184
330
1F
100
AcDbEntity
  8
0
  6
DASHED
 62
     7
100
AcDbLine
 10
-1116.212236157554
 20
-490.4789778944369
 30
0.0
 11
-1116.211884741574
 21
-490.7789778944368
 31
0.0
  0
LINE
  5
185
330
1F
100
AcDbEntity
  8
0
  6
Continuous
 62
     7
100
AcDbLine
 10
-1136.861885194604
 20
-512.7789778944268
 30
0.0
 11
-1153.236386082764
 21
-512.7789778944268
 31
0.0
  0
LINE
  5
186
330
1F
100
AcDbEntity
  8
0
  6
Continuous
 62
     7
100
AcDbLine
 10
-1130.561885172724
 20
-512.7789778944268
 30
0.0
 11
-1130.561885194604
 21
-511.6147595636069
 31
0.0
  0
LINE
  5
187
330
1F
100
AcDbEntity
  8
0
  6
Continuous
 62
     7
100
AcDbLine
 10
-1136.861885194604
 20
-512.7789778944268
 30
0.0
 11
-1136.861885194604
 21
-511.6147595635969
 31
0.0
  0
LINE
  5
188
330
1F
100
AcDbEntity
  8
0
  6
Continuous
 62
     7
100
AcDbLine
 10
-1130.561885172724
 20
-512.7789778944268
 30
0.0
 11
-1136.861885194604
 21
-512.7789778944268
 31
0.0
  0
LINE
  5
189
330
1F
100
AcDbEntity
  8
0
  6
Continuous
 62
     7
100
AcDbLine
 10
-1130.561885194604
 20
-511.6147595636069
 30
0.0
 11
-1130.561885181784
 21
-508.6324364470167
 31
0.0
  0
LINE
  5
18A
330
1F
100
AcDbEntity
  8
0
  6
Continuous
 62
     7
100
AcDbLine
 10
-1136.861885194604
 20
-511.6147595635969
 30
0.0
 11
-1136.861885194604
 21
-508.6789175404069
 31
0.0
  0
LINE
  5
18B
330
1F
100
AcDbEntity
  8
0
  6
Continuous
 62
     7
100
AcDbLine
 10
-1129.212236157554
 20
-482.2789780512369
 30
0.0
 11
-1129.525729885674
 21
-482.2789780512369
 31
0.0
  0
LINE
  5
18C
330
1F
100
AcDbEntity
  8
0
  6
Continuous
 62
     7
100
AcDbLine
 10
-1128.699003896404
 20
-482.2789780512369
 30
0.0
 11
-1129.212236157554
 21
-482.2789780512369
 31
0.0
  0
LINE
  5
18D
330
1F
100
AcDbEntity
  8
0
  6
Continuous
 62
     7
100
AcDbLine
 10
-1129.525729885674
 20
-482.2789780512369
 30
0.0
 11
-1129.812236157554
 21
-482.2789780512369
 31
0.0
  0
LINE
  5
18E
330
1F
100
AcDbEntity
  8
0
  6
Continuous
 62
     7
100
AcDbLine
 10
-1129.812236157554
 20
-482.2789780512369
 30
0.0
 11
-1132.212236610584
 21
-482.2789780512369
 31
0.0
  0
LINE
  5
18F
330
1F
100
AcDbEntity
  8
0
  6
Continuous
 62
     7
100
AcDbLine
 10
-1132.512236157554
 20
-482.2789780512369
 30
0.0
 11
-1133.911884741574
 21
-482.2789780512369
 31
0.0
  0
LINE
  5
190
330
1F
100
AcDbEntity
  8
0
  6
DASHED
 62
     7
100
AcDbLine
 10
-1134.211884741574
 20
-490.7789778944268
 30
0.0
 11
-1134.512236157554
 21
-490.7789778944268
 31
0.0
  0
LINE
  5
191
330
1F
100
AcDbEntity
  8
0
  6
Continuous
 62
     7
100
AcDbLine
 10
-1134.211664023304
 20
-484.5789394397768
 30
0.0
 11
-1134.211884741574
 21
-482.5789780512369
 31
0.0
  0
LINE
  5
192
330
1F
100
AcDbEntity
  8
0
  6
Continuous
 62
     7
100
AcDbLine
 10
-1134.211884741574
 20
-488.2789778944268
 30
0.0
 11
-1134.212236157554
 21
-488.1789778944269
 31
0.0
  0
LINE
  5
193
330
1F
100
AcDbEntity
  8
0
  6
Continuous
 62
     7
100
AcDbLine
 10
-1134.212236157554
 20
-488.1789778944269
 30
0.0
 11
-1134.212236157554
 21
-487.8789778944267
 31
0.0
  0
LINE
  5
194
330
1F
100
AcDbEntity
  8
0
  6
Continuous
 62
     7
100
AcDbLine
 10
-1134.212236157554
 20
-487.8789778944267
 30
0.0
 11
-1134.212236157554
 21
-486.9793293104069
 31
0.0
  0
LINE
  5
195
330
1F
100
AcDbEntity
  8
0
  6
DASHED
 62
     7
100
AcDbLine
 10
-1134.212236157554
 20
-488.5789778944268
 30
0.0
 11
-1134.211884741574
 21
-488.2789778944268
 31
0.0
  0
LINE
  5
196
330
1F
100
AcDbEntity
  8
0
  6
DASHED
 62
     7
100
AcDbLine
 10
-1134.212236157554
 20
-490.4789778944269
 30
0.0
 11
-1134.212236157554
 21
-488.5789778944268
 31
0.0
  0
LINE
  5
197
330
1F
100
AcDbEntity
  8
0
  6
DASHED
 62
     7
100
AcDbLine
 10
-1134.211884741574
 20
-490.7789778944268
 30
0.0
 11
-1134.211884741574
 21
-490.6170683928269
 31
0.0
  0
LINE
  5
198
330
1F
100
AcDbEntity
  8
0
  6
DASHED
 62
     7
100
AcDbLine
 10
-1134.211884741574
 20
-490.6170683928269
 30
0.0
 11
-1134.212236157554
 21
-490.4789778944269
 31
0.0
  0
LINE
  5
199
330
1F
100
AcDbEntity
  8
0
  6
Continuous
 62
     7
100
AcDbLine
 10
-1134.212236157554
 20
-486.9793293104069
 30
0.0
 11
-1134.211664023304
 21
-484.5789394397768
 31
0.0
  0
LINE
  5
19A
330
1F
100
AcDbEntity
  8
0
  6
Continuous
 62
     7
100
AcDbLine
 10
-1132.212236610584
 20
-482.2789780512369
 30
0.0
 11
-1132.512236157554
 21
-482.2789780512369
 31
0.0
  0
LINE
  5
19B
330
1F
100
AcDbEntity
  8
0
  6
Continuous
 62
     7
100
AcDbLine
 10
-1153.237006346334
 20
-468.7789778944268
 30
0.0
 11
-1149.664618485964
 21
-468.7789778944268
 31
0.0
  0
LINE
  5
19C
330
1F
100
AcDbEntity
  8
0
  6
Continuous
 62
     7
100
AcDbLine
 10
-1121.212236157554
 20
-482.2789780512369
 30
0.0
 11
-1120.898390924634
 21
-482.2789780512369
 31
0.0
  0
LINE
  5
19D
330
1F
100
AcDbEntity
  8
0
  6
Continuous
 62
     7
100
AcDbLine
 10
-1117.912236157554
 20
-482.2789780512369
 30
0.0
 11
-1116.511884741574
 21
-482.2789780512369
 31
0.0
  0
LINE
  5
19E
330
1F
100
AcDbEntity
  8
0
  6
Continuous
 62
     7
100
AcDbLine
 10
-1118.212236157554
 20
-482.2789780512369
 30
0.0
 11
-1117.912236157554
 21
-482.2789780512369
 31
0.0
  0
LINE
  5
19F
330
1F
100
AcDbEntity
  8
0
  6
Continuous
 62
     7
100
AcDbLine
 10
-1120.898390924634
 20
-482.2789780512369
 30
0.0
 11
-1120.612236157554
 21
-482.2789780512369
 31
0.0
  0
LINE
  5
1A0
330
1F
100
AcDbEntity
  8
0
  6
Continuous
 62
     7
100
AcDbLine
 10
-1120.612236157554
 20
-482.2789780512369
 30
0.0
 11
-1118.212236157554
 21
-482.2789780512369
 31
0.0
  0
LINE
  5
1A1
330
1F
100
AcDbEntity
  8
0
  6
Continuous
 62
     7
100
AcDbLine
 10
-1121.212236157554
 20
-482.2789780512369
 30
0.0
 11
-1121.725117002724
 21
-482.2789780512369
 31
0.0
  0
LINE
  5
1A2
330
1F
100
AcDbEntity
  8
0
  6
Continuous
 62
     7
100
AcDbLine
 10
-1116.211884741574
 20
-482.5789780512369
 30
0.0
 11
-1116.212236157554
 21
-482.2789780512369
 31
0.0
  0
LINE
  5
1A3
330
1F
100
AcDbEntity
  8
0
  6
Continuous
 62
     7
100
AcDbLine
 10
-1116.511884741574
 20
-482.2789780512369
 30
0.0
 11
-1116.212236157554
 21
-482.2789780512369
 31
0.0
  0
LINE
  5
1A4
330
1F
100
AcDbEntity
  8
0
  6
DASHED
 62
     7
100
AcDbLine
 10
-1115.912236157554
 20
-490.7789778944368
 30
0.0
 11
-1116.211884741574
 21
-490.7789778944368
 31
0.0
  0
LINE
  5
1A5
330
1F
100
AcDbEntity
  8
0
  6
Continuous
 62
     7
100
AcDbLine
 10
-1129.212236157554
 20
-482.2789780512369
 30
0.0
 11
-1129.526081393394
 21
-482.2789780512369
 31
0.0
  0
LINE
  5
1A6
330
1F
100
AcDbEntity
  8
0
  6
Continuous
 62
     7
100
AcDbLine
 10
-1128.699355312384
 20
-482.2789780512369
 30
0.0
 11
-1129.212236157554
 21
-482.2789780512369
 31
0.0
  0
LINE
  5
1A7
330
1F
100
AcDbEntity
  8
0
  6
Continuous
 62
     7
100
AcDbLine
 10
-1133.911884741574
 20
-482.2789780512369
 30
0.0
 11
-1134.212236157554
 21
-482.2789780512369
 31
0.0
  0
LINE
  5
1A8
330
1F
100
AcDbEntity
  8
0
  6
Continuous
 62
     7
100
AcDbLine
 10
-1129.526081393394
 20
-482.2789780512369
 30
0.0
 11
-1129.812236157554
 21
-482.2789780512369
 31
0.0
  0
LINE
  5
1A9
330
1F
100
AcDbEntity
  8
0
  6
Continuous
 62
     7
100
AcDbLine
 10
-1129.812236157554
 20
-482.2789780512369
 30
0.0
 11
-1132.212236610584
 21
-482.2789780512369
 31
0.0
  0
LINE
  5
1AA
330
1F
100
AcDbEntity
  8
0
  6
Continuous
 62
     7
100
AcDbLine
 10
-1132.512236157554
 20
-482.2789780512369
 30
0.0
 11
-1133.911884741574
 21
-482.2789780512369
 31
0.0
  0
LINE
  5
1AB
330
1F
100
AcDbEntity
  8
0
  6
DASHED
 62
     7
100
AcDbLine
 10
-1134.211884741574
 20
-490.7789778944268
 30
0.0
 11
-1134.512236157554
 21
-490.7789778944268
 31
0.0
  0
LINE
  5
1AC
330
1F
100
AcDbEntity
  8
0
  6
Continuous
 62
     7
100
AcDbLine
 10
-1134.211884741574
 20
-482.5789780512369
 30
0.0
 11
-1134.212236157554
 21
-482.2789780512369
 31
0.0
  0
LINE
  5
1AD
330
1F
100
AcDbEntity
  8
0
  6
Continuous
 62
     7
100
AcDbLine
 10
-1134.211664023304
 20
-484.5789394397768
 30
0.0
 11
-1134.211884741574
 21
-482.5789780512369
 31
0.0
  0
LINE
  5
1AE
330
1F
100
AcDbEntity
  8
0
  6
Continuous
 62
     7
100
AcDbLine
 10
-1134.211884741574
 20
-488.2789778944268
 30
0.0
 11
-1134.212236157554
 21
-488.1789778944269
 31
0.0
  0
LINE
  5
1AF
330
1F
100
AcDbEntity
  8
0
  6
Continuous
 62
     7
100
AcDbLine
 10
-1134.212236157554
 20
-488.1789778944269
 30
0.0
 11
-1134.212236157554
 21
-487.8789778944267
 31
0.0
  0
LINE
  5
1B0
330
1F
100
AcDbEntity
  8
0
  6
Continuous
 62
     7
100
AcDbLine
 10
-1134.212236157554
 20
-487.8789778944267
 30
0.0
 11
-1134.212236157554
 21
-486.9793293104069
 31
0.0
  0
LINE
  5
1B1
330
1F
100
AcDbEntity
  8
0
  6
DASHED
 62
     7
100
AcDbLine
 10
-1134.212236157554
 20
-488.5789778944268
 30
0.0
 11
-1134.211884741574
 21
-488.2789778944268
 31
0.0
  0
LINE
  5
1B2
330
1F
100
AcDbEntity
  8
0
  6
DASHED
 62
     7
100
AcDbLine
 10
-1134.212236157554
 20
-490.4789778944269
 30
0.0
 11
-1134.212236157554
 21
-488.5789778944268
 31
0.0
  0
LINE
  5
1B3
330
1F
100
AcDbEntity
  8
0
  6
Continuous
 62
     7
100
AcDbLine
 10
-1134.212236157554
 20
-486.9793293104069
 30
0.0
 11
-1134.211664023304
 21
-484.5789394397768
 31
0.0
  0
LINE
  5
1B4
330
1F
100
AcDbEntity
  8
0
  6
Continuous
 62
     7
100
AcDbLine
 10
-1132.212236610584
 20
-482.2789780512369
 30
0.0
 11
-1132.512236157554
 21
-482.2789780512369
 31
0.0
  0
LINE
  5
1B5
330
1F
100
AcDbEntity
  8
0
  6
Continuous
 62
     7
100
AcDbLine
 10
-1134.211884741574
 20
-488.2789778944268
 30
0.0
 11
-1134.212236157554
 21
-488.1789778944269
 31
0.0
  0
LINE
  5
1B6
330
1F
100
AcDbEntity
  8
0
  6
Continuous
 62
     7
100
AcDbLine
 10
-1134.212236157554
 20
-488.1789778944269
 30
0.0
 11
-1134.212236157554
 21
-487.8789778944267
 31
0.0
  0
LINE
  5
1B7
330
1F
100
AcDbEntity
  8
0
  6
Continuous
 62
     7
100
AcDbLine
 10
-1134.212236157554
 20
-487.8789778944267
 30
0.0
 11
-1134.212236157554
 21
-486.9793293104069
 31
0.0
  0
LINE
  5
1B8
330
1F
100
AcDbEntity
  8
0
  6
DASHED
 62
     7
100
AcDbLine
 10
-1134.212236157554
 20
-488.5789778944268
 30
0.0
 11
-1134.211884741574
 21
-488.2789778944268
 31
0.0
  0
LINE
  5
1B9
330
1F
100
AcDbEntity
  8
0
  6
DASHED
 62
     7
100
AcDbLine
 10
-1134.212236157554
 20
-490.4789778944269
 30
0.0
 11
-1134.212236157554
 21
-488.5789778944268
 31
0.0
  0
LINE
  5
1BA
330
1F
100
AcDbEntity
  8
0
  6
DASHED
 62
     7
100
AcDbLine
 10
-1134.211884741574
 20
-490.7789778944268
 30
0.0
 11
-1134.211884741574
 21
-490.6170683928269
 31
0.0
  0
LINE
  5
1BB
330
1F
100
AcDbEntity
  8
0
  6
DASHED
 62
     7
100
AcDbLine
 10
-1134.211884741574
 20
-490.6170683928269
 30
0.0
 11
-1134.212236157554
 21
-490.4789778944269
 31
0.0
  0
LINE
  5
1BC
330
1F
100
AcDbEntity
  8
0
  6
Continuous
 62
     7
100
AcDbLine
 10
-1134.212236157554
 20
-486.9793293104069
 30
0.0
 11
-1134.211664023304
 21
-484.5789394397768
 31
0.0
  0
LINE
  5
1BD
330
1F
100
AcDbEntity
  8
0
  6
Continuous
 62
     7
100
AcDbLine
 10
-1149.664618485964
 20
-468.7789778944268
 30
0.0
 11
-1097.187196898774
 21
-468.7789778944368
 31
0.0
  0
LINE
  5
1BE
330
1F
100
AcDbEntity
  8
0
  6
DASHED
 62
     7
100
AcDbLine
 10
-1136.861885194604
 20
-508.0046400363269
 30
0.0
 11
-1136.861885194604
 21
-506.5281470750967
 31
0.0
  0
LINE
  5
1BF
330
1F
100
AcDbEntity
  8
0
  6
DASHED
 62
     7
100
AcDbLine
 10
-1130.561885181784
 20
-508.6324364470167
 30
0.0
 11
-1130.561885172724
 21
-506.5263910750969
 31
0.0
  0
LINE
  5
1C0
330
1F
100
AcDbEntity
  8
0
  6
Continuous
 62
     7
100
AcDbLine
 10
-1119.861885181554
 20
-508.5781110085768
 30
0.0
 11
-1119.861885194604
 21
-511.6147595635969
 31
0.0
  0
LINE
  5
1C1
330
1F
100
AcDbEntity
  8
0
  6
Continuous
 62
     7
100
AcDbLine
 10
-1113.561885182024
 20
-508.6884559251669
 30
0.0
 11
-1113.561885172724
 21
-506.5263910750969
 31
0.0
  0
LINE
  5
1C2
330
1F
100
AcDbEntity
  8
1
  6
Continuous
 62
     7
100
AcDbLine
 10
-1094.011967070324
 20
-490.7789777744267
 30
0.0
 11
-1111.365215009934
 21
-490.7789778695169
 31
0.0
  0
LINE
  5
1C3
330
1F
100
AcDbEntity
  8
1
  6
DASHED
 62
     7
100
AcDbLine
 10
-1134.512236157554
 20
-490.7789778944268
 30
0.0
 11
-1156.411967838264
 21
-490.7789778944268
 31
0.0
  0
LINE
  5
1C4
330
1F
100
AcDbEntity
  8
1
  6
Continuous
 62
     7
100
AcDbLine
 10
-1116.211884741574
 20
-488.6898623012969
 30
0.0
 11
-1116.211884741574
 21
-490.4789778944369
 31
0.0
  0
LINE
  5
1C5
330
1F
100
AcDbEntity
  8
1
  6
Continuous
 62
     7
100
AcDbLine
 10
-1111.365215009934
 20
-490.7789778695169
 30
0.0
 11
-1115.912236157554
 21
-490.7789778944368
 31
0.0
  0
LINE
  5
1C6
330
1F
100
AcDbEntity
  8
0
  6
DASHED
 62
     7
100
AcDbLine
 10
-1136.861885194604
 20
-508.6789175404069
 30
0.0
 11
-1136.861885194604
 21
-508.0046400363269
 31
0.0
  0
LINE
  5
1C7
330
1F
100
AcDbEntity
  8
0
  6
Continuous
 62
     7
100
AcDbLine
 10
-844.5962467554666
 20
-486.2563758231454
 30
0.0
 11
-844.5962467554666
 21
-530.7563758231454
 31
0.0
  0
LINE
  5
1C8
330
1F
100
AcDbEntity
  8
0
  6
Continuous
 62
     7
100
AcDbLine
 10
-844.5962467554666
 20
-485.2563758231454
 30
0.0
 11
-844.5962467554666
 21
-486.2563758231454
 31
0.0
  0
LINE
  5
1C9
330
1F
100
AcDbEntity
  8
0
  6
Continuous
 62
     7
100
AcDbLine
 10
-787.3063038450966
 20
-485.2563758231454
 30
0.0
 11
-844.5962467554666
 21
-485.2563758231454
 31
0.0
  0
LINE
  5
1CA
330
1F
100
AcDbEntity
  8
0
  6
Continuous
 62
     7
100
AcDbLine
 10
-844.5962467554666
 20
-531.7563758231454
 30
0.0
 11
-828.1686007101966
 21
-531.7563758231454
 31
0.0
  0
LINE
  5
1CB
330
1F
100
AcDbEntity
  8
0
  6
Continuous
 62
     7
100
AcDbLine
 10
-787.3061053459967
 20
-505.2563758231454
 30
0.0
 11
-818.4937465917767
 21
-505.2563758231454
 31
0.0
  0
LINE
  5
1CC
330
1F
100
AcDbEntity
  8
0
  6
Continuous
 62
     7
100
AcDbLine
 10
-844.5962467554666
 20
-531.7563758231454
 30
0.0
 11
-844.5962467554666
 21
-530.7563758231454
 31
0.0
  0
LINE
  5
1CD
330
1F
100
AcDbEntity
  8
0
  6
DASHED
 62
     7
100
AcDbLine
 10
-840.0962467554666
 20
-520.7563758231404
 30
0.0
 11
-844.5962467554666
 21
-520.7563758231404
 31
0.0
  0
LINE
  5
1CE
330
1F
100
AcDbEntity
  8
0
  6
DASHED
 62
     7
100
AcDbLine
 10
-840.0962467554666
 20
-520.7563758231404
 30
0.0
 11
-840.0962467554666
 21
-523.2563758231404
 31
0.0
  0
LINE
  5
1CF
330
1F
100
AcDbEntity
  8
0
  6
DASHED
 62
     7
100
AcDbLine
 10
-837.0962467554666
 20
-512.0063758231413
 30
0.0
 11
-837.0962467554666
 21
-515.7563758231404
 31
0.0
  0
LINE
  5
1D0
330
1F
100
AcDbEntity
  8
0
  6
DASHED
 62
     7
100
AcDbLine
 10
-837.0962467554666
 20
-515.7563758231404
 30
0.0
 11
-837.0962467554666
 21
-520.7563758231404
 31
0.0
  0
LINE
  5
1D1
330
1F
100
AcDbEntity
  8
0
  6
DASHED
 62
     7
100
AcDbLine
 10
-837.0962467554666
 20
-520.7563758231404
 30
0.0
 11
-837.0962467554666
 21
-524.5063758231404
 31
0.0
  0
LINE
  5
1D2
330
1F
100
AcDbEntity
  8
0
  6
DASHED
 62
     7
100
AcDbLine
 10
-838.0962467554666
 20
-523.5063758231404
 30
0.0
 11
-839.7962467554667
 21
-523.5063758231404
 31
0.0
  0
LINE
  5
1D3
330
1F
100
AcDbEntity
  8
0
  6
DASHED
 62
     7
100
AcDbLine
 10
-840.0962467554666
 20
-520.7563758231404
 30
0.0
 11
-840.0962467554666
 21
-523.2063758231413
 31
0.0
  0
LINE
  5
1D4
330
1F
100
AcDbEntity
  8
0
  6
DASHED
 62
     7
100
AcDbLine
 10
-840.0962467554666
 20
-515.7563758231404
 30
0.0
 11
-840.0962467554666
 21
-520.7563758231404
 31
0.0
  0
LINE
  5
1D5
330
1F
100
AcDbEntity
  8
0
  6
DASHED
 62
     7
100
AcDbLine
 10
-840.0962467554666
 20
-513.3063758231403
 30
0.0
 11
-840.0962467554666
 21
-515.7563758231404
 31
0.0
  0
LINE
  5
1D6
330
1F
100
AcDbEntity
  8
0
  6
DASHED
 62
     7
100
AcDbLine
 10
-840.0962467554666
 20
-513.2563758231404
 30
0.0
 11
-840.0962467554666
 21
-515.7563758231404
 31
0.0
  0
LINE
  5
1D7
330
1F
100
AcDbEntity
  8
0
  6
DASHED
 62
     7
100
AcDbLine
 10
-838.0962467554666
 20
-513.0063758231413
 30
0.0
 11
-839.7962467554667
 21
-513.0063758231413
 31
0.0
  0
LINE
  5
1D8
330
1F
100
AcDbEntity
  8
0
  6
DASHED
 62
     7
100
AcDbLine
 10
-840.0962467554666
 20
-515.7563758231404
 30
0.0
 11
-844.5962467554666
 21
-515.7563758231404
 31
0.0
  0
LINE
  5
1D9
330
1F
100
AcDbEntity
  8
0
  6
DASHED
 62
     7
100
AcDbLine
 10
-837.0962467554666
 20
-505.7563758231413
 30
0.0
 11
-837.0962467554666
 21
-512.0063758231413
 31
0.0
  0
LINE
  5
1DA
330
1F
100
AcDbEntity
  8
0
  6
DASHED
 62
     7
100
AcDbLine
 10
-844.5962467554666
 20
-504.7563758231413
 30
0.0
 11
-838.0962467554666
 21
-504.7563758231413
 31
0.0
  0
LINE
  5
1DB
330
1F
100
AcDbEntity
  8
0
  6
DASHED
 62
     7
100
AcDbLine
 10
-837.0962467554666
 20
-524.5063758231404
 30
0.0
 11
-837.0962467554666
 21
-530.7563758231413
 31
0.0
  0
LINE
  5
1DC
330
1F
100
AcDbEntity
  8
0
  6
DASHED
 62
     7
100
AcDbLine
 10
-793.8575542055667
 20
-494.7563762667413
 30
0.0
 11
-785.0973043680367
 21
-494.7563762667413
 31
0.0
  0
LINE
  5
1DD
330
1F
100
AcDbEntity
  8
0
  6
DASHED
 62
     7
100
AcDbLine
 10
-785.0972423829667
 20
-488.7563758231444
 30
0.0
 11
-793.8576328473466
 21
-488.7563758231444
 31
0.0
  0
LINE
  5
1DE
330
1F
100
AcDbEntity
  8
0
  6
DASHED
 62
     7
100
AcDbLine
 10
-787.0619459839068
 20
-490.2563758231444
 30
0.0
 11
-792.9305475270367
 21
-490.2563758231444
 31
0.0
  0
LINE
  5
1DF
330
1F
100
AcDbEntity
  8
0
  6
DASHED
 62
     7
100
AcDbLine
 10
-792.9305061317766
 20
-493.2563762667413
 30
0.0
 11
-787.0619873791668
 21
-493.2563762667413
 31
0.0
  0
LINE
  5
1E0
330
1F
100
AcDbEntity
  8
1
  6
DOT_CENTER
 62
     7
100
AcDbLine
 10
-796.5962467554666
 20
-491.7563153123114
 30
0.0
 11
-783.3962467554668
 21
-491.7563153123114
 31
0.0
  0
LINE
  5
1E1
330
1F
100
AcDbEntity
  8
1
  6
DOT_CENTER
 62
     7
100
AcDbLine
 10
-789.9962467554667
 20
-498.3563153123123
 30
0.0
 11
-789.9962467554667
 21
-485.1563153123113
 31
0.0
  0
LINE
  5
1E2
330
1F
100
AcDbEntity
  8
0
  6
DASHED
 62
     7
100
AcDbLine
 10
-842.5962467554666
 20
-500.1705893855174
 30
0.0
 11
-842.5962467554666
 21
-503.7563758231454
 31
0.0
  0
LINE
  5
1E3
330
1F
100
AcDbEntity
  8
0
  6
DASHED
 62
     7
100
AcDbLine
 10
-844.5962467554666
 20
-499.2208419172124
 30
0.0
 11
-843.5962467554666
 21
-499.2208419172124
 31
0.0
  0
LINE
  5
1E4
330
1F
100
AcDbEntity
  8
1
  6
DASH_CENTER
 62
     3
100
AcDbLine
 10
-837.0962467554666
 20
-518.2563758231404
 30
0.0
 11
-847.5962467554666
 21
-518.2563758231404
 31
0.0
  0
LINE
  5
1E5
330
1F
100
AcDbEntity
  8
1
  6
DASHED
 62
     7
100
AcDbLine
 10
-827.8622983428463
 20
-495.7685347127715
 30
0.0
 11
-826.9263621376763
 21
-495.9273369899615
 31
0.0
  0
LINE
  5
1E6
330
1F
100
AcDbEntity
  8
0
  6
DASHED
 62
     7
100
AcDbLine
 10
-828.4508077358262
 20
-485.1162638414114
 30
0.0
 11
-830.6350725758462
 21
-487.4670947569116
 31
0.0
  0
LINE
  5
1E7
330
1F
100
AcDbEntity
  8
0
  6
Continuous
 62
     7
100
AcDbLine
 10
-786.5196732522163
 20
-485.3816587649615
 30
0.0
 11
-786.3734510456263
 21
-482.4917686892215
 31
0.0
  0
LINE
  5
1E8
330
1F
100
AcDbEntity
  8
0
  6
DASHED
 62
     7
100
AcDbLine
 10
-792.8231616984663
 20
-485.2913220010814
 30
0.0
 11
-792.9225335896363
 21
-487.2552770582915
 31
0.0
  0
LINE
  5
1E9
330
1F
100
AcDbEntity
  8
1
  6
DASHED
 62
     7
100
AcDbLine
 10
-791.1807661792363
 20
-505.2722949087315
 30
0.0
 11
-791.0868467635862
 21
-503.4161007186915
 31
0.0
  0
LINE
  5
1EA
330
1F
100
AcDbEntity
  8
1
  6
Continuous
 62
     7
100
AcDbLine
 10
-772.7947162482862
 20
-504.0412592262615
 30
0.0
 11
-750.9229640598462
 21
-505.1479226323315
 31
0.0
  0
LINE
  5
1EB
330
1F
100
AcDbEntity
  8
1
  6
DASHED
 62
     7
100
AcDbLine
 10
-813.2432414671762
 20
-501.9946513607515
 30
0.0
 11
-791.3709525527463
 21
-503.1013418038415
 31
0.0
  0
LINE
  5
1EC
330
1F
100
AcDbEntity
  8
0
  6
Continuous
 62
     7
100
AcDbLine
 10
-773.2863413447662
 20
-507.8208933522815
 30
0.0
 11
-773.4082121168663
 21
-510.2181875297415
 31
0.0
  0
LINE
  5
1ED
330
1F
100
AcDbEntity
  8
0
  6
Continuous
 62
     7
100
AcDbLine
 10
-773.1028657342563
 20
-504.1877841527714
 30
0.0
 11
-773.1094929213061
 21
-504.3257159824216
 31
0.0
  0
LINE
  5
1EE
330
1F
100
AcDbEntity
  8
0
  6
Continuous
 62
     7
100
AcDbLine
 10
-773.0946839298763
 20
-504.0260815096615
 30
0.0
 11
-773.1028657342563
 21
-504.1877841527714
 31
0.0
  0
LINE
  5
1EF
330
1F
100
AcDbEntity
  8
0
  6
Continuous
 62
     7
100
AcDbLine
 10
-773.1094929213061
 20
-504.3257159824216
 30
0.0
 11
-773.2055059913362
 21
-506.2232885081514
 31
0.0
  0
LINE
  5
1F0
330
1F
100
AcDbEntity
  8
0
  6
Continuous
 62
     7
100
AcDbLine
 10
-773.2055059913362
 20
-506.2232885081514
 30
0.0
 11
-773.2210169167663
 21
-506.5228874645616
 31
0.0
  0
LINE
  5
1F1
330
1F
100
AcDbEntity
  8
0
  6
Continuous
 62
     7
100
AcDbLine
 10
-773.2408792276663
 20
-506.9223941755215
 30
0.0
 11
-773.2863413447662
 21
-507.8208933522815
 31
0.0
  0
LINE
  5
1F2
330
1F
100
AcDbEntity
  8
0
  6
Continuous
 62
     7
100
AcDbLine
 10
-773.2257192692362
 20
-506.6227774609315
 30
0.0
 11
-773.2408792276663
 21
-506.9223941755215
 31
0.0
  0
LINE
  5
1F3
330
1F
100
AcDbEntity
  8
0
  6
Continuous
 62
     7
100
AcDbLine
 10
-773.2210169167663
 20
-506.5228874645616
 30
0.0
 11
-773.2257192692362
 21
-506.6227774609315
 31
0.0
  0
LINE
  5
1F4
330
1F
100
AcDbEntity
  8
0
  6
Continuous
 62
     7
100
AcDbLine
 10
-775.5213094218363
 20
-512.4141729912815
 30
0.0
 11
-775.2216931596963
 21
-512.4293329268114
 31
0.0
  0
LINE
  5
1F5
330
1F
100
AcDbEntity
  8
0
  6
Continuous
 62
     7
100
AcDbLine
 10
-773.2863413447662
 20
-507.8208933522815
 30
0.0
 11
-773.4082121168663
 21
-510.2181875297415
 31
0.0
  0
LINE
  5
1F6
330
1F
100
AcDbEntity
  8
0
  6
Continuous
 62
     7
100
AcDbLine
 10
-773.1094929213061
 20
-504.3257159824216
 30
0.0
 11
-773.2055059913362
 21
-506.2232885081514
 31
0.0
  0
LINE
  5
1F7
330
1F
100
AcDbEntity
  8
0
  6
Continuous
 62
     7
100
AcDbLine
 10
-773.2055059913362
 20
-506.2232885081514
 30
0.0
 11
-773.2210169167663
 21
-506.5228874645616
 31
0.0
  0
LINE
  5
1F8
330
1F
100
AcDbEntity
  8
0
  6
Continuous
 62
     7
100
AcDbLine
 10
-773.2408792276663
 20
-506.9223941755215
 30
0.0
 11
-773.2863413447662
 21
-507.8208933522815
 31
0.0
  0
LINE
  5
1F9
330
1F
100
AcDbEntity
  8
0
  6
Continuous
 62
     7
100
AcDbLine
 10
-773.2257192692362
 20
-506.6227774609315
 30
0.0
 11
-773.2408792276663
 21
-506.9223941755215
 31
0.0
  0
LINE
  5
1FA
330
1F
100
AcDbEntity
  8
0
  6
Continuous
 62
     7
100
AcDbLine
 10
-773.2210169167663
 20
-506.5228874645616
 30
0.0
 11
-773.2257192692362
 21
-506.6227774609315
 31
0.0
  0
LINE
  5
1FB
330
1F
100
AcDbEntity
  8
0
  6
Continuous
 62
     7
100
AcDbLine
 10
-773.4082121168663
 20
-510.2181875297415
 30
0.0
 11
-773.5090561189363
 21
-512.2156048851316
 31
0.0
  0
LINE
  5
1FC
330
1F
100
AcDbEntity
  8
0
  6
Continuous
 62
     7
100
AcDbLine
 10
-773.5090561189363
 20
-512.2156048851316
 30
0.0
 11
-773.5238651103562
 21
-512.5152393578915
 31
0.0
  0
LINE
  5
1FD
330
1F
100
AcDbEntity
  8
0
  6
Continuous
 62
     7
100
AcDbLine
 10
-773.0946839298763
 20
-504.0260815096615
 30
0.0
 11
-772.7947162482862
 21
-504.0412592262615
 31
0.0
  0
LINE
  5
1FE
330
1F
100
AcDbEntity
  8
0
  6
Continuous
 62
     7
100
AcDbLine
 10
-775.2216931596963
 20
-512.4293329268114
 30
0.0
 11
-773.8238327919462
 21
-512.5000616412915
 31
0.0
  0
LINE
  5
1FF
330
1F
100
AcDbEntity
  8
0
  6
Continuous
 62
     7
100
AcDbLine
 10
-777.9182435909863
 20
-512.2928933009814
 30
0.0
 11
-775.5213094218363
 21
-512.4141729912815
 31
0.0
  0
LINE
  5
200
330
1F
100
AcDbEntity
  8
0
  6
Continuous
 62
     7
100
AcDbLine
 10
-778.2040327586562
 20
-512.2784329865515
 30
0.0
 11
-777.9182435909863
 21
-512.2928933009814
 31
0.0
  0
LINE
  5
201
330
1F
100
AcDbEntity
  8
0
  6
Continuous
 62
     7
100
AcDbLine
 10
-773.8238327919462
 20
-512.5000616412915
 30
0.0
 11
-773.5238651103562
 21
-512.5152393578915
 31
0.0
  0
LINE
  5
202
330
1F
100
AcDbEntity
  8
0
  6
Continuous
 62
     7
100
AcDbLine
 10
-779.0297025995062
 20
-512.2366558764916
 30
0.0
 11
-778.5174770201663
 21
-512.2625733841214
 31
0.0
  0
LINE
  5
203
330
1F
100
AcDbEntity
  8
0
  6
Continuous
 62
     7
100
AcDbLine
 10
-778.5174770201663
 20
-512.2625733841214
 30
0.0
 11
-778.2040327586562
 21
-512.2784329865515
 31
0.0
  0
LINE
  5
204
330
1F
100
AcDbEntity
  8
0
  6
Continuous
 62
     7
100
AcDbLine
 10
-791.3709525527463
 20
-503.1013418038415
 30
0.0
 11
-791.0716868051663
 21
-503.1164840041015
 31
0.0
  0
LINE
  5
205
330
1F
100
AcDbEntity
  8
0
  6
Continuous
 62
     7
100
AcDbLine
 10
-791.2016022380562
 20
-511.6207840525815
 30
0.0
 11
-791.5008679856462
 21
-511.6056418523315
 31
0.0
  0
LINE
  5
206
330
1F
100
AcDbEntity
  8
0
  6
Continuous
 62
     7
100
AcDbLine
 10
-791.4860589942161
 20
-511.3060073795716
 30
0.0
 11
-791.5008679856462
 21
-511.6056418523315
 31
0.0
  0
LINE
  5
207
330
1F
100
AcDbEntity
  8
0
  6
Continuous
 62
     7
100
AcDbLine
 10
-786.5072560758463
 20
-511.8583078260915
 30
0.0
 11
-785.9950304964962
 21
-511.8842253337316
 31
0.0
  0
LINE
  5
208
330
1F
100
AcDbEntity
  8
0
  6
Continuous
 62
     7
100
AcDbLine
 10
-787.1064895050163
 20
-511.8279879092415
 30
0.0
 11
-789.5034232217263
 21
-511.7067082418316
 31
0.0
  0
LINE
  5
209
330
1F
100
AcDbEntity
  8
0
  6
Continuous
 62
     7
100
AcDbLine
 10
-786.8207003344262
 20
-511.8424482238215
 30
0.0
 11
-787.1064895050163
 21
-511.8279879092415
 31
0.0
  0
LINE
  5
20A
330
1F
100
AcDbEntity
  8
0
  6
Continuous
 62
     7
100
AcDbLine
 10
-789.5034232217263
 20
-511.7067082418316
 30
0.0
 11
-789.8030399363063
 21
-511.6915482834115
 31
0.0
  0
LINE
  5
20B
330
1F
100
AcDbEntity
  8
0
  6
Continuous
 62
     7
100
AcDbLine
 10
-789.8030399363063
 20
-511.6915482834115
 30
0.0
 11
-791.2016022380562
 21
-511.6207840525815
 31
0.0
  0
LINE
  5
20C
330
1F
100
AcDbEntity
  8
0
  6
Continuous
 62
     7
100
AcDbLine
 10
-786.5072560758463
 20
-511.8583078260915
 30
0.0
 11
-786.8207003344262
 21
-511.8424482238215
 31
0.0
  0
LINE
  5
20D
330
1F
100
AcDbEntity
  8
0
  6
Continuous
 62
     7
100
AcDbLine
 10
-755.2055994482662
 20
-526.9593740880515
 30
0.0
 11
-811.1837986481462
 21
-524.1269981513315
 31
0.0
  0
LINE
  5
20E
330
1F
100
AcDbEntity
  8
0
  6
Continuous
 62
     7
100
AcDbLine
 10
-775.5213094218363
 20
-512.4141729912815
 30
0.0
 11
-775.2216931596963
 21
-512.4293329268114
 31
0.0
  0
LINE
  5
20F
330
1F
100
AcDbEntity
  8
0
  6
Continuous
 62
     7
100
AcDbLine
 10
-773.2863413447662
 20
-507.8208933522815
 30
0.0
 11
-773.4082121168663
 21
-510.2181875297415
 31
0.0
  0
LINE
  5
210
330
1F
100
AcDbEntity
  8
0
  6
Continuous
 62
     7
100
AcDbLine
 10
-773.1028657342563
 20
-504.1877841527714
 30
0.0
 11
-773.1094929213061
 21
-504.3257159824216
 31
0.0
  0
LINE
  5
211
330
1F
100
AcDbEntity
  8
0
  6
Continuous
 62
     7
100
AcDbLine
 10
-773.0946839298763
 20
-504.0260815096615
 30
0.0
 11
-773.1028657342563
 21
-504.1877841527714
 31
0.0
  0
LINE
  5
212
330
1F
100
AcDbEntity
  8
0
  6
Continuous
 62
     7
100
AcDbLine
 10
-773.1094929213061
 20
-504.3257159824216
 30
0.0
 11
-773.2055059913362
 21
-506.2232885081514
 31
0.0
  0
LINE
  5
213
330
1F
100
AcDbEntity
  8
0
  6
Continuous
 62
     7
100
AcDbLine
 10
-773.2055059913362
 20
-506.2232885081514
 30
0.0
 11
-773.2210169167663
 21
-506.5228874645616
 31
0.0
  0
LINE
  5
214
330
1F
100
AcDbEntity
  8
0
  6
Continuous
 62
     7
100
AcDbLine
 10
-773.2408792276663
 20
-506.9223941755215
 30
0.0
 11
-773.2863413447662
 21
-507.8208933522815
 31
0.0
  0
LINE
  5
215
330
1F
100
AcDbEntity
  8
0
  6
Continuous
 62
     7
100
AcDbLine
 10
-773.2257192692362
 20
-506.6227774609315
 30
0.0
 11
-773.2408792276663
 21
-506.9223941755215
 31
0.0
  0
LINE
  5
216
330
1F
100
AcDbEntity
  8
0
  6
Continuous
 62
     7
100
AcDbLine
 10
-773.2210169167663
 20
-506.5228874645616
 30
0.0
 11
-773.2257192692362
 21
-506.6227774609315
 31
0.0
  0
LINE
  5
217
330
1F
100
AcDbEntity
  8
0
  6
Continuous
 62
     7
100
AcDbLine
 10
-773.4082121168663
 20
-510.2181875297415
 30
0.0
 11
-773.5090561189363
 21
-512.2156048851316
 31
0.0
  0
LINE
  5
218
330
1F
100
AcDbEntity
  8
0
  6
Continuous
 62
     7
100
AcDbLine
 10
-773.0946839298763
 20
-504.0260815096615
 30
0.0
 11
-772.7947162482862
 21
-504.0412592262615
 31
0.0
  0
LINE
  5
219
330
1F
100
AcDbEntity
  8
0
  6
Continuous
 62
     7
100
AcDbLine
 10
-775.2216931596963
 20
-512.4293329268114
 30
0.0
 11
-773.8238327919462
 21
-512.5000616412915
 31
0.0
  0
LINE
  5
21A
330
1F
100
AcDbEntity
  8
0
  6
Continuous
 62
     7
100
AcDbLine
 10
-777.9182435909863
 20
-512.2928933009814
 30
0.0
 11
-775.5213094218363
 21
-512.4141729912815
 31
0.0
  0
LINE
  5
21B
330
1F
100
AcDbEntity
  8
0
  6
Continuous
 62
     7
100
AcDbLine
 10
-778.2043838172763
 20
-512.2784152237416
 30
0.0
 11
-777.9182435909863
 21
-512.2928933009814
 31
0.0
  0
LINE
  5
21C
330
1F
100
AcDbEntity
  8
0
  6
Continuous
 62
     7
100
AcDbLine
 10
-779.0300535665062
 20
-512.2366381183215
 30
0.0
 11
-778.5174770201663
 21
-512.2625733841214
 31
0.0
  0
LINE
  5
21D
330
1F
100
AcDbEntity
  8
0
  6
Continuous
 62
     7
100
AcDbLine
 10
-778.5174770201663
 20
-512.2625733841214
 30
0.0
 11
-778.2043838172763
 21
-512.2784152237416
 31
0.0
  0
LINE
  5
21E
330
1F
100
AcDbEntity
  8
0
  6
Continuous
 62
     7
100
AcDbLine
 10
-769.3951705523061
 20
-483.3508330000216
 30
0.0
 11
-769.6522133318263
 21
-488.4309467406515
 31
0.0
  0
LINE
  5
21F
330
1F
100
AcDbEntity
  8
0
  6
Continuous
 62
     7
100
AcDbLine
 10
-775.6871215586561
 20
-483.0324738730715
 30
0.0
 11
-775.9442530963163
 21
-488.1143413691016
 31
0.0
  0
LINE
  5
220
330
1F
100
AcDbEntity
  8
0
  6
Continuous
 62
     7
100
AcDbLine
 10
-775.6282899088562
 20
-481.8697429674814
 30
0.0
 11
-769.3363388806563
 21
-482.1881020955316
 31
0.0
  0
LINE
  5
221
330
1F
100
AcDbEntity
  8
0
  6
Continuous
 62
     7
100
AcDbLine
 10
-769.3363388806563
 20
-482.1881020955316
 30
0.0
 11
-769.3951705523061
 21
-483.3508330000216
 31
0.0
  0
LINE
  5
222
330
1F
100
AcDbEntity
  8
0
  6
Continuous
 62
     7
100
AcDbLine
 10
-775.6282899088562
 20
-481.8697429674814
 30
0.0
 11
-775.6871215586561
 21
-483.0324738730715
 31
0.0
  0
LINE
  5
223
330
1F
100
AcDbEntity
  8
0
  6
Continuous
 62
     7
100
AcDbLine
 10
-769.3363388806563
 20
-482.1881020955316
 30
0.0
 11
-752.9827583502363
 21
-483.0155579379116
 31
0.0
  0
LINE
  5
224
330
1F
100
AcDbEntity
  8
0
  6
Continuous
 62
     7
100
AcDbLine
 10
-791.0864957965862
 20
-503.4161184768616
 30
0.0
 11
-791.0716868051663
 21
-503.1164840041015
 31
0.0
  0
LINE
  5
225
330
1F
100
AcDbEntity
  8
0
  6
Continuous
 62
     7
100
AcDbLine
 10
-791.3709525527463
 20
-503.1013418038415
 30
0.0
 11
-791.0716868051663
 21
-503.1164840041015
 31
0.0
  0
LINE
  5
226
330
1F
100
AcDbEntity
  8
0
  6
Continuous
 62
     7
100
AcDbLine
 10
-786.5072560758463
 20
-511.8583078260915
 30
0.0
 11
-785.9950304964962
 21
-511.8842253337316
 31
0.0
  0
LINE
  5
227
330
1F
100
AcDbEntity
  8
0
  6
Continuous
 62
     7
100
AcDbLine
 10
-787.1064895050163
 20
-511.8279879092415
 30
0.0
 11
-789.5034232217263
 21
-511.7067082418316
 31
0.0
  0
LINE
  5
228
330
1F
100
AcDbEntity
  8
0
  6
Continuous
 62
     7
100
AcDbLine
 10
-786.8207003344262
 20
-511.8424482238215
 30
0.0
 11
-787.1064895050163
 21
-511.8279879092415
 31
0.0
  0
LINE
  5
229
330
1F
100
AcDbEntity
  8
0
  6
Continuous
 62
     7
100
AcDbLine
 10
-789.5034232217263
 20
-511.7067082418316
 30
0.0
 11
-789.8030399363063
 21
-511.6915482834115
 31
0.0
  0
LINE
  5
22A
330
1F
100
AcDbEntity
  8
0
  6
Continuous
 62
     7
100
AcDbLine
 10
-789.8030399363063
 20
-511.6915482834115
 30
0.0
 11
-791.2016022380562
 21
-511.6207840525815
 31
0.0
  0
LINE
  5
22B
330
1F
100
AcDbEntity
  8
0
  6
Continuous
 62
     7
100
AcDbLine
 10
-786.5072560758463
 20
-511.8583078260915
 30
0.0
 11
-786.8207003344262
 21
-511.8424482238215
 31
0.0
  0
LINE
  5
22C
330
1F
100
AcDbEntity
  8
0
  6
Continuous
 62
     7
100
AcDbLine
 10
-786.3734510456263
 20
-482.4917686892215
 30
0.0
 11
-786.3146193958362
 21
-481.3290377836115
 31
0.0
  0
LINE
  5
22D
330
1F
100
AcDbEntity
  8
0
  6
DASHED
 62
     7
100
AcDbLine
 10
-786.6305825832862
 20
-487.5736361852314
 30
0.0
 11
-786.5196732522163
 21
-485.3816587649615
 31
0.0
  0
LINE
  5
22E
330
1F
100
AcDbEntity
  8
0
  6
Continuous
 62
     7
100
AcDbLine
 10
-792.6654020519763
 20
-482.1734095622714
 30
0.0
 11
-792.8231616984663
 21
-485.2913220010814
 31
0.0
  0
LINE
  5
22F
330
1F
100
AcDbEntity
  8
0
  6
Continuous
 62
     7
100
AcDbLine
 10
-792.6065704021762
 20
-481.0106786566714
 30
0.0
 11
-792.6654020519763
 21
-482.1734095622714
 31
0.0
  0
LINE
  5
230
330
1F
100
AcDbEntity
  8
0
  6
Continuous
 62
     7
100
AcDbLine
 10
-792.6065704021762
 20
-481.0106786566714
 30
0.0
 11
-786.3146193958362
 21
-481.3290377836115
 31
0.0
  0
LINE
  5
231
330
1F
100
AcDbEntity
  8
0
  6
Continuous
 62
     7
100
AcDbLine
 10
-786.3146193958362
 20
-481.3290377836115
 30
0.0
 11
-775.6282899088562
 21
-481.8697429674814
 31
0.0
  0
LINE
  5
232
330
1F
100
AcDbEntity
  8
0
  6
Continuous
 62
     7
100
AcDbLine
 10
-792.6065704021762
 20
-481.0106786566714
 30
0.0
 11
-808.9606890678363
 21
-480.1831955858115
 31
0.0
  0
LINE
  5
233
330
1F
100
AcDbEntity
  8
0
  6
Continuous
 62
     7
100
AcDbLine
 10
-811.3391928901563
 20
-482.0654069361115
 30
0.0
 11
-811.5761286648763
 21
-482.0534184978214
 31
0.0
  0
LINE
  5
234
330
1F
100
AcDbEntity
  8
0
  6
Continuous
 62
     7
100
AcDbLine
 10
-827.5498896814663
 20
-484.1466442349915
 30
0.0
 11
-828.4508077358262
 21
-485.1162638414114
 31
0.0
  0
LINE
  5
235
330
1F
100
AcDbEntity
  8
0
  6
DASHED
 62
     7
100
AcDbLine
 10
-831.0095533045462
 20
-489.7195152926815
 30
0.0
 11
-831.0640344739663
 21
-491.3647995914814
 31
0.0
  0
LINE
  5
236
330
1F
100
AcDbEntity
  8
0
  6
DASHED
 62
     7
100
AcDbLine
 10
-830.1083343091861
 20
-489.7651150267316
 30
0.0
 11
-830.6101251958662
 21
-489.7397254920015
 31
0.0
  0
LINE
  5
237
330
1F
100
AcDbEntity
  8
0
  6
DASHED
 62
     7
100
AcDbLine
 10
-830.8976857296263
 20
-488.0771346220115
 30
0.0
 11
-831.0095533045462
 21
-489.7195152926815
 31
0.0
  0
LINE
  5
238
330
1F
100
AcDbEntity
  8
0
  6
DASHED
 62
     7
100
AcDbLine
 10
-829.8423120242262
 20
-488.4645598639215
 30
0.0
 11
-829.9749451367163
 21
-491.0858795463514
 31
0.0
  0
LINE
  5
239
330
1F
100
AcDbEntity
  8
0
  6
DASHED
 62
     7
100
AcDbLine
 10
-827.2008212987562
 20
-487.6706985964015
 30
0.0
 11
-829.6055984262362
 21
-488.1863886137815
 31
0.0
  0
LINE
  5
23A
330
1F
100
AcDbEntity
  8
0
  6
DASHED
 62
     7
100
AcDbLine
 10
-826.0381740111663
 20
-487.6681140634914
 30
0.0
 11
-826.7324428486263
 21
-487.6329855603015
 31
0.0
  0
LINE
  5
23B
330
1F
100
AcDbEntity
  8
0
  6
DASHED
 62
     7
100
AcDbLine
 10
-829.7675183294562
 20
-491.3865233414215
 30
0.0
 11
-827.4270752379362
 21
-492.1423112496716
 31
0.0
  0
LINE
  5
23C
330
1F
100
AcDbEntity
  8
0
  6
DASHED
 62
     7
100
AcDbLine
 10
-826.9648955444861
 20
-492.2271085173215
 30
0.0
 11
-826.5813999745762
 21
-492.2465125646115
 31
0.0
  0
LINE
  5
23D
330
1F
100
AcDbEntity
  8
0
  6
DASHED
 62
     7
100
AcDbLine
 10
-831.5088384403962
 20
-489.6942525435316
 30
0.0
 11
-837.3988811305462
 21
-489.3927341625515
 31
0.0
  0
LINE
  5
23E
330
1F
100
AcDbEntity
  8
0
  6
DASHED
 62
     7
100
AcDbLine
 10
-830.8621301187961
 20
-492.0011506804615
 30
0.0
 11
-828.1300692658563
 21
-495.6131335261216
 31
0.0
  0
LINE
  5
23F
330
1F
100
AcDbEntity
  8
1
  6
DOT_CENTER
 62
     7
100
AcDbLine
 10
-839.8489127760963
 20
-494.2786599916615
 30
0.0
 11
-839.3435807348562
 21
-484.2914343201514
 31
0.0
  0
LINE
  5
240
330
1F
100
AcDbEntity
  8
1
  6
DOT_CENTER
 62
     7
100
AcDbLine
 10
-834.6026339197263
 20
-489.5377131765315
 30
0.0
 11
-844.5898595912363
 21
-489.0323811352914
 31
0.0
  0
LINE
  5
241
330
1F
100
AcDbEntity
  8
1
  6
Continuous
 62
     7
100
AcDbLine
 10
-791.4860589942161
 20
-511.3060073795716
 30
0.0
 11
-791.1807661792363
 21
-505.2722949087315
 31
0.0
  0
LINE
  5
242
330
1F
100
AcDbEntity
  8
0
  6
Continuous
 62
     7
100
AcDbLine
 10
-791.0868467635862
 20
-503.4161007186915
 30
0.0
 11
-791.0864957965862
 21
-503.4161184768616
 31
0.0
  0
LINE
  5
243
330
1F
100
AcDbEntity
  8
1
  6
DOT_CENTER
 62
     7
100
AcDbLine
 10
-790.2880759551763
 20
-497.5239370681315
 30
0.0
 11
-789.7044175557662
 21
-485.9886935564916
 31
0.0
  0
LINE
  5
244
330
1F
100
AcDbEntity
  8
1
  6
DOT_CENTER
 62
     7
100
AcDbLine
 10
-784.2286249996462
 20
-492.0481445120115
 30
0.0
 11
-795.7638685112963
 21
-491.4644861126114
 31
0.0
  0
LINE
  5
245
330
1F
100
AcDbEntity
  8
1
  6
DOT_CENTER
 62
     7
100
AcDbLine
 10
-773.3097067037063
 20
-498.3812476235514
 30
0.0
 11
-772.7260483043062
 21
-486.8460041119115
 31
0.0
  0
LINE
  5
246
330
1F
100
AcDbEntity
  8
1
  6
DOT_CENTER
 62
     7
100
AcDbLine
 10
-767.2502557481862
 20
-492.9054550674316
 30
0.0
 11
-778.7854992598263
 21
-492.3217966680215
 31
0.0
  0
LINE
  5
247
330
1F
100
AcDbEntity
  8
1
  6
Continuous
 62
     7
100
AcDbLine
 10
-825.4881530610562
 20
-483.8538722809315
 30
0.0
 11
-822.2190009218662
 21
-484.0173855052215
 31
0.0
  0
LINE
  5
248
330
1F
100
AcDbEntity
  8
1
  6
DASHED
 62
     7
100
AcDbLine
 10
-826.9263621376763
 20
-495.9273369899615
 30
0.0
 11
-823.6572099984862
 21
-496.0908502142615
 31
0.0
  0
LINE
  5
249
330
1F
100
AcDbEntity
  8
1
  6
Continuous
 62
     7
100
AcDbLine
 10
-822.2190009218662
 20
-484.0173855052215
 30
0.0
 11
-812.2468805159563
 21
-484.5142359812514
 31
0.0
  0
LINE
  5
24A
330
1F
100
AcDbEntity
  8
1
  6
DASHED
 62
     7
100
AcDbLine
 10
-823.6572099984862
 20
-496.0908502142615
 30
0.0
 11
-813.6850895925763
 21
-496.5877006902815
 31
0.0
  0
LINE
  5
24B
330
1F
100
AcDbEntity
  8
0
  6
DASHED
 62
     7
100
AcDbLine
 10
-844.5962467554666
 20
-500.1850471559137
 30
0.0
 11
-833.0962467554766
 21
-500.1850471559137
 31
0.0
  0
LINE
  5
24C
330
1F
100
AcDbEntity
  8
0
  6
Continuous
 62
     7
100
AcDbLine
 10
-854.5962467554666
 20
-485.2563758231477
 30
0.0
 11
-854.5962467554766
 21
-484.6850471559137
 31
0.0
  0
LINE
  5
24D
330
1F
100
AcDbEntity
  8
0
  6
Continuous
 62
     7
100
AcDbLine
 10
-847.0962467554766
 20
-485.2563758231477
 30
0.0
 11
-847.0962467554766
 21
-499.6850471559137
 31
0.0
  0
LINE
  5
24E
330
1F
100
AcDbEntity
  8
0
  6
DASHED
 62
     7
100
AcDbLine
 10
-842.4462465019765
 20
-485.2563758231477
 30
0.0
 11
-842.4462465019765
 21
-493.9850469725117
 31
0.0
  0
LINE
  5
24F
330
1F
100
AcDbEntity
  8
0
  6
Continuous
 62
     7
100
AcDbLine
 10
-836.7462465019764
 20
-485.2563758231477
 30
0.0
 11
-836.7462465019764
 21
-484.6850471559137
 31
0.0
  0
LINE
  5
250
330
1F
100
AcDbEntity
  8
0
  6
Continuous
 62
     7
100
AcDbLine
 10
-832.5962467554766
 20
-485.2563758231477
 30
0.0
 11
-832.5962467554766
 21
-484.6850471559137
 31
0.0
  0
LINE
  5
251
330
1F
100
AcDbEntity
  8
0
  6
DASHED
 62
     7
100
AcDbLine
 10
-836.7462465019764
 20
-493.9850469725117
 30
0.0
 11
-837.2855916128965
 21
-493.9850469725117
 31
0.0
  0
LINE
  5
252
330
1F
100
AcDbEntity
  8
0
  6
DASHED
 62
     7
100
AcDbLine
 10
-837.5400479019765
 20
-493.9850469725117
 30
0.0
 11
-837.2855916128965
 21
-493.9850469725117
 31
0.0
  0
LINE
  5
253
330
1F
100
AcDbEntity
  8
0
  6
Continuous
 62
     7
100
AcDbLine
 10
-847.0962467554766
 20
-497.6850471559137
 30
0.0
 11
-847.0962467554766
 21
-486.6850471559137
 31
0.0
  0
LINE
  5
254
330
1F
100
AcDbEntity
  8
0
  6
Continuous
 62
     7
100
AcDbLine
 10
-847.0962467554766
 20
-484.6850471559137
 30
0.0
 11
-847.0962467554766
 21
-485.2563758231477
 31
0.0
  0
LINE
  5
255
330
1F
100
AcDbEntity
  8
0
  6
DASHED
 62
     7
100
AcDbLine
 10
-847.5962467554766
 20
-497.1850471559137
 30
0.0
 11
-851.5962467554766
 21
-497.1850471559137
 31
0.0
  0
LINE
  5
256
330
1F
100
AcDbEntity
  8
0
  6
DASHED
 62
     7
100
AcDbLine
 10
-851.5962467554766
 20
-497.1850471559137
 30
0.0
 11
-851.5962467554766
 21
-494.6850471559137
 31
0.0
  0
LINE
  5
257
330
1F
100
AcDbEntity
  8
0
  6
DASHED
 62
     7
100
AcDbLine
 10
-854.5962467554766
 20
-494.6850471559137
 30
0.0
 11
-851.5962467554766
 21
-494.6850471559137
 31
0.0
  0
LINE
  5
258
330
1F
100
AcDbEntity
  8
0
  6
DASHED
 62
     7
100
AcDbLine
 10
-851.5962467554766
 20
-494.6850471559137
 30
0.0
 11
-851.5962467554766
 21
-489.6850471559137
 31
0.0
  0
LINE
  5
259
330
1F
100
AcDbEntity
  8
0
  6
DASHED
 62
     7
100
AcDbLine
 10
-851.5962467554766
 20
-489.6850471559137
 30
0.0
 11
-854.5962467554766
 21
-489.6850471559137
 31
0.0
  0
LINE
  5
25A
330
1F
100
AcDbEntity
  8
0
  6
DASHED
 62
     7
100
AcDbLine
 10
-851.5962467554766
 20
-489.6850471559137
 30
0.0
 11
-851.5962467554766
 21
-487.1850471559137
 31
0.0
  0
LINE
  5
25B
330
1F
100
AcDbEntity
  8
0
  6
DASHED
 62
     7
100
AcDbLine
 10
-847.5962467554766
 20
-487.1850471559137
 30
0.0
 11
-851.5962467554766
 21
-487.1850471559137
 31
0.0
  0
LINE
  5
25C
330
1F
100
AcDbEntity
  8
1
  6
DASH_CENTER
 62
     3
100
AcDbLine
 10
-857.5962467554766
 20
-492.1850471559137
 30
0.0
 11
-844.5962467554766
 21
-492.1850471559137
 31
0.0
  0
LINE
  5
25D
330
1F
100
AcDbEntity
  8
0
  6
DASHED
 62
     7
100
AcDbLine
 10
-842.4462465019765
 20
-493.9850469725117
 30
0.0
 11
-841.9061209531264
 21
-493.9850469725117
 31
0.0
  0
LINE
  5
25E
330
1F
100
AcDbEntity
  8
0
  6
DASHED
 62
     7
100
AcDbLine
 10
-842.4812881912665
 20
-493.9850469725117
 30
0.0
 11
-842.4462465019765
 21
-493.9850469725117
 31
0.0
  0
LINE
  5
25F
330
1F
100
AcDbEntity
  8
0
  6
Continuous
 62
     7
100
AcDbLine
 10
-842.4462465019765
 20
-484.6850471559137
 30
0.0
 11
-842.4462465019765
 21
-485.2563758231477
 31
0.0
  0
LINE
  5
260
330
1F
100
AcDbEntity
  8
0
  6
DASHED
 62
     7
100
AcDbLine
 10
-836.7462465019764
 20
-493.9850469725117
 30
0.0
 11
-836.7462465019764
 21
-485.2563758231477
 31
0.0
  0
LINE
  5
261
330
1F
100
AcDbEntity
  8
0
  6
DASHED
 62
     7
100
AcDbLine
 10
-841.3400479019765
 20
-494.2850469725107
 30
0.0
 11
-841.3400479019765
 21
-497.2850469725107
 31
0.0
  0
LINE
  5
262
330
1F
100
AcDbEntity
  8
0
  6
DASHED
 62
     7
100
AcDbLine
 10
-836.6972450140065
 20
-493.9850469725117
 30
0.0
 11
-836.7462465019764
 21
-493.9850469725117
 31
0.0
  0
LINE
  5
263
330
1F
100
AcDbEntity
  8
0
  6
DASHED
 62
     7
100
AcDbLine
 10
-841.3400479019765
 20
-494.2850469725107
 30
0.0
 11
-841.3886425887965
 21
-494.2850469725117
 31
0.0
  0
LINE
  5
264
330
1F
100
AcDbEntity
  8
0
  6
DASHED
 62
     7
100
AcDbLine
 10
-837.8400479019765
 20
-497.2850469725117
 30
0.0
 11
-841.3400479019765
 21
-497.2850469725107
 31
0.0
  0
LINE
  5
265
330
1F
100
AcDbEntity
  8
0
  6
DASHED
 62
     7
100
AcDbLine
 10
-837.7878799869466
 20
-497.2850469725117
 30
0.0
 11
-837.8400479019765
 21
-497.2850469725117
 31
0.0
  0
LINE
  5
266
330
1F
100
AcDbEntity
  8
0
  6
DASHED
 62
     7
100
AcDbLine
 10
-841.6400479019765
 20
-493.9850469725117
 30
0.0
 11
-841.9061209531264
 21
-493.9850469725117
 31
0.0
  0
LINE
  5
267
330
1F
100
AcDbEntity
  8
0
  6
Continuous
 62
     7
100
AcDbLine
 10
-846.1485960005266
 20
-500.1850471559137
 30
0.0
 11
-844.5962467554666
 21
-500.1850471559137
 31
0.0
  0
LINE
  5
268
330
1F
100
AcDbEntity
  8
0
  6
Continuous
 62
     7
100
AcDbLine
 10
-854.5962467554766
 20
-484.1850471559137
 30
0.0
 11
-847.5962467554766
 21
-484.1850471559137
 31
0.0
  0
LINE
  5
269
330
1F
100
AcDbEntity
  8
0
  6
Continuous
 62
     7
100
AcDbLine
 10
-854.5962467554766
 20
-499.6850471559137
 30
0.0
 11
-854.5962467554666
 21
-485.2563758231477
 31
0.0
  0
LINE
  5
26A
330
1F
100
AcDbEntity
  8
0
  6
Continuous
 62
     7
100
AcDbLine
 10
-854.5962467554766
 20
-484.6850471559137
 30
0.0
 11
-854.5962467554766
 21
-484.1850471559137
 31
0.0
  0
LINE
  5
26B
330
1F
100
AcDbEntity
  8
0
  6
Continuous
 62
     7
100
AcDbLine
 10
-854.5962467554766
 20
-500.1850471559137
 30
0.0
 11
-847.5962467554766
 21
-500.1850471559137
 31
0.0
  0
LINE
  5
26C
330
1F
100
AcDbEntity
  8
0
  6
Continuous
 62
     7
100
AcDbLine
 10
-854.5962467554766
 20
-500.1850471559137
 30
0.0
 11
-854.5962467554766
 21
-499.6850471559137
 31
0.0
  0
LINE
  5
26D
330
1F
100
AcDbEntity
  8
0
  6
Continuous
 62
     7
100
AcDbLine
 10
-842.9462465019765
 20
-484.1850471559137
 30
0.0
 11
-836.2462465019764
 21
-484.1850471559137
 31
0.0
  0
LINE
  5
26E
330
1F
100
AcDbEntity
  8
0
  6
Continuous
 62
     7
100
AcDbLine
 10
-842.9462465019765
 20
-484.1850471559137
 30
0.0
 11
-846.1485960005266
 21
-484.1850471559137
 31
0.0
  0
LINE
  5
26F
330
1F
100
AcDbEntity
  8
0
  6
Continuous
 62
     7
100
AcDbLine
 10
-836.2462465019764
 20
-484.1850471559137
 30
0.0
 11
-833.0962467554766
 21
-484.1850471559137
 31
0.0
  0
LINE
  5
270
330
1F
100
AcDbEntity
  8
0
  6
DASHED
 62
     7
100
AcDbLine
 10
-832.5962467554766
 20
-499.6850471559137
 30
0.0
 11
-832.5962467554766
 21
-485.2563758231477
 31
0.0
  0
LINE
  5
271
330
1F
100
AcDbEntity
  8
0
  6
DASHED
 62
     7
100
AcDbLine
 10
-837.8400479019765
 20
-494.2850469725117
 30
0.0
 11
-837.8400479019765
 21
-497.2850469725117
 31
0.0
  0
LINE
  5
272
330
1F
100
AcDbEntity
  8
0
  6
Continuous
 62
     7
100
AcDbLine
 10
-846.1485960005266
 20
-500.1850471559137
 30
0.0
 11
-847.5962467554766
 21
-500.1850471559137
 31
0.0
  0
LINE
  5
273
330
1F
100
AcDbEntity
  8
0
  6
Continuous
 62
     7
100
AcDbLine
 10
-846.1485960005266
 20
-484.1850471559137
 30
0.0
 11
-847.5962467554766
 21
-484.1850471559137
 31
0.0
  0
LINE
  5
274
330
1F
100
AcDbEntity
  8
1
  6
DOT_CENTER
 62
     3
100
AcDbLine
 10
-844.6462467554766
 20
-489.2850471559087
 30
0.0
 11
-834.5462467554764
 21
-489.2850471559087
 31
0.0
  0
LINE
  5
275
330
1F
100
AcDbEntity
  8
1
  6
DOT_CENTER
 62
     3
100
AcDbLine
 10
-839.5962467554766
 20
-484.2350471559078
 30
0.0
 11
-839.5962467554766
 21
-494.3350471559077
 31
0.0
  0
LINE
  5
276
330
1F
100
AcDbEntity
  8
50
  6
Continuous
 62
     3
100
AcDbLine
 10
-844.5962467554666
 20
-551.1601019376117
 30
0.0
 11
-844.5962467554666
 21
-553.5830936145187
 31
0.0
  0
LINE
  5
277
330
1F
100
AcDbEntity
  8
50
  6
Continuous
 62
     3
100
AcDbLine
 10
-844.5962467554666
 20
-538.6970139261227
 30
0.0
 11
-844.5962467554666
 21
-539.1850471559137
 31
0.0
  0
LINE
  5
278
330
1F
100
AcDbEntity
  8
1
  6
DOTTED
 62
     4
100
AcDbLine
 10
-844.5962467554666
 20
-539.1850471559137
 30
0.0
 11
-771.5962467554666
 21
-539.1850471559137
 31
0.0
  0
LINE
  5
279
330
1F
100
AcDbEntity
  8
50
  6
Continuous
 62
     3
100
AcDbLine
 10
-844.5962467554666
 20
-539.1850471559137
 30
0.0
 11
-844.5962467554666
 21
-551.1601019376117
 31
0.0
  0
ARC
  5
27A
330
1F
100
AcDbEntity
  8
50
  6
Continuous
 62
     3
100
AcDbCircle
 10
-1183.171108588371
 20
-524.5155061513789
 30
0.0
 40
2.700720138881312
100
AcDbArc
 50
73.58185436804062
 51
167.9058438320256
  0
ARC
  5
27B
330
1F
100
AcDbEntity
  8
50
  6
Continuous
 62
     3
100
AcDbCircle
 10
-1185.811885194604
 20
-521.4190820869836
 30
0.0
 40
2.530572330770403
100
AcDbArc
 50
188.915192644438
 51
270.0
  0
ARC
  5
27C
330
1F
100
AcDbEntity
  8
50
  6
Continuous
 62
     3
100
AcDbCircle
 10
-1182.7475893879
 20
-524.6771805625896
 30
0.0
 40
7.115272774379733
100
AcDbArc
 50
78.3590599022597
 51
141.4460302670433
  0
ARC
  5
27D
330
1F
100
AcDbEntity
  8
50
  6
Continuous
 62
     3
100
AcDbCircle
 10
-1183.811885194604
 20
-521.4190820869836
 30
0.0
 40
2.530572330805482
100
AcDbArc
 50
311.6880338318942
 51
351.084807355562
  0
ARC
  5
27E
330
1F
100
AcDbEntity
  8
50
  6
Continuous
 62
     3
100
AcDbCircle
 10
-1178.393093478951
 20
-521.8359375366845
 30
0.0
 40
4.015655126018241
100
AcDbArc
 50
181.2695607563726
 51
201.5180273500303
  0
ARC
  5
27F
330
1F
100
AcDbEntity
  8
50
  6
Continuous
 62
     3
100
AcDbCircle
 10
-1220.230676910256
 20
-539.7389277010799
 30
0.0
 40
4.015655126000981
100
AcDbArc
 50
1.26956075492434
 51
21.51802734887457
  0
ARC
  5
280
330
1F
100
AcDbEntity
  8
50
  6
Continuous
 62
     3
100
AcDbCircle
 10
-1214.811885194604
 20
-540.1557831508827
 30
0.0
 40
2.530572330816349
100
AcDbArc
 50
131.6880338316751
 51
171.0848073532836
  0
ARC
  5
281
330
1F
100
AcDbEntity
  8
50
  6
Continuous
 62
     3
100
AcDbCircle
 10
-1215.876181001322
 20
-536.8976846752768
 30
0.0
 40
7.115272774277232
100
AcDbArc
 50
258.3590599022056
 51
321.4460302671134
  0
ARC
  5
282
330
1F
100
AcDbEntity
  8
50
  6
Continuous
 62
     3
100
AcDbCircle
 10
-1212.811885194604
 20
-540.1557831508827
 30
0.0
 40
2.530572330786189
100
AcDbArc
 50
8.91519264671645
 51
90.0
  0
ARC
  5
283
330
1F
100
AcDbEntity
  8
50
  6
Continuous
 62
     3
100
AcDbCircle
 10
-1215.452661800851
 20
-537.0593590864875
 30
0.0
 40
2.700720138881203
100
AcDbArc
 50
253.5818543680399
 51
347.9058438320882
  0
ARC
  5
284
330
1F
100
AcDbEntity
  8
50
  6
Continuous
 62
     3
100
AcDbCircle
 10
-850.6554707041823
 20
-512.0558445092147
 30
0.0
 40
2.700720138880713
100
AcDbArc
 50
73.58185436803687
 51
167.9058438320445
  0
ARC
  5
285
330
1F
100
AcDbEntity
  8
50
  6
Continuous
 62
     3
100
AcDbCircle
 10
-852.6962470329383
 20
-509.6608786263851
 30
0.0
 40
1.925008806165198
100
AcDbArc
 50
170.7542644472207
 51
251.839071802791
  0
ARC
  5
286
330
1F
100
AcDbEntity
  8
50
  6
Continuous
 62
     3
100
AcDbCircle
 10
-849.6319512262323
 20
-511.2400734072262
 30
0.0
 40
6.04947764125706
100
AcDbArc
 50
82.05949163563405
 51
145.1464620004167
  0
ARC
  5
287
330
1F
100
AcDbEntity
  8
50
  6
Continuous
 62
     3
100
AcDbCircle
 10
-851.2962473104153
 20
-508.9594204448197
 30
0.0
 40
2.530572330805652
100
AcDbArc
 50
311.6880338318908
 51
351.0848073555633
  0
ARC
  5
288
330
1F
100
AcDbEntity
  8
50
  6
Continuous
 62
     3
100
AcDbCircle
 10
-845.8774555947623
 20
-509.3762758945207
 30
0.0
 40
4.015655126018245
100
AcDbArc
 50
181.2695607563759
 51
201.5180273500318
  0
ARC
  5
289
330
1F
100
AcDbEntity
  8
50
  6
Continuous
 62
     3
100
AcDbCircle
 10
-887.7150390260672
 20
-527.2792660589157
 30
0.0
 40
4.015655126000733
100
AcDbArc
 50
1.26956075491144
 51
21.51802734886195
  0
ARC
  5
28A
330
1F
100
AcDbEntity
  8
50
  6
Continuous
 62
     3
100
AcDbCircle
 10
-882.2962473104153
 20
-527.6961215087188
 30
0.0
 40
2.530572330815405
100
AcDbArc
 50
131.6880338316666
 51
171.0848073532836
  0
ARC
  5
28B
330
1F
100
AcDbEntity
  8
50
  6
Continuous
 62
     3
100
AcDbCircle
 10
-883.3605431171334
 20
-524.4380230331128
 30
0.0
 40
7.115272774277455
100
AcDbArc
 50
258.3590599022059
 51
321.4460302671091
  0
ARC
  5
28C
330
1F
100
AcDbEntity
  8
50
  6
Continuous
 62
     3
100
AcDbCircle
 10
-880.2962473104153
 20
-527.6961215087188
 30
0.0
 40
2.530572330786189
100
AcDbArc
 50
8.91519264671645
 51
90.0
  0
ARC
  5
28D
330
1F
100
AcDbEntity
  8
50
  6
Continuous
 62
     3
100
AcDbCircle
 10
-882.9370239166624
 20
-524.5996974443237
 30
0.0
 40
2.70072013888164
100
AcDbArc
 50
253.5818543680427
 51
347.9058438320836
  0
ARC
  5
28E
330
1F
100
AcDbEntity
  8
0
  6
Continuous
 62
     7
100
AcDbCircle
 10
-1094.564612166514
 20
-510.1447088426068
 30
0.0
 40
6.500000028402339
100
AcDbArc
 50
300.8427863175931
 51
352.5712650957308
  0
ARC
  5
28F
330
1F
100
AcDbEntity
  8
0
  6
Continuous
 62
     7
100
AcDbCircle
 10
-1094.564612043684
 20
-510.1447087722669
 30
0.0
 40
6.500000025820101
100
AcDbArc
 50
269.9999991749411
 51
300.8427850701211
  0
ARC
  5
290
330
1F
100
AcDbEntity
  8
0
  6
Continuous
 62
     7
100
AcDbCircle
 10
-1163.142249821854
 20
-545.5082614829468
 30
0.0
 40
0.500000106943894
100
AcDbArc
 50
129.0983251680162
 51
175.0000289396917
  0
ARC
  5
291
330
1F
100
AcDbEntity
  8
0
  6
Continuous
 62
     7
100
AcDbCircle
 10
-1241.818168974694
 20
-490.9447088511071
 30
0.0
 40
155.0000000025848
100
AcDbArc
 50
352.5712646929021
 51
358.1438576040711
  0
ARC
  5
292
330
1F
100
AcDbEntity
  8
0
  6
Continuous
 62
     7
100
AcDbCircle
 10
-1082.567422518414
 20
-507.144708798087
 30
0.0
 40
0.3000000000101863
100
AcDbArc
 50
0.0
 51
89.9999999980893
  0
ARC
  5
293
330
1F
100
AcDbEntity
  8
0
  6
Continuous
 62
     7
100
AcDbCircle
 10
-1164.770428004674
 20
-552.644708798087
 30
0.0
 40
0.5
100
AcDbArc
 50
270.0
 51
355.0000000003816
  0
ARC
  5
294
330
1F
100
AcDbEntity
  8
0
  6
Continuous
 62
     7
100
AcDbCircle
 10
-1075.713294332364
 20
-522.0922708453669
 30
0.0
 40
0.9999999999930104
100
AcDbArc
 50
277.4999999723131
 51
349.3793790304813
  0
ARC
  5
295
330
1F
100
AcDbEntity
  8
0
  6
Continuous
 62
     7
100
AcDbCircle
 10
-1085.818168660234
 20
-525.4447088631069
 30
0.0
 40
30.00000002418587
100
AcDbArc
 50
63.83552022174241
 51
72.54172917460826
  0
ARC
  5
296
330
1F
100
AcDbEntity
  8
0
  6
Continuous
 62
     7
100
AcDbCircle
 10
-1241.818168970384
 20
-490.9447087980872
 30
0.0
 40
169.999999999996
100
AcDbArc
 50
349.3793790304858
 51
357.12669238009
  0
ARC
  5
297
330
1F
100
AcDbEntity
  8
0
  6
Continuous
 62
     7
100
AcDbCircle
 10
-1073.030632638184
 20
-499.4162835575368
 30
0.0
 40
1.00000000000633
100
AcDbArc
 50
357.1266923800012
 51
63.83552082854195
  0
ARC
  5
298
330
1F
100
AcDbEntity
  8
0
  6
Continuous
 62
     7
100
AcDbCircle
 10
-1078.068194044344
 20
-507.144708798087
 30
0.0
 40
0.3000000000001819
100
AcDbArc
 50
90.0
 51
180.0
  0
ARC
  5
299
330
1F
100
AcDbEntity
  8
0
  6
Continuous
 62
     7
100
AcDbCircle
 10
-1076.967840580874
 20
-497.3036055596368
 30
0.0
 40
0.499999986075536
100
AcDbArc
 50
72.54174387450125
 51
126.2708789847311
  0
ARC
  5
29A
330
1F
100
AcDbEntity
  8
0
  6
Continuous
 62
     7
100
AcDbCircle
 10
-1076.967840755004
 20
-497.3036056574071
 30
0.0
 40
0.4999999618827281
100
AcDbArc
 50
126.2708562692517
 51
179.9999913792383
  0
ARC
  5
29B
330
1F
100
AcDbEntity
  8
0
  6
Continuous
 62
     7
100
AcDbCircle
 10
-1083.667840710524
 20
-496.0231847168371
 30
0.0
 40
0.4999999936399038
100
AcDbArc
 50
0.00000185526673
 51
42.90993296369947
  0
ARC
  5
29C
330
1F
100
AcDbEntity
  8
0
  6
Continuous
 62
     7
100
AcDbCircle
 10
-1083.667840732574
 20
-496.0231846931271
 30
0.0
 40
0.4999999936436703
100
AcDbArc
 50
42.90992925340006
 51
85.81986036088307
  0
ARC
  5
29D
330
1F
100
AcDbEntity
  8
0
  6
Continuous
 62
     7
100
AcDbCircle
 10
-1086.398759543054
 20
-495.9504228588568
 30
0.0
 40
0.4999999999891155
100
AcDbArc
 50
91.12771430697288
 51
178.1552678663195
  0
ARC
  5
29E
330
1F
100
AcDbEntity
  8
0
  6
Continuous
 62
     7
100
AcDbCircle
 10
-1085.818168364414
 20
-525.4447089814968
 30
0.0
 40
30.00000000001061
100
AcDbArc
 50
85.81986221635418
 51
91.12771430711847
  0
ARC
  5
29F
330
1F
100
AcDbEntity
  8
0
  6
Continuous
 62
     7
100
AcDbCircle
 10
-1085.818168158944
 20
-525.4447090207569
 30
0.0
 40
30.00000002418758
100
AcDbArc
 50
72.54173017823024
 51
85.81986261319483
  0
ARC
  5
2A0
330
1F
100
AcDbEntity
  8
0
  6
Continuous
 62
     7
100
AcDbCircle
 10
-1119.311885690164
 20
-599.4447906638671
 30
0.0
 40
70.00000010694946
100
AcDbArc
 50
107.1544738506167
 51
129.0982957762711
  0
ARC
  5
2A1
330
1F
100
AcDbEntity
  8
0
  6
DASHED
 62
     7
100
AcDbCircle
 10
-1164.420933325214
 20
-550.9447089814367
 30
0.0
 40
0.3000000000021736
100
AcDbArc
 50
355.0000000008299
 51
88.18555229920256
  0
ARC
  5
2A2
330
1F
100
AcDbEntity
  8
0
  6
Continuous
 62
     7
100
AcDbCircle
 10
-1163.056110174214
 20
-535.3447089814368
 30
0.0
 40
0.3000000000001819
100
AcDbArc
 50
270.0
 51
332.3328888944023
  0
ARC
  5
2A3
330
1F
100
AcDbEntity
  8
0
  6
DASHED
 62
     7
100
AcDbCircle
 10
-1162.222402247004
 20
-534.994354364777
 30
0.0
 40
0.5000000000014646
100
AcDbArc
 50
97.49999997223829
 51
175.0000000004815
  0
ARC
  5
2A4
330
1F
100
AcDbEntity
  8
0
  6
Continuous
 62
     7
100
AcDbCircle
 10
-1171.884239149334
 20
-464.4789175404027
 30
0.0
 40
2.299999999994521
100
AcDbArc
 50
19.16045445423293
 51
90.0
  0
ARC
  5
2A5
330
1F
100
AcDbEntity
  8
0
  6
Continuous
 62
     7
100
AcDbCircle
 10
-1128.812880822104
 20
-504.6789175404036
 30
0.0
 40
0.4999999999979626
100
AcDbArc
 50
288.0399083356611
 51
332.964987537825
  0
ARC
  5
2A6
330
1F
100
AcDbEntity
  8
0
  6
Continuous
 62
     7
100
AcDbCircle
 10
-1133.711885194604
 20
-502.1789780512377
 30
0.0
 40
5.999994662837227
100
AcDbArc
 50
332.9649875377963
 51
27.03643305519265
  0
ARC
  5
2A7
330
1F
100
AcDbEntity
  8
0
  6
Continuous
 62
     7
100
AcDbCircle
 10
-1128.812942807174
 20
-499.6789170968057
 30
0.0
 40
0.4999999999999351
100
AcDbArc
 50
27.0364330552865
 51
53.15915236533193
  0
ARC
  5
2A8
330
1F
100
AcDbEntity
  8
0
  6
Continuous
 62
     7
100
AcDbCircle
 10
-1131.021942284234
 20
-506.3789175404037
 30
0.0
 40
2.299999999999898
100
AcDbArc
 50
270.0
 51
356.875438782234
  0
ARC
  5
2A9
330
1F
100
AcDbEntity
  8
0
  6
Continuous
 62
     7
100
AcDbCircle
 10
-1272.111885194594
 20
-498.6770989529797
 30
0.0
 40
143.6000000000037
100
AcDbArc
 50
356.8754387822348
 51
3.12308418391592
  0
ARC
  5
2AA
330
1F
100
AcDbEntity
  8
0
  6
Continuous
 62
     7
100
AcDbCircle
 10
-1131.021743785144
 20
-490.9789175404037
 30
0.0
 40
2.300000000001862
100
AcDbArc
 50
3.12308418393199
 51
90.0
  0
ARC
  5
2AB
330
1F
100
AcDbEntity
  8
0
  6
Continuous
 62
     7
100
AcDbCircle
 10
-1162.209385030914
 20
-486.3789175404037
 30
0.0
 40
2.299999999993271
100
AcDbArc
 50
186.4912379132859
 51
270.0
  0
ARC
  5
2AC
330
1F
100
AcDbEntity
  8
0
  6
Continuous
 62
     7
100
AcDbCircle
 10
-1270.311885194564
 20
-498.6788955227756
 30
0.0
 40
106.500000000001
100
AcDbArc
 50
6.49123791325976
 51
19.16045445420043
  0
ARC
  5
2AD
330
1F
100
AcDbEntity
  8
0
  6
DASHED
 62
     7
100
AcDbCircle
 10
-1181.811885194604
 20
-466.9289175404086
 30
0.0
 40
1.0
100
AcDbArc
 50
270.0
 51
0.0
  0
ARC
  5
2AE
330
1F
100
AcDbEntity
  8
0
  6
DASHED
 62
     7
100
AcDbCircle
 10
-1183.511885194604
 20
-468.2289175404077
 30
0.0
 40
0.2999999999991019
100
AcDbArc
 50
90.0
 51
180.0
  0
ARC
  5
2AF
330
1F
100
AcDbEntity
  8
0
  6
DASHED
 62
     7
100
AcDbCircle
 10
-1183.511885194604
 20
-483.1289175404087
 30
0.0
 40
0.2999999999999545
100
AcDbArc
 50
180.0
 51
270.0
  0
ARC
  5
2B0
330
1F
100
AcDbEntity
  8
0
  6
DASHED
 62
     7
100
AcDbCircle
 10
-1181.811885194604
 20
-484.4289175404067
 30
0.0
 40
1.0
100
AcDbArc
 50
0.0
 51
90.0
  0
ARC
  5
2B1
330
1F
100
AcDbEntity
  8
0
  6
DASHED
 62
     7
100
AcDbCircle
 10
-1181.811885194604
 20
-488.1789175404067
 30
0.0
 40
1.0
100
AcDbArc
 50
270.0
 51
0.0
  0
ARC
  5
2B2
330
1F
100
AcDbEntity
  8
0
  6
Continuous
 62
     7
100
AcDbCircle
 10
-1181.811885194604
 20
-463.1789175404067
 30
0.0
 40
1.0
100
AcDbArc
 50
0.0
 51
90.0
  0
ARC
  5
2B3
330
1F
100
AcDbEntity
  8
0
  6
Continuous
 62
     7
100
AcDbCircle
 10
-1137.573192644704
 20
-499.6789170968077
 30
0.0
 40
0.5
100
AcDbArc
 50
90.0
 51
147.0783610076837
  0
ARC
  5
2B4
330
1F
100
AcDbEntity
  8
0
  6
DASHED
 62
     7
100
AcDbCircle
 10
-1133.711885194604
 20
-502.1789780512377
 30
0.0
 40
5.100000000005774
100
AcDbArc
 50
147.0783610079021
 51
212.9198366554033
  0
ARC
  5
2B5
330
1F
100
AcDbEntity
  8
0
  6
DASHED
 62
     7
100
AcDbCircle
 10
-1137.573271286484
 20
-504.6789175404047
 30
0.0
 40
0.4999999999986948
100
AcDbArc
 50
212.9198366554856
 51
270.0
  0
ARC
  5
2B6
330
1F
100
AcDbEntity
  8
0
  6
Continuous
 62
     7
100
AcDbCircle
 10
-1130.777584423044
 20
-503.1789175404047
 30
0.0
 40
0.5
100
AcDbArc
 50
270.0
 51
341.1821181823709
  0
ARC
  5
2B7
330
1F
100
AcDbEntity
  8
0
  6
DASHED
 62
     7
100
AcDbCircle
 10
-1133.711885194604
 20
-502.1789780512377
 30
0.0
 40
3.600000000007102
100
AcDbArc
 50
161.1797464093269
 51
198.8178818174137
  0
ARC
  5
2B8
330
1F
100
AcDbEntity
  8
0
  6
DASHED
 62
     7
100
AcDbCircle
 10
-1136.646144570914
 20
-501.1789170968077
 30
0.0
 40
0.5
100
AcDbArc
 50
90.0
 51
161.1797464092554
  0
ARC
  5
2B9
330
1F
100
AcDbEntity
  8
0
  6
DASHED
 62
     7
100
AcDbCircle
 10
-1130.777625818304
 20
-501.1789170968077
 30
0.0
 40
0.5000000000009587
100
AcDbArc
 50
18.82025359074456
 51
90.0
  0
ARC
  5
2BA
330
1F
100
AcDbEntity
  8
0
  6
Continuous
 62
     7
100
AcDbCircle
 10
-1133.711885194604
 20
-502.1789780512377
 30
0.0
 40
3.599999999991767
100
AcDbArc
 50
341.1821181824847
 51
18.82025359072333
  0
ARC
  5
2BB
330
1F
100
AcDbEntity
  8
0
  6
DASHED
 62
     7
100
AcDbCircle
 10
-1136.646185966174
 20
-503.1789175404047
 30
0.0
 40
0.5000000000054018
100
AcDbArc
 50
198.8178818172593
 51
270.0
  0
ARC
  5
2BC
330
1F
100
AcDbEntity
  8
0
  6
Continuous
 62
     7
100
AcDbCircle
 10
-1261.711615632464
 20
-490.7789778944168
 30
0.0
 40
168.4999999999948
100
AcDbArc
 50
353.2739387515252
 51
354.0357673907831
  0
ARC
  5
2BD
330
1F
100
AcDbEntity
  8
0
  6
Continuous
 62
     7
100
AcDbCircle
 10
-1261.711615632464
 20
-490.7789778944168
 30
0.0
 40
168.499999999993
100
AcDbArc
 50
354.0357673907831
 51
358.1710820302883
  0
ARC
  5
2BE
330
1F
100
AcDbEntity
  8
0
  6
Continuous
 62
     7
100
AcDbCircle
 10
-1092.818169023374
 20
-502.2447089835869
 30
0.0
 40
5.799999997899874
100
AcDbArc
 50
270.0000005289972
 51
274.4850639934905
  0
ARC
  5
2BF
330
1F
100
AcDbEntity
  8
0
  6
Continuous
 62
     7
100
AcDbCircle
 10
-1100.528620756954
 20
-469.0401470092168
 30
0.0
 40
39.75936268868795
100
AcDbArc
 50
279.2555708633441
 51
281.1821043522236
  0
ARC
  5
2C0
330
1F
100
AcDbEntity
  8
0
  6
Continuous
 62
     7
100
AcDbCircle
 10
-1125.211884741574
 20
-482.2789780512369
 30
0.0
 40
4.112132034360108
100
AcDbArc
 50
183.97814603409
 51
356.0218539657615
  0
ARC
  5
2C1
330
1F
100
AcDbEntity
  8
0
  6
DASHED
 62
     7
100
AcDbCircle
 10
-1084.317393875374
 20
-488.7247086063969
 30
0.0
 40
10.00144314594904
100
AcDbArc
 50
255.1226266535654
 51
265.6921993919276
  0
ARC
  5
2C2
330
1F
100
AcDbEntity
  8
0
  6
Continuous
 62
     7
100
AcDbCircle
 10
-1092.818171305204
 20
-502.0447078301067
 30
0.0
 40
5.799999706874953
100
AcDbArc
 50
57.45410151075997
 51
70.05780793001074
  0
ARC
  5
2C3
330
1F
100
AcDbEntity
  8
0
  6
Continuous
 62
     7
100
AcDbCircle
 10
-1092.395893291374
 20
-496.6612450980169
 30
0.0
 40
0.4000000123533216
100
AcDbArc
 50
39.99999578626039
 51
85.53557002139635
  0
ARC
  5
2C4
330
1F
100
AcDbEntity
  8
0
  6
Continuous
 62
     7
100
AcDbCircle
 10
-1092.818168998374
 20
-502.0447089753068
 30
0.0
 40
5.799999996609244
100
AcDbArc
 50
70.05783321030829
 51
85.51635953929203
  0
ARC
  5
2C5
330
1F
100
AcDbEntity
  8
0
  6
Continuous
 62
     7
100
AcDbCircle
 10
-1092.818168987024
 20
-502.0447089808167
 30
0.0
 40
5.800000001213285
100
AcDbArc
 50
85.51635965532626
 51
89.99999982969395
  0
ARC
  5
2C6
330
1F
100
AcDbEntity
  8
0
  6
Continuous
 62
     7
100
AcDbCircle
 10
-1100.528622107564
 20
-535.2492816855467
 30
0.0
 40
39.75937342050919
100
AcDbArc
 50
78.82696800215287
 51
79.53586222048666
  0
ARC
  5
2C7
330
1F
100
AcDbEntity
  8
0
  6
DASHED
 62
     7
100
AcDbCircle
 10
-1080.318166671004
 20
-502.1447080247169
 30
0.0
 40
4.949997701177712
100
AcDbArc
 50
225.1942350257023
 51
359.9999889254736
  0
ARC
  5
2C8
330
1F
100
AcDbEntity
  8
0
  6
DASHED
 62
     7
100
AcDbCircle
 10
-1080.318168970384
 20
-502.144708981487
 30
0.0
 40
2.000000927141041
100
AcDbArc
 50
0.05518867809089
 51
179.9448113219091
  0
ARC
  5
2C9
330
1F
100
AcDbEntity
  8
0
  6
DASHED
 62
     7
100
AcDbCircle
 10
-1080.318168970384
 20
-502.144708981487
 30
0.0
 40
2.000000927141041
100
AcDbArc
 50
179.9448113219091
 51
0.05518867809089
  0
ARC
  5
2CA
330
1F
100
AcDbEntity
  8
0
  6
DASHED
 62
     7
100
AcDbCircle
 10
-1084.693074150294
 20
-493.7120222996769
 30
0.0
 40
4.999999999806149
100
AcDbArc
 50
265.6921928161348
 51
280.2124804702787
  0
ARC
  5
2CB
330
1F
100
AcDbEntity
  8
0
  6
Continuous
 62
     7
100
AcDbCircle
 10
-1092.395893258184
 20
-507.6281728478768
 30
0.0
 40
0.3999999979050732
100
AcDbArc
 50
274.4850627485604
 51
319.999999283702
  0
ARC
  5
2CC
330
1F
100
AcDbEntity
  8
0
  6
Continuous
 62
     7
100
AcDbCircle
 10
-1092.818168973444
 20
-502.2447089822767
 30
0.0
 40
5.799999999858118
100
AcDbArc
 50
274.5478579196854
 51
289.9421665399127
  0
ARC
  5
2CD
330
1F
100
AcDbEntity
  8
0
  6
DASHED
 62
     7
100
AcDbCircle
 10
-1084.692784145604
 20
-510.5775461123569
 30
0.0
 40
4.999999999805016
100
AcDbArc
 50
79.78948995728283
 51
94.29680006721726
  0
ARC
  5
2CE
330
1F
100
AcDbEntity
  8
0
  6
Continuous
 62
     7
100
AcDbCircle
 10
-1092.818167482344
 20
-502.2447082484669
 30
0.0
 40
5.800000181097743
100
AcDbArc
 50
289.9421502207785
 51
302.5255906756817
  0
ARC
  5
2CF
330
1F
100
AcDbEntity
  8
0
  6
Continuous
 62
     7
100
AcDbCircle
 10
-1084.318169378704
 20
-515.5634928459667
 30
0.0
 40
10.00000010519469
100
AcDbArc
 50
109.9586780546375
 51
122.5576247876778
  0
ARC
  5
2D0
330
1F
100
AcDbEntity
  8
0
  6
Continuous
 62
     7
100
AcDbCircle
 10
-1089.944424573584
 20
-500.5162260264767
 30
0.0
 40
1.00000000000352
100
AcDbArc
 50
0.99999999956828
 51
39.9999999996713
  0
ARC
  5
2D1
330
1F
100
AcDbEntity
  8
0
  6
Continuous
 62
     7
100
AcDbCircle
 10
-1093.082053898984
 20
-502.6447089814969
 30
0.0
 40
1.800000000000011
100
AcDbArc
 50
270.0000000009554
 51
285.0000000008698
  0
ARC
  5
2D2
330
1F
100
AcDbEntity
  8
0
  6
Continuous
 62
     7
100
AcDbCircle
 10
-1090.318180054534
 20
-500.8323724754769
 30
0.0
 40
0.2999999999999545
100
AcDbArc
 50
0.0
 51
75.0000000002938
  0
ARC
  5
2D3
330
1F
100
AcDbEntity
  8
0
  6
Continuous
 62
     7
100
AcDbCircle
 10
-1090.318180054534
 20
-503.4570454874968
 30
0.0
 40
0.299999999993224
100
AcDbArc
 50
285.0000000002063
 51
0.0
  0
ARC
  5
2D4
330
1F
100
AcDbEntity
  8
0
  6
Continuous
 62
     7
100
AcDbCircle
 10
-1089.944428088694
 20
-503.7732013909267
 30
0.0
 40
1.000003349619476
100
AcDbArc
 50
320.2102715527045
 51
359.0005451299592
  0
ARC
  5
2D5
330
1F
100
AcDbEntity
  8
0
  6
Continuous
 62
     7
100
AcDbCircle
 10
-1093.082054546204
 20
-501.6447138979868
 30
0.0
 40
1.800004916503371
100
AcDbArc
 50
75.00002060398738
 51
89.99997939744603
  0
ARC
  5
2D6
330
1F
100
AcDbEntity
  8
0
  6
DASHED
 62
     7
100
AcDbCircle
 10
-1080.318166670704
 20
-502.1447099383368
 30
0.0
 40
4.949997700880068
100
AcDbArc
 50
0.00001107545215
 51
134.8077353808036
  0
ARC
  5
2D7
330
1F
100
AcDbEntity
  8
0
  6
Continuous
 62
     7
100
AcDbCircle
 10
-1094.036564833324
 20
-493.6787543199569
 30
0.0
 40
0.7997764356325938
100
AcDbArc
 50
44.81781624477354
 51
67.11456340262829
  0
ARC
  5
2D8
330
1F
100
AcDbEntity
  8
0
  6
Continuous
 62
     7
100
AcDbCircle
 10
-1261.711615632464
 20
-490.7789778944168
 30
0.0
 40
168.4999999999888
100
AcDbArc
 50
358.1710820302883
 51
359.0091470303054
  0
ARC
  5
2D9
330
1F
100
AcDbEntity
  8
0
  6
Continuous
 62
     7
100
AcDbCircle
 10
-1094.036541253594
 20
-493.6787882515569
 30
0.0
 40
0.7997836272027469
100
AcDbArc
 50
24.77456432544312
 51
44.82073121977991
  0
ARC
  5
2DA
330
1F
100
AcDbEntity
  8
0
  6
Continuous
 62
     7
100
AcDbCircle
 10
-1094.669255735344
 20
-510.4789778944369
 30
0.0
 40
0.2999999999998977
100
AcDbArc
 50
270.0
 51
353.2739387521809
  0
ARC
  5
2DB
330
1F
100
AcDbEntity
  8
0
  6
Continuous
 62
     7
100
AcDbCircle
 10
-1094.036525172754
 20
-493.6789427015369
 30
0.0
 40
0.7998337620075356
100
AcDbArc
 50
359.0064196622542
 51
24.78509272346034
  0
ARC
  5
2DC
330
1F
100
AcDbEntity
  8
0
  6
Continuous
 62
     7
100
AcDbCircle
 10
-1116.711885172724
 20
-502.1789780512368
 30
0.0
 40
5.249999999997781
100
AcDbArc
 50
308.4346508176549
 51
231.5653491822576
  0
ARC
  5
2DD
330
1F
100
AcDbEntity
  8
0
  6
Continuous
 62
     7
100
AcDbCircle
 10
-1097.186845460924
 20
-510.4789778944369
 30
0.0
 40
2.300000000001662
100
AcDbArc
 50
352.5052825460813
 51
353.1719797567467
  0
ARC
  5
2DE
330
1F
100
AcDbEntity
  8
0
  6
Continuous
 62
     7
100
AcDbCircle
 10
-1094.011884034644
 20
-491.0789778286969
 30
0.0
 40
0.3000000657571419
100
AcDbArc
 50
359.8974904901256
 51
90.0158586434483
  0
ARC
  5
2DF
330
1F
100
AcDbEntity
  8
0
  6
Continuous
 62
     7
100
AcDbCircle
 10
-1261.711710783144
 20
-490.7368840405068
 30
0.0
 40
168.0001757260133
100
AcDbArc
 50
359.4048180724723
 51
359.8831471655994
  0
ARC
  5
2E0
330
1F
100
AcDbEntity
  8
0
  6
Continuous
 62
     7
100
AcDbCircle
 10
-1261.712173905034
 20
-490.7821729959669
 30
0.0
 40
168.0001744800138
100
AcDbArc
 50
353.1730843407351
 51
359.420264494956
  0
ARC
  5
2E1
330
1F
100
AcDbEntity
  8
0
  6
DASHED
 62
     7
100
AcDbCircle
 10
-1113.261885172724
 20
-506.5263910750969
 30
0.0
 40
0.3000000000052923
100
AcDbArc
 50
154.1739855476638
 51
180.0
  0
ARC
  5
2E2
330
1F
100
AcDbEntity
  8
0
  6
Continuous
 62
     7
100
AcDbCircle
 10
-1113.261885172724
 20
-506.5263910750969
 30
0.0
 40
0.3000000000046648
100
AcDbArc
 50
128.4346508178141
 51
154.1739855476638
  0
ARC
  5
2E3
330
1F
100
AcDbEntity
  8
0
  6
Continuous
 62
     7
100
AcDbCircle
 10
-1097.186845460924
 20
-510.4789778944369
 30
0.0
 40
2.299999999999898
100
AcDbArc
 50
270.0
 51
352.5052825460813
  0
ARC
  5
2E4
330
1F
100
AcDbEntity
  8
0
  6
DASHED
 62
     7
100
AcDbCircle
 10
-1120.161885172724
 20
-506.5263910750969
 30
0.0
 40
0.2999999999999545
100
AcDbArc
 50
0.0
 51
51.56534918368257
  0
ARC
  5
2E5
330
1F
100
AcDbEntity
  8
0
  6
DASHED
 62
     7
100
AcDbCircle
 10
-1137.161885194604
 20
-506.5281470750967
 30
0.0
 40
0.3000000000001819
100
AcDbArc
 50
0.0
 51
51.56534918361481
  0
ARC
  5
2E6
330
1F
100
AcDbEntity
  8
0
  6
Continuous
 62
     7
100
AcDbCircle
 10
-1116.511884741574
 20
-482.5789780512369
 30
0.0
 40
0.2999999999999545
100
AcDbArc
 50
0.0
 51
90.0
  0
ARC
  5
2E7
330
1F
100
AcDbEntity
  8
0
  6
Continuous
 62
     7
100
AcDbCircle
 10
-1121.724765589514
 20
-482.5789780568668
 30
0.0
 40
0.299999997725257
100
AcDbArc
 50
132.5414487158467
 51
175.0828985487132
  0
ARC
  5
2E8
330
1F
100
AcDbEntity
  8
0
  6
Continuous
 62
     7
100
AcDbCircle
 10
-1125.210390624694
 20
-482.2758435200269
 30
0.0
 40
3.198781708025852
100
AcDbArc
 50
313.946214116634
 51
355.0246674336472
  0
ARC
  5
2E9
330
1F
100
AcDbEntity
  8
0
  6
Continuous
 62
     7
100
AcDbCircle
 10
-1121.724765316204
 20
-482.5789779457368
 30
0.0
 40
0.3000001006389489
100
AcDbArc
 50
90.06716717053172
 51
132.5415015251949
  0
ARC
  5
2EA
330
1F
100
AcDbEntity
  8
0
  6
DASHED
 62
     7
100
AcDbCircle
 10
-1130.261887784494
 20
-506.5281523967369
 30
0.0
 40
0.3000025586550263
100
AcDbArc
 50
128.4336315817458
 51
179.6636132820173
  0
ARC
  5
2EB
330
1F
100
AcDbEntity
  8
0
  6
Continuous
 62
     7
100
AcDbCircle
 10
-1128.700168326514
 20
-482.5765853458768
 30
0.0
 40
0.2990346246723892
100
AcDbArc
 50
4.44120143620432
 51
46.98419394360864
  0
ARC
  5
2EC
330
1F
100
AcDbEntity
  8
0
  6
Continuous
 62
     7
100
AcDbCircle
 10
-1128.699003902254
 20
-482.5789780489567
 30
0.0
 40
0.2999999977185799
100
AcDbArc
 50
47.45854905116038
 51
89.99999888275714
  0
ARC
  5
2ED
330
1F
100
AcDbEntity
  8
0
  6
Continuous
 62
     7
100
AcDbCircle
 10
-1133.911884741574
 20
-482.5789780512369
 30
0.0
 40
0.3000000000000114
100
AcDbArc
 50
90.0
 51
180.0
  0
ARC
  5
2EE
330
1F
100
AcDbEntity
  8
0
  6
Continuous
 62
     7
100
AcDbCircle
 10
-1125.214149608924
 20
-482.2781299042467
 30
0.0
 40
3.199747081089224
100
AcDbArc
 50
184.935708664911
 51
314.0230887405963
  0
ARC
  5
2EF
330
1F
100
AcDbEntity
  8
0
  6
Continuous
 62
     7
100
AcDbCircle
 10
-1153.236386082764
 20
-510.4789778944269
 30
0.0
 40
2.299999999999855
100
AcDbArc
 50
186.8280202432533
 51
270.0
  0
ARC
  5
2F0
330
1F
100
AcDbEntity
  8
0
  6
Continuous
 62
     7
100
AcDbCircle
 10
-1156.411347254654
 20
-491.0789775731569
 30
0.0
 40
0.3000003206034654
100
AcDbArc
 50
90.11852269683519
 51
180.1025582254515
  0
ARC
  5
2F1
330
1F
100
AcDbEntity
  8
0
  6
Continuous
 62
     7
100
AcDbCircle
 10
-988.7116159112138
 20
-490.7789778944468
 30
0.0
 40
167.9999999999942
100
AcDbArc
 50
186.1163181450298
 51
186.828020243323
  0
ARC
  5
2F2
330
1F
100
AcDbEntity
  8
0
  6
DASHED
 62
     7
100
AcDbCircle
 10
-1133.711885194604
 20
-502.1807340512369
 30
0.0
 40
5.249999999997878
100
AcDbArc
 50
308.4346508176573
 51
231.5653491822591
  0
ARC
  5
2F3
330
1F
100
AcDbEntity
  8
0
  6
Continuous
 62
     7
100
AcDbCircle
 10
-1261.711938354424
 20
-490.8772047043069
 30
0.0
 40
168.0001757186419
100
AcDbArc
 50
359.9310030240027
 51
0.13599679841249
  0
ARC
  5
2F4
330
1F
100
AcDbEntity
  8
0
  6
Continuous
 62
     7
100
AcDbCircle
 10
-1261.711710783144
 20
-490.7368840405068
 30
0.0
 40
168.0001757260133
100
AcDbArc
 50
359.4048180724723
 51
359.8831471655994
  0
ARC
  5
2F5
330
1F
100
AcDbEntity
  8
0
  6
Continuous
 62
     7
100
AcDbCircle
 10
-1094.012235296704
 20
-490.4789780042968
 30
0.0
 40
0.2999998900389961
100
AcDbArc
 50
270.0512274906631
 51
0.10251801534573
  0
ARC
  5
2F6
330
1F
100
AcDbEntity
  8
0
  6
Continuous
 62
     7
100
AcDbCircle
 10
-1261.711967070324
 20
-490.7789778944168
 30
0.0
 40
167.9999999999992
100
AcDbArc
 50
0.10249697690169
 51
6.82802024332307
  0
ARC
  5
2F7
330
1F
100
AcDbEntity
  8
0
  6
Continuous
 62
     7
100
AcDbCircle
 10
-1097.187196898774
 20
-471.0789778944368
 30
0.0
 40
2.299999999999868
100
AcDbArc
 50
6.82802024325611
 51
90.0
  0
ARC
  5
2F8
330
1F
100
AcDbEntity
  8
0
  6
Continuous
 62
     7
100
AcDbCircle
 10
-1125.212236157554
 20
-482.2789780512369
 30
0.0
 40
3.199999999994796
100
AcDbArc
 50
4.91710033561363
 51
45.95137750784357
  0
ARC
  5
2F9
330
1F
100
AcDbEntity
  8
0
  6
Continuous
 62
     7
100
AcDbCircle
 10
-1125.212236157554
 20
-482.2789780512369
 30
0.0
 40
3.200000000001979
100
AcDbArc
 50
54.34091609880424
 51
125.6590839011991
  0
ARC
  5
2FA
330
1F
100
AcDbEntity
  8
0
  6
Continuous
 62
     7
100
AcDbCircle
 10
-1125.212236157554
 20
-482.2789780512369
 30
0.0
 40
3.200000000002988
100
AcDbArc
 50
45.95137750784357
 51
54.34091609880424
  0
ARC
  5
2FB
330
1F
100
AcDbEntity
  8
0
  6
Continuous
 62
     7
100
AcDbCircle
 10
-1125.212236134084
 20
-482.2789780512369
 30
0.0
 40
4.112132057765078
100
AcDbArc
 50
3.97814750392597
 51
176.0218522596181
  0
ARC
  5
2FC
330
1F
100
AcDbEntity
  8
0
  6
Continuous
 62
     7
100
AcDbCircle
 10
-1121.72511699534
 20
-481.978978049556
 30
0.0
 40
0.3000000016808863
100
AcDbArc
 50
227.4585493453459
 51
269.9999985897675
  0
ARC
  5
2FD
330
1F
100
AcDbEntity
  8
0
  6
Continuous
 62
     7
100
AcDbCircle
 10
-1121.725117005484
 20
-481.9789780456069
 30
0.0
 40
0.2999999977353135
100
AcDbArc
 50
184.9171014511446
 51
227.4585512827235
  0
ARC
  5
2FE
330
1F
100
AcDbEntity
  8
0
  6
Continuous
 62
     7
100
AcDbCircle
 10
-1115.908532845524
 20
-490.4805406395069
 30
0.0
 40
0.2984602312726818
100
AcDbArc
 50
224.2400582594982
 51
269.2890523683696
  0
ARC
  5
2FF
330
1F
100
AcDbEntity
  8
0
  6
Continuous
 62
     7
100
AcDbCircle
 10
-1115.913799005644
 20
-490.4752662898168
 30
0.0
 40
0.2984602312686376
100
AcDbArc
 50
180.7125396932558
 51
225.6709085523104
  0
ARC
  5
300
330
1F
100
AcDbEntity
  8
0
  6
Continuous
 62
     7
100
AcDbCircle
 10
-1128.699355313423
 20
-481.9789780437232
 30
0.0
 40
0.3000000016812608
100
AcDbArc
 50
312.5414490071406
 51
355.0828982526058
  0
ARC
  5
301
330
1F
100
AcDbEntity
  8
0
  6
Continuous
 62
     7
100
AcDbCircle
 10
-1125.212236157554
 20
-482.2789780512369
 30
0.0
 40
3.200000000002988
100
AcDbArc
 50
134.0486224921564
 51
175.0828996643867
  0
ARC
  5
302
330
1F
100
AcDbEntity
  8
0
  6
Continuous
 62
     7
100
AcDbCircle
 10
-1125.212236157554
 20
-482.2789780512369
 30
0.0
 40
3.200000000002111
100
AcDbArc
 50
125.6590839011991
 51
134.0486224921564
  0
ARC
  5
303
330
1F
100
AcDbEntity
  8
0
  6
Continuous
 62
     7
100
AcDbCircle
 10
-1128.699355318234
 20
-481.9789780535068
 30
0.0
 40
0.2999999977300832
100
AcDbArc
 50
270.0000011172863
 51
312.5414509475477
  0
ARC
  5
304
330
1F
100
AcDbEntity
  8
0
  6
DASHED
 62
     7
100
AcDbCircle
 10
-1134.512236151974
 20
-490.4789778809668
 30
0.0
 40
0.2999999944196902
100
AcDbArc
 50
314.9999974286906
 51
359.9999974293057
  0
ARC
  5
305
330
1F
100
AcDbEntity
  8
0
  6
Continuous
 62
     7
100
AcDbCircle
 10
-1134.512236171014
 20
-490.4789779000068
 30
0.0
 40
0.2999999944200343
100
AcDbArc
 50
270.00000257064
 51
315.000002571271
  0
ARC
  5
306
330
1F
100
AcDbEntity
  8
0
  6
Continuous
 62
     7
100
AcDbCircle
 10
-1156.411967838264
 20
-490.4789778944269
 30
0.0
 40
0.2999999999995855
100
AcDbArc
 50
179.8975030230665
 51
270.0
  0
ARC
  5
307
330
1F
100
AcDbEntity
  8
0
  6
DASHED
 62
     7
100
AcDbCircle
 10
-988.7122361747938
 20
-490.7789778944468
 30
0.0
 40
168.0000000000008
100
AcDbArc
 50
179.2837635186744
 51
179.8975030231188
  0
ARC
  5
308
330
1F
100
AcDbEntity
  8
0
  6
Continuous
 62
     7
100
AcDbCircle
 10
-1153.237006346334
 20
-471.0789778944268
 30
0.0
 40
2.300000000000011
100
AcDbArc
 50
90.0
 51
173.1719797567721
  0
ARC
  5
309
330
1F
100
AcDbEntity
  8
0
  6
DASHED
 62
     7
100
AcDbCircle
 10
-988.7116159112138
 20
-490.7789778944468
 30
0.0
 40
167.9999999999993
100
AcDbArc
 50
180.1024969768676
 51
186.1163181450298
  0
ARC
  5
30A
330
1F
100
AcDbEntity
  8
0
  6
Continuous
 62
     7
100
AcDbCircle
 10
-1084.317393875374
 20
-488.7247086063969
 30
0.0
 40
10.00144314595201
100
AcDbArc
 50
237.454133670139
 51
255.1226266535654
  0
ARC
  5
30B
330
1F
100
AcDbEntity
  8
0
  6
DASHED
 62
     7
100
AcDbCircle
 10
-1084.318169378704
 20
-515.5634928459667
 30
0.0
 40
10.00000010519666
100
AcDbArc
 50
94.29679768979794
 51
109.9586780546375
  0
ARC
  5
30C
330
1F
100
AcDbEntity
  8
0
  6
Continuous
 62
     7
100
AcDbCircle
 10
-988.7122361747938
 20
-490.7789778944468
 30
0.0
 40
168.0000000000066
100
AcDbArc
 50
173.1719797566634
 51
179.2837635186744
  0
ARC
  5
30D
330
1F
100
AcDbEntity
  8
0
  6
Continuous
 62
     7
100
AcDbCircle
 10
-828.1686007101966
 20
-529.4563758231463
 30
0.0
 40
2.299999999999045
100
AcDbArc
 50
270.0
 51
340.8395455457652
  0
ARC
  5
30E
330
1F
100
AcDbEntity
  8
0
  6
Continuous
 62
     7
100
AcDbCircle
 10
-785.0972423829667
 20
-489.2563758231454
 30
0.0
 40
0.4999999999979607
100
AcDbArc
 50
27.03501246227358
 51
71.96009166433288
  0
ARC
  5
30F
330
1F
100
AcDbEntity
  8
0
  6
Continuous
 62
     7
100
AcDbCircle
 10
-789.9962467554667
 20
-491.7563153123133
 30
0.0
 40
5.99999466283541
100
AcDbArc
 50
332.963566944833
 51
27.03501246222936
  0
ARC
  5
310
330
1F
100
AcDbEntity
  8
0
  6
Continuous
 62
     7
100
AcDbCircle
 10
-785.0973043680367
 20
-494.2563762667434
 30
0.0
 40
0.4999999999976374
100
AcDbArc
 50
306.8408476346511
 51
332.9635669448296
  0
ARC
  5
311
330
1F
100
AcDbEntity
  8
0
  6
Continuous
 62
     7
100
AcDbCircle
 10
-787.3063038450966
 20
-487.5563758231453
 30
0.0
 40
2.299999999995619
100
AcDbArc
 50
3.12456121776632
 51
90.0
  0
ARC
  5
312
330
1F
100
AcDbEntity
  8
0
  6
Continuous
 62
     7
100
AcDbCircle
 10
-928.3962467554568
 20
-495.2581944105693
 30
0.0
 40
143.6000000000003
100
AcDbArc
 50
356.876915816084
 51
3.12456121776519
  0
ARC
  5
313
330
1F
100
AcDbEntity
  8
0
  6
Continuous
 62
     7
100
AcDbCircle
 10
-787.3061053459967
 20
-502.9563758231453
 30
0.0
 40
2.300000000000068
100
AcDbArc
 50
270.0
 51
356.8769158160516
  0
ARC
  5
314
330
1F
100
AcDbEntity
  8
0
  6
Continuous
 62
     7
100
AcDbCircle
 10
-818.4937465917767
 20
-507.5563758231453
 30
0.0
 40
2.299999999999898
100
AcDbArc
 50
90.0
 51
173.5087620867437
  0
ARC
  5
315
330
1F
100
AcDbEntity
  8
0
  6
Continuous
 62
     7
100
AcDbCircle
 10
-926.5962467554266
 20
-495.2563978407734
 30
0.0
 40
106.4999999999937
100
AcDbArc
 50
340.8395455457995
 51
353.5087620867396
  0
ARC
  5
316
330
1F
100
AcDbEntity
  8
0
  6
DASHED
 62
     7
100
AcDbCircle
 10
-838.0962467554666
 20
-524.5063758231404
 30
0.0
 40
1.0
100
AcDbArc
 50
0.0
 51
90.0
  0
ARC
  5
317
330
1F
100
AcDbEntity
  8
0
  6
DASHED
 62
     7
100
AcDbCircle
 10
-839.7962467554667
 20
-523.2063758231413
 30
0.0
 40
0.2999999999999545
100
AcDbArc
 50
180.0
 51
270.0
  0
ARC
  5
318
330
1F
100
AcDbEntity
  8
0
  6
DASHED
 62
     7
100
AcDbCircle
 10
-839.7962467554667
 20
-513.3063758231403
 30
0.0
 40
0.299999999999045
100
AcDbArc
 50
90.0
 51
180.0
  0
ARC
  5
319
330
1F
100
AcDbEntity
  8
0
  6
DASHED
 62
     7
100
AcDbCircle
 10
-838.0962467554666
 20
-512.0063758231413
 30
0.0
 40
1.0
100
AcDbArc
 50
270.0
 51
0.0
  0
ARC
  5
31A
330
1F
100
AcDbEntity
  8
0
  6
DASHED
 62
     7
100
AcDbCircle
 10
-838.0962467554666
 20
-505.7563758231413
 30
0.0
 40
1.0
100
AcDbArc
 50
0.0
 51
90.0
  0
ARC
  5
31B
330
1F
100
AcDbEntity
  8
0
  6
Continuous
 62
     7
100
AcDbCircle
 10
-838.0962467554666
 20
-530.7563758231413
 30
0.0
 40
1.0
100
AcDbArc
 50
270.0
 51
0.0
  0
ARC
  5
31C
330
1F
100
AcDbEntity
  8
0
  6
Continuous
 62
     7
100
AcDbCircle
 10
-793.8575542055667
 20
-494.2563762667413
 30
0.0
 40
0.4999999999988704
100
AcDbArc
 50
212.9216389923054
 51
270.0
  0
ARC
  5
31D
330
1F
100
AcDbEntity
  8
0
  6
DASHED
 62
     7
100
AcDbCircle
 10
-789.9962467554667
 20
-491.7563153123133
 30
0.0
 40
5.100000000006382
100
AcDbArc
 50
147.0801633445769
 51
212.921638992078
  0
ARC
  5
31E
330
1F
100
AcDbEntity
  8
0
  6
DASHED
 62
     7
100
AcDbCircle
 10
-793.8576328473466
 20
-489.2563758231444
 30
0.0
 40
0.5
100
AcDbArc
 50
90.0
 51
147.0801633444926
  0
ARC
  5
31F
330
1F
100
AcDbEntity
  8
0
  6
Continuous
 62
     7
100
AcDbCircle
 10
-787.0619459839068
 20
-490.7563758231444
 30
0.0
 40
0.4999999999959871
100
AcDbArc
 50
18.8178818176476
 51
90.0
  0
ARC
  5
320
330
1F
100
AcDbEntity
  8
0
  6
DASHED
 62
     7
100
AcDbCircle
 10
-789.9962467554667
 20
-491.7563153123133
 30
0.0
 40
3.600000000001682
100
AcDbArc
 50
161.1821181825041
 51
198.8202535906449
  0
ARC
  5
321
330
1F
100
AcDbEntity
  8
0
  6
DASHED
 62
     7
100
AcDbCircle
 10
-792.9305061317766
 20
-492.7563762667413
 30
0.0
 40
0.5000000000009953
100
AcDbArc
 50
198.8202535907569
 51
270.0
  0
ARC
  5
322
330
1F
100
AcDbEntity
  8
0
  6
DASHED
 62
     7
100
AcDbCircle
 10
-787.0619873791668
 20
-492.7563762667413
 30
0.0
 40
0.5
100
AcDbArc
 50
270.0
 51
341.1797464092431
  0
ARC
  5
323
330
1F
100
AcDbEntity
  8
0
  6
Continuous
 62
     7
100
AcDbCircle
 10
-789.9962467554667
 20
-491.7563153123133
 30
0.0
 40
3.599999999997027
100
AcDbArc
 50
341.1797464093038
 51
18.81788181754728
  0
ARC
  5
324
330
1F
100
AcDbEntity
  8
0
  6
DASHED
 62
     7
100
AcDbCircle
 10
-792.9305475270367
 20
-490.7563758231444
 30
0.0
 40
0.5
100
AcDbArc
 50
90.0
 51
161.1821181823524
  0
ARC
  5
325
330
1F
100
AcDbEntity
  8
0
  6
DASHED
 62
     7
100
AcDbCircle
 10
-834.9232628014563
 20
-476.0855401714116
 30
0.0
 40
10.00000010520236
100
AcDbArc
 50
271.4002252289598
 51
295.0581669582795
  0
ARC
  5
326
330
1F
100
AcDbEntity
  8
0
  6
Continuous
 62
     7
100
AcDbCircle
 10
-645.7578489952562
 20
-510.4690502418116
 30
0.0
 40
168.5000000000025
100
AcDbArc
 50
171.1391949299175
 51
171.4909731005468
  0
ARC
  5
327
330
1F
100
AcDbEntity
  8
0
  6
Continuous
 62
     7
100
AcDbCircle
 10
-645.7571299772662
 20
-510.4658874336715
 30
0.0
 40
168.000174480009
100
AcDbArc
 50
170.2765118798687
 51
171.4643682472102
  0
ARC
  5
328
330
1F
100
AcDbEntity
  8
0
  6
DASHED
 62
     7
100
AcDbCircle
 10
-645.7574980064062
 20
-510.4690680010915
 30
0.0
 40
167.9999999999997
100
AcDbArc
 50
177.2059245160337
 51
178.3236890312567
  0
ARC
  5
329
330
1F
100
AcDbEntity
  8
0
  6
Continuous
 62
     7
100
AcDbCircle
 10
-755.0893731003362
 20
-524.6623126095415
 30
0.0
 40
2.300000000001718
100
AcDbArc
 50
267.103427539212
 51
350.2754072957565
  0
ARC
  5
32A
330
1F
100
AcDbEntity
  8
0
  6
Continuous
 62
     7
100
AcDbCircle
 10
-918.4084395208463
 20
-496.6735194320515
 30
0.0
 40
167.9999999999924
100
AcDbArc
 50
350.2754072957946
 51
357.0009305622509
  0
ARC
  5
32B
330
1F
100
AcDbEntity
  8
0
  6
Continuous
 62
     7
100
AcDbCircle
 10
-750.9381240182763
 20
-505.4475393469215
 30
0.0
 40
0.3000000000010578
100
AcDbArc
 50
357.0009305614385
 51
87.1034275383802
  0
ARC
  5
32C
330
1F
100
AcDbEntity
  8
0
  6
Continuous
 62
     7
100
AcDbCircle
 10
-772.8098761929862
 20
-504.3408759359616
 30
0.0
 40
0.299999994424701
100
AcDbArc
 50
87.10343011010947
 51
132.1034301113862
  0
ARC
  5
32D
330
1F
100
AcDbEntity
  8
0
  6
Continuous
 62
     7
100
AcDbCircle
 10
-772.8098762129662
 20
-504.3408759540116
 30
0.0
 40
0.2999999944194061
100
AcDbArc
 50
132.103424968921
 51
177.1034249679199
  0
ARC
  5
32E
330
1F
100
AcDbEntity
  8
0
  6
Continuous
 62
     7
100
AcDbCircle
 10
-779.0448625519862
 20
-512.5362725891016
 30
0.0
 40
0.2999999977240618
100
AcDbArc
 50
87.10342865421275
 51
129.6448784877542
  0
ARC
  5
32F
330
1F
100
AcDbEntity
  8
0
  6
Continuous
 62
     7
100
AcDbCircle
 10
-782.5123665479962
 20
-512.0604406051116
 30
0.0
 40
3.199999999995818
100
AcDbArc
 50
302.7625114402259
 51
311.1520500312321
  0
ARC
  5
330
330
1F
100
AcDbEntity
  8
0
  6
Continuous
 62
     7
100
AcDbCircle
 10
-782.5123665479962
 20
-512.0604406051116
 30
0.0
 40
3.200000000000723
100
AcDbArc
 50
311.1520500312321
 51
352.1863272036007
  0
ARC
  5
331
330
1F
100
AcDbEntity
  8
0
  6
Continuous
 62
     7
100
AcDbCircle
 10
-779.0448625572799
 20
-512.5362725986187
 30
0.0
 40
0.3000000016753294
100
AcDbArc
 50
129.6448765495562
 51
172.1863257939969
  0
ARC
  5
332
330
1F
100
AcDbEntity
  8
0
  6
Continuous
 62
     7
100
AcDbCircle
 10
-791.3847392190462
 20
-503.4047443567415
 30
0.0
 40
0.2984602312690436
100
AcDbArc
 50
357.8159672308427
 51
42.77433609171923
  0
ARC
  5
333
330
1F
100
AcDbEntity
  8
0
  6
Continuous
 62
     7
100
AcDbCircle
 10
-791.3897321212862
 20
-503.3992106297715
 30
0.0
 40
0.2984602312689396
100
AcDbArc
 50
41.34348580025097
 51
86.39247990701455
  0
ARC
  5
334
330
1F
100
AcDbEntity
  8
0
  6
Continuous
 62
     7
100
AcDbCircle
 10
-786.0101904524363
 20
-512.1838420540814
 30
0.0
 40
0.2999999977189908
100
AcDbArc
 50
2.02052899257431
 51
44.56197882408528
  0
ARC
  5
335
330
1F
100
AcDbEntity
  8
0
  6
Continuous
 62
     7
100
AcDbCircle
 10
-786.0101904623727
 20
-512.1838420496226
 30
0.0
 40
0.300000001677856
100
AcDbArc
 50
44.56197688575491
 51
87.10342613057922
  0
ARC
  5
336
330
1F
100
AcDbEntity
  8
0
  6
Continuous
 62
     7
100
AcDbCircle
 10
-782.5123665714361
 20
-512.0604406039215
 30
0.0
 40
4.112132057773999
100
AcDbArc
 50
181.081575042974
 51
353.125279798764
  0
ARC
  5
337
330
1F
100
AcDbEntity
  8
0
  6
Continuous
 62
     7
100
AcDbCircle
 10
-782.5123665479962
 20
-512.0604406051116
 30
0.0
 40
3.200000000003903
100
AcDbArc
 50
223.0548050469346
 51
231.4443436378027
  0
ARC
  5
338
330
1F
100
AcDbEntity
  8
0
  6
Continuous
 62
     7
100
AcDbCircle
 10
-782.5123665479962
 20
-512.0604406051116
 30
0.0
 40
3.200000000001981
100
AcDbArc
 50
231.4443436378027
 51
302.7625114402259
  0
ARC
  5
339
330
1F
100
AcDbEntity
  8
0
  6
Continuous
 62
     7
100
AcDbCircle
 10
-782.5123665479962
 20
-512.0604406051116
 30
0.0
 40
3.200000000006797
100
AcDbArc
 50
182.0205278745214
 51
223.0548050469346
  0
ARC
  5
33A
330
1F
100
AcDbEntity
  8
0
  6
Continuous
 62
     7
100
AcDbCircle
 10
-811.0675723002062
 20
-521.8299366728215
 30
0.0
 40
2.300000000001325
100
AcDbArc
 50
183.9314477825694
 51
267.1034275389629
  0
ARC
  5
33B
330
1F
100
AcDbEntity
  8
0
  6
Continuous
 62
     7
100
AcDbCircle
 10
-645.7574980064062
 20
-510.4690680010915
 30
0.0
 40
167.9999999999961
100
AcDbArc
 50
178.3236890312567
 51
183.9314477824567
  0
ARC
  5
33C
330
1F
100
AcDbEntity
  8
0
  6
DASHED
 62
     7
100
AcDbCircle
 10
-813.2581335303062
 20
-502.2942814001015
 30
0.0
 40
0.2999998900419032
100
AcDbArc
 50
87.15465502810812
 51
177.2059455554074
  0
ARC
  5
33D
330
1F
100
AcDbEntity
  8
0
  6
DASHED
 62
     7
100
AcDbCircle
 10
-645.7598811030662
 20
-510.5110951241115
 30
0.0
 40
168.0001757260155
100
AcDbArc
 50
176.5082456116074
 51
176.9865747047352
  0
ARC
  5
33E
330
1F
100
AcDbEntity
  8
0
  6
DASHED
 62
     7
100
AcDbCircle
 10
-645.7525629711063
 20
-510.3709652364314
 30
0.0
 40
168.0001757186451
100
AcDbArc
 50
177.0344305631369
 51
177.2394243375472
  0
ARC
  5
33F
330
1F
100
AcDbEntity
  8
0
  6
Continuous
 62
     7
100
AcDbCircle
 10
-773.0178775040063
 20
-492.6136258677316
 30
0.0
 40
5.250000000005877
100
AcDbArc
 50
125.5380783568238
 51
48.66877672150093
  0
ARC
  5
340
330
1F
100
AcDbEntity
  8
0
  6
Continuous
 62
     7
100
AcDbCircle
 10
-918.4090589919763
 20
-496.6734880881515
 30
0.0
 40
168.0000000000045
100
AcDbArc
 50
357.2059245159996
 51
3.93144778245672
  0
ARC
  5
341
330
1F
100
AcDbEntity
  8
0
  6
Continuous
 62
     7
100
AcDbCircle
 10
-750.9084239083963
 20
-504.8482748785316
 30
0.0
 40
0.3000003206023347
100
AcDbArc
 50
267.2219502359903
 51
357.2059857634716
  0
ARC
  5
342
330
1F
100
AcDbEntity
  8
0
  6
Continuous
 62
     7
100
AcDbCircle
 10
-753.0989846981663
 20
-485.3126194164115
 30
0.0
 40
2.299999999990662
100
AcDbArc
 50
3.93144778233931
 51
87.10342753919926
  0
ARC
  5
343
330
1F
100
AcDbEntity
  8
0
  6
Continuous
 62
     7
100
AcDbCircle
 10
-782.5104984008663
 20
-512.0613843613014
 30
0.0
 40
3.199747081083813
100
AcDbArc
 50
2.03913620402723
 51
131.1265162796794
  0
ARC
  5
344
330
1F
100
AcDbEntity
  8
0
  6
Continuous
 62
     7
100
AcDbCircle
 10
-773.8086728335263
 20
-512.2004449267015
 30
0.0
 40
0.3000000000016647
100
AcDbArc
 50
267.1034275403318
 51
357.1034275383802
  0
ARC
  5
345
330
1F
100
AcDbEntity
  8
0
  6
Continuous
 62
     7
100
AcDbCircle
 10
-779.0148936023563
 20
-511.9370214063015
 30
0.0
 40
0.299999997724565
100
AcDbArc
 50
224.5619765890096
 51
267.1034264225688
  0
ARC
  5
346
330
1F
100
AcDbEntity
  8
0
  6
Continuous
 62
     7
100
AcDbCircle
 10
-779.0138515767262
 20
-511.9394698945016
 30
0.0
 40
0.2990346246717008
100
AcDbArc
 50
181.5446289748784
 51
224.087621482347
  0
ARC
  5
347
330
1F
100
AcDbEntity
  8
0
  6
Continuous
 62
     7
100
AcDbCircle
 10
-776.2437781972562
 20
-488.0974224713116
 30
0.0
 40
0.3000025586462415
100
AcDbArc
 50
305.5370591197053
 51
356.76704082083
  0
ARC
  5
348
330
1F
100
AcDbEntity
  8
0
  6
Continuous
 62
     7
100
AcDbCircle
 10
-785.9802217805961
 20
-511.5845909526615
 30
0.0
 40
0.3000001006431192
100
AcDbArc
 50
267.1705947089187
 51
309.6449290626809
  0
ARC
  5
349
330
1F
100
AcDbEntity
  8
0
  6
Continuous
 62
     7
100
AcDbCircle
 10
-782.5143681208563
 20
-512.0634778709216
 30
0.0
 40
3.198781708029257
100
AcDbArc
 50
131.0496416555251
 51
172.128094972797
  0
ARC
  5
34A
330
1F
100
AcDbEntity
  8
0
  6
Continuous
 62
     7
100
AcDbCircle
 10
-785.9802215020163
 20
-511.5845908554916
 30
0.0
 40
0.2999999977200625
100
AcDbArc
 50
309.6448762536934
 51
352.1863260870122
  0
ARC
  5
34B
330
1F
100
AcDbEntity
  8
0
  6
Continuous
 62
     7
100
AcDbCircle
 10
-791.1864422796261
 20
-511.3211673379915
 30
0.0
 40
0.3000000000016647
100
AcDbArc
 50
177.1034275403319
 51
267.1034275383802
  0
ARC
  5
34C
330
1F
100
AcDbEntity
  8
0
  6
Continuous
 62
     7
100
AcDbCircle
 10
-769.3525966172363
 20
-488.4461066990816
 30
0.0
 40
0.3000000000021817
100
AcDbArc
 50
177.1034275383802
 51
228.6687767205104
  0
ARC
  5
34D
330
1F
100
AcDbEntity
  8
0
  6
DASHED
 62
     7
100
AcDbCircle
 10
-786.3309658686962
 20
-487.5887961436615
 30
0.0
 40
0.3000000000021817
100
AcDbArc
 50
177.1034275383802
 51
228.6687767217722
  0
ARC
  5
34E
330
1F
100
AcDbEntity
  8
0
  6
Continuous
 62
     7
100
AcDbCircle
 10
-809.0769154157763
 20
-482.4802570643215
 30
0.0
 40
2.300000000002167
100
AcDbArc
 50
87.10342753896302
 51
169.6087100851052
  0
ARC
  5
34F
330
1F
100
AcDbEntity
  8
0
  6
Continuous
 62
     7
100
AcDbCircle
 10
-793.2221503042263
 20
-487.2401170998614
 30
0.0
 40
0.3000000000060408
100
AcDbArc
 50
305.5380783565929
 51
331.2774130855089
  0
ARC
  5
350
330
1F
100
AcDbEntity
  8
0
  6
DASHED
 62
     7
100
AcDbCircle
 10
-793.2221503042263
 20
-487.2401170998614
 30
0.0
 40
0.3000000000039904
100
AcDbArc
 50
331.2774130855089
 51
357.1034275383802
  0
ARC
  5
351
330
1F
100
AcDbEntity
  8
0
  6
DASHED
 62
     7
100
AcDbCircle
 10
-645.7571299772662
 20
-510.4658874336715
 30
0.0
 40
168.0001744800065
100
AcDbArc
 50
171.4643682472102
 51
176.5236920340893
  0
ARC
  5
352
330
1F
100
AcDbEntity
  8
0
  6
DASHED
 62
     7
100
AcDbCircle
 10
-645.7598811030662
 20
-510.5110951241115
 30
0.0
 40
168.0001757260155
100
AcDbArc
 50
176.5082456116074
 51
176.9865747047352
  0
ARC
  5
353
330
1F
100
AcDbEntity
  8
0
  6
DASHED
 62
     7
100
AcDbCircle
 10
-813.2281644356062
 20
-501.6950303959115
 30
0.0
 40
0.3000000657542243
100
AcDbArc
 50
177.000918029016
 51
267.1192861837301
  0
ARC
  5
354
330
1F
100
AcDbEntity
  8
0
  6
Continuous
 62
     7
100
AcDbCircle
 10
-809.0769154157763
 20
-482.4802570643215
 30
0.0
 40
2.299999999991928
100
AcDbArc
 50
169.6087100851052
 51
170.2754072957606
  0
ARC
  5
355
330
1F
100
AcDbEntity
  8
0
  6
DASHED
 62
     7
100
AcDbCircle
 10
-789.9962467554662
 20
-491.7563153123115
 30
0.0
 40
5.249999999997551
100
AcDbArc
 50
125.5380783568887
 51
48.66877672142842
  0
ARC
  5
356
330
1F
100
AcDbEntity
  8
0
  6
DASHED
 62
     7
100
AcDbCircle
 10
-813.0721702481862
 20
-499.0996324805315
 30
0.0
 40
0.7998337620021999
100
AcDbArc
 50
176.1098472009767
 51
201.8885202625815
  0
ARC
  5
357
330
1F
100
AcDbEntity
  8
0
  6
Continuous
 62
     7
100
AcDbCircle
 10
-811.5912886232964
 20
-482.3530352124114
 30
0.0
 40
0.3000000000016761
100
AcDbArc
 50
87.10342754028846
 51
170.3773662900331
  0
ARC
  5
358
330
1F
100
AcDbEntity
  8
0
  6
Continuous
 62
     7
100
AcDbCircle
 10
-813.0721619927363
 20
-499.0997875457915
 30
0.0
 40
0.7997836272075277
100
AcDbArc
 50
201.8779918649423
 51
221.9241587587681
  0
ARC
  5
359
330
1F
100
AcDbEntity
  8
0
  6
DASHED
 62
     7
100
AcDbCircle
 10
-645.7578489952562
 20
-510.4690502418116
 30
0.0
 40
168.500000000006
100
AcDbArc
 50
175.2745095694221
 51
176.1125745694376
  0
ARC
  5
35A
330
1F
100
AcDbEntity
  8
0
  6
Continuous
 62
     7
100
AcDbCircle
 10
-813.0721401578062
 20
-499.0998226256015
 30
0.0
 40
0.7997764356373412
100
AcDbArc
 50
221.9212437837256
 51
244.217990942028
  0
ARC
  5
35B
330
1F
100
AcDbEntity
  8
0
  6
DASHED
 62
     7
100
AcDbCircle
 10
-839.5962490038662
 20
-489.2850460840716
 30
0.0
 40
4.949997700877726
100
AcDbArc
 50
177.1034386145899
 51
311.9111629199087
  0
ARC
  5
35C
330
1F
100
AcDbEntity
  8
0
  6
DASHED
 62
     7
100
AcDbCircle
 10
-826.8739348990562
 20
-490.4294033522915
 30
0.0
 40
1.800004916494216
100
AcDbArc
 50
252.1034481430052
 51
267.1034069364368
  0
ARC
  5
35D
330
1F
100
AcDbEntity
  8
0
  6
DASHED
 62
     7
100
AcDbCircle
 10
-829.8999933953962
 20
-488.1450809645214
 30
0.0
 40
1.000003349614433
100
AcDbArc
 50
137.3136990919691
 51
176.1039726686732
  0
ARC
  5
35E
330
1F
100
AcDbEntity
  8
0
  6
DASHED
 62
     7
100
AcDbCircle
 10
-829.5426953096462
 20
-488.4797198223514
 30
0.0
 40
0.299999999996341
100
AcDbArc
 50
102.1034275378611
 51
177.1034275383271
  0
ARC
  5
35F
330
1F
100
AcDbEntity
  8
0
  6
DASHED
 62
     7
100
AcDbCircle
 10
-829.6753284221263
 20
-491.1010395047815
 30
0.0
 40
0.3000000000021817
100
AcDbArc
 50
177.1034275383802
 51
252.1034275398992
  0
ARC
  5
360
330
1F
100
AcDbEntity
  8
0
  6
DASHED
 62
     7
100
AcDbCircle
 10
-826.8234025991462
 20
-489.4306858478315
 30
0.0
 40
1.800000000000031
100
AcDbArc
 50
87.10342754029408
 51
102.1034275399768
  0
ARC
  5
361
330
1F
100
AcDbEntity
  8
0
  6
DASHED
 62
     7
100
AcDbCircle
 10
-830.0645822764063
 20
-491.3978949808616
 30
0.0
 40
1.000000000002874
100
AcDbArc
 50
178.1034275388526
 51
217.1034275386428
  0
ARC
  5
362
330
1F
100
AcDbEntity
  8
0
  6
Continuous
 62
     7
100
AcDbCircle
 10
-834.9232628014563
 20
-476.0855401714116
 30
0.0
 40
10.00000010519911
100
AcDbArc
 50
295.0581669582795
 51
299.6610523268051
  0
ARC
  5
363
330
1F
100
AcDbEntity
  8
0
  6
Continuous
 62
     7
100
AcDbCircle
 10
-827.1071651846762
 20
-489.8168405090214
 30
0.0
 40
5.800000181093756
100
AcDbArc
 50
107.0455777599741
 51
119.6290182148152
  0
ARC
  5
364
330
1F
100
AcDbEntity
  8
0
  6
DASHED
 62
     7
100
AcDbCircle
 10
-834.8010824664661
 20
-481.0840472505115
 30
0.0
 40
4.999999999791899
100
AcDbArc
 50
256.8929174964939
 51
271.4002276064739
  0
ARC
  5
365
330
1F
100
AcDbEntity
  8
0
  6
Continuous
 62
     7
100
AcDbCircle
 10
-827.1071636583963
 20
-489.8168398515015
 30
0.0
 40
5.799999999862782
100
AcDbArc
 50
91.65128545891183
 51
107.0455940791322
  0
ARC
  5
366
330
1F
100
AcDbEntity
  8
0
  6
Continuous
 62
     7
100
AcDbCircle
 10
-827.2568562386261
 20
-484.4189150554914
 30
0.0
 40
0.3999999979044916
100
AcDbArc
 50
91.5884902870436
 51
137.1034268233462
  0
ARC
  5
367
330
1F
100
AcDbEntity
  8
0
  6
DASHED
 62
     7
100
AcDbCircle
 10
-835.6530616317361
 20
-497.9280380205714
 30
0.0
 40
4.999999999801679
100
AcDbArc
 50
82.79562035524988
 51
97.31590800941406
  0
ARC
  5
368
330
1F
100
AcDbEntity
  8
0
  6
DASHED
 62
     7
100
AcDbCircle
 10
-839.5962467554762
 20
-489.2850471559116
 30
0.0
 40
2.000000927136152
100
AcDbArc
 50
357.0482388612664
 51
177.1586162171912
  0
ARC
  5
369
330
1F
100
AcDbEntity
  8
0
  6
DASHED
 62
     7
100
AcDbCircle
 10
-839.5962467554762
 20
-489.2850471559116
 30
0.0
 40
2.000000927133899
100
AcDbArc
 50
177.1586162171912
 51
357.0482388612664
  0
ARC
  5
36A
330
1F
100
AcDbEntity
  8
0
  6
DASHED
 62
     7
100
AcDbCircle
 10
-839.5962491002663
 20
-489.2850479952615
 30
0.0
 40
4.949997701185726
100
AcDbArc
 50
42.29766256484334
 51
177.1034164646156
  0
ARC
  5
36B
330
1F
100
AcDbEntity
  8
0
  6
DASHED
 62
     7
100
AcDbCircle
 10
-827.1172702728063
 20
-490.0165843361115
 30
0.0
 40
5.79999999661175
100
AcDbArc
 50
247.1612607494774
 51
262.6197870783184
  0
ARC
  5
36C
330
1F
100
AcDbEntity
  8
0
  6
DASHED
 62
     7
100
AcDbCircle
 10
-827.8110501013061
 20
-495.3718312622916
 30
0.0
 40
0.400000012349676
100
AcDbArc
 50
217.1034233252456
 51
262.6389975591994
  0
ARC
  5
36D
330
1F
100
AcDbEntity
  8
0
  6
DASHED
 62
     7
100
AcDbCircle
 10
-827.1172680267962
 20
-490.0165855964115
 30
0.0
 40
5.799999706886257
100
AcDbArc
 50
234.5575290499201
 51
247.1612354692313
  0
ARC
  5
36E
330
1F
100
AcDbEntity
  8
0
  6
DASHED
 62
     7
100
AcDbCircle
 10
-836.2802868249162
 20
-502.8899955074214
 30
0.0
 40
10.00144314595495
100
AcDbArc
 50
54.55756120932053
 51
82.79562693107815
  0
ARC
  5
36F
330
1F
100
AcDbEntity
  8
0
  6
Continuous
 62
     7
100
AcDbCircle
 10
-782.5127175150062
 20
-512.0604228469415
 30
0.0
 40
4.112132034358664
100
AcDbArc
 50
1.08157357332821
 51
173.1252815048859
  0
ARC
  5
370
330
1F
100
AcDbEntity
  8
0
  6
Continuous
 62
     7
100
AcDbCircle
 10
-821.0844954840763
 20
-523.3686128387915
 30
0.0
 40
39.75936268868347
100
AcDbArc
 50
96.35899840248265
 51
98.28553189135452
  0
ARC
  5
371
330
1F
100
AcDbEntity
  8
0
  6
Continuous
 62
     7
100
AcDbCircle
 10
-827.1071636084762
 20
-489.8168398527216
 30
0.0
 40
5.799999997913323
100
AcDbArc
 50
87.10342806806734
 51
91.58849153255909
  0
ARC
  5
372
330
1F
100
AcDbEntity
  8
0
  6
Continuous
 62
     7
100
AcDbCircle
 10
-645.7578489952562
 20
-510.4690502418116
 30
0.0
 40
168.5000000000046
100
AcDbArc
 50
170.3773662906569
 51
171.1391949299175
  0
ARC
  5
373
330
1F
100
AcDbEntity
  8
0
  6
DASHED
 62
     7
100
AcDbCircle
 10
-645.7578489952562
 20
-510.4690502418116
 30
0.0
 40
168.5000000000054
100
AcDbArc
 50
171.4909731005468
 51
175.2745095694221
  0
ARC
  5
374
330
1F
100
AcDbEntity
  8
0
  6
DASHED
 62
     7
100
AcDbCircle
 10
-847.5962467554766
 20
-497.6850471559137
 30
0.0
 40
0.5
100
AcDbArc
 50
0.0
 51
90.0
  0
ARC
  5
375
330
1F
100
AcDbEntity
  8
0
  6
DASHED
 62
     7
100
AcDbCircle
 10
-847.5962467554766
 20
-486.6850471559137
 30
0.0
 40
0.5
100
AcDbArc
 50
270.0
 51
0.0
  0
ARC
  5
376
330
1F
100
AcDbEntity
  8
0
  6
Continuous
 62
     7
100
AcDbCircle
 10
-842.9462465019765
 20
-484.6850471559137
 30
0.0
 40
0.5
100
AcDbArc
 50
0.0
 51
90.0
  0
ARC
  5
377
330
1F
100
AcDbEntity
  8
0
  6
DASHED
 62
     7
100
AcDbCircle
 10
-837.5400479019765
 20
-494.2850469725117
 30
0.0
 40
0.2999999999999545
100
AcDbArc
 50
90.0
 51
180.0
  0
ARC
  5
378
330
1F
100
AcDbEntity
  8
0
  6
DASHED
 62
     7
100
AcDbCircle
 10
-841.6400479019765
 20
-494.2850469725117
 30
0.0
 40
0.2999999999999545
100
AcDbArc
 50
0.00000000018456
 51
90.0
  0
ARC
  5
379
330
1F
100
AcDbEntity
  8
0
  6
Continuous
 62
     7
100
AcDbCircle
 10
-847.5962467554766
 20
-484.6850471559137
 30
0.0
 40
0.5
100
AcDbArc
 50
0.0
 51
90.0
  0
ARC
  5
37A
330
1F
100
AcDbEntity
  8
0
  6
Continuous
 62
     7
100
AcDbCircle
 10
-836.2462465019764
 20
-484.6850471559137
 30
0.0
 40
0.5
100
AcDbArc
 50
90.0
 51
180.0
  0
ARC
  5
37B
330
1F
100
AcDbEntity
  8
0
  6
Continuous
 62
     7
100
AcDbCircle
 10
-833.0962467779066
 20
-484.6850471466207
 30
0.0
 40
0.4999999907018416
100
AcDbArc
 50
44.99999742953808
 51
89.99999742971606
  0
ARC
  5
37C
330
1F
100
AcDbEntity
  8
0
  6
Continuous
 62
     7
100
AcDbCircle
 10
-833.0962467461766
 20
-499.6850471334777
 30
0.0
 40
0.4999999907011181
100
AcDbArc
 50
314.9999974284787
 51
359.9999974290256
  0
ARC
  5
37D
330
1F
100
AcDbEntity
  8
0
  6
Continuous
 62
     7
100
AcDbCircle
 10
-833.0962467461766
 20
-484.6850471783497
 30
0.0
 40
0.4999999906999624
100
AcDbArc
 50
0.0000025709744
 51
45.00000257152129
  0
ARC
  5
37E
330
1F
100
AcDbEntity
  8
0
  6
DASHED
 62
     7
100
AcDbCircle
 10
-833.0962467779066
 20
-499.6850471652067
 30
0.0
 40
0.499999990707011
100
AcDbArc
 50
270.0000025702839
 51
315.0000025704619
  0
ARC
  5
37F
330
1F
100
AcDbEntity
  8
0
  6
Continuous
 62
     7
100
AcDbCircle
 10
-847.5962467554766
 20
-499.6850471559137
 30
0.0
 40
0.5
100
AcDbArc
 50
270.0
 51
0.0
  0
CIRCLE
  5
380
330
1F
100
AcDbEntity
  8
0
  6
Continuous
 62
     7
100
AcDbCircle
 10
-1080.318168970384
 20
-502.144708981487
 30
0.0
 40
2.049999999999955
  0
CIRCLE
  5
381
330
1F
100
AcDbEntity
  8
0
  6
DASHED
 62
     7
100
AcDbCircle
 10
-839.5962467554766
 20
-489.2850471559087
 30
0.0
 40
2.050000000000182
  0
SPLINE
  5
382
330
1F
100
AcDbEntity
  8
0
  6
Continuous
 62
     7
100
AcDbSpline
210
0.0
220
0.0
230
1.0
 70
     8
 71
     3
 72
    11
 73
     7
 74
     5
 42
0.0000000001
 43
0.0000000001
 44
0.00000001
 40
0.0
 40
0.0
 40
0.0
 40
0.0
 40
0.0336658953588882
 40
0.0676851162931945
 40
0.1297437394591783
 40
0.1918605614247448
 40
0.1918605614247448
 40
0.1918605614247448
 40
0.1918605614247448
 10
-1083.631394485574
 20
-495.5245147975771
 30
0.0
 10
-1083.620386015005
 20
-495.5279112665913
 30
0.0
 10
-1083.598253539315
 20
-495.5347398507643
 30
0.0
 10
-1083.57175758482
 20
-495.5711675786354
 30
0.0
 10
-1083.549906308583
 20
-495.6188096252058
 30
0.0
 10
-1083.537797135988
 20
-495.6585070890106
 30
0.0
 10
-1083.531739712014
 20
-495.678365123657
 30
0.0
 11
-1083.631394485574
 21
-495.5245147975771
 31
0.0
 11
-1083.600424936851
 21
-495.5377162960615
 31
0.0
 11
-1083.578279795085
 21
-495.5635407048474
 31
0.0
 11
-1083.551173931396
 21
-495.6193667280168
 31
0.0
 11
-1083.531739712014
 21
-495.678365123657
 31
0.0
  0
SPLINE
  5
383
330
1F
100
AcDbEntity
  8
0
  6
Continuous
 62
     7
100
AcDbSpline
210
0.0
220
0.0
230
1.0
 70
     8
 71
     3
 72
    19
 73
    15
 74
    13
 42
0.0000000001
 43
0.0000000001
 44
0.00000001
 40
0.0
 40
0.0
 40
0.0
 40
0.0
 40
0.0313248445659697
 40
0.062649307520046
 40
0.0732594918171642
 40
0.0838677722205581
 40
0.091637198538254
 40
0.0994109227036074
 40
0.1047469860723781
 40
0.1100739248225186
 40
0.1196547602023887
 40
0.1293070772084737
 40
0.1375228788853782
 40
0.1455883429290563
 40
0.1455883429290563
 40
0.1455883429290563
 40
0.1455883429290563
 10
-1076.849818636434
 20
-496.9681628511468
 30
0.0
 10
-1076.847040203648
 20
-496.9580976424133
 30
0.0
 10
-1076.841483371926
 20
-496.937967347565
 30
0.0
 10
-1076.835224321992
 20
-496.9143626493853
 30
0.0
 10
-1076.830863032626
 20
-496.8973999922871
 30
0.0
 10
-1076.82851182186
 20
-496.8880277134114
 30
0.0
 10
-1076.826446243071
 20
-496.8795587456234
 30
0.0
 10
-1076.824828578997
 20
-496.872789734811
 30
0.0
 10
-1076.823417166261
 20
-496.866808060299
 30
0.0
 10
-1076.821941726631
 20
-496.8602245759076
 30
0.0
 10
-1076.820336080549
 20
-496.8521860103675
 30
0.0
 10
-1076.818672413221
 20
-496.8432281448491
 30
0.0
 10
-1076.816442554846
 20
-496.8347313035418
 30
0.0
 10
-1076.817373817323
 20
-496.8293188967199
 30
0.0
 10
-1076.817835149024
 20
-496.826637681797
 30
0.0
 11
-1076.849818636434
 21
-496.9681628511468
 31
0.0
 11
-1076.841534408956
 21
-496.9379532920277
 31
0.0
 11
-1076.833511477544
 21
-496.9076736858393
 31
0.0
 11
-1076.830872924441
 21
-496.8973968162604
 31
0.0
 11
-1076.828294573264
 21
-496.8871066404444
 31
0.0
 11
-1076.826452439285
 21
-496.8795587581116
 31
0.0
 11
-1076.824643969651
 21
-496.8719983199641
 31
0.0
 11
-1076.823426270499
 21
-496.8668030547111
 31
0.0
 11
-1076.822266054624
 21
-496.8616039994533
 31
0.0
 11
-1076.820363503502
 21
-496.8522139671956
 31
0.0
 11
-1076.81845304302
 21
-496.8427526055424
 31
0.0
 11
-1076.817023236184
 21
-496.8346621760354
 31
0.0
 11
-1076.817835149024
 21
-496.826637681797
 31
0.0
  0
SPLINE
  5
384
330
1F
100
AcDbEntity
  8
0
  6
Continuous
 62
     7
100
AcDbSpline
210
0.0
220
0.0
230
1.0
 70
     8
 71
     3
 72
     9
 73
     5
 74
     3
 42
0.0000000001
 43
0.0000000001
 44
0.00000001
 40
0.0
 40
0.0
 40
0.0
 40
0.0
 40
0.0592572916803732
 40
0.1186944971738318
 40
0.1186944971738318
 40
0.1186944971738318
 40
0.1186944971738318
 10
-1078.368194044344
 20
-510.144708798087
 30
0.0
 10
-1078.34815783033
 20
-510.1472449619386
 30
0.0
 10
-1078.308024569423
 20
-510.1523249898068
 30
0.0
 10
-1078.2769080257
 20
-510.1781804568811
 30
0.0
 10
-1078.261326171044
 20
-510.1911277859168
 30
0.0
 11
-1078.368194044344
 21
-510.144708798087
 31
0.0
 11
-1078.310332753133
 21
-510.1574954159607
 31
0.0
 11
-1078.261326171044
 21
-510.1911277859168
 31
0.0
  0
SPLINE
  5
385
330
1F
100
AcDbEntity
  8
0
  6
Continuous
 62
     7
100
AcDbSpline
210
0.0
220
0.0
230
1.0
 70
     8
 71
     3
 72
     9
 73
     5
 74
     3
 42
0.0000000001
 43
0.0000000001
 44
0.00000001
 40
0.0
 40
0.0
 40
0.0
 40
0.0
 40
0.0650743272326624
 40
0.1298912856539628
 40
0.1298912856539628
 40
0.1298912856539628
 40
0.1298912856539628
 10
-1082.382333925574
 20
-510.199169434367
 30
0.0
 10
-1082.365980438538
 20
-510.184083594829
 30
0.0
 10
-1082.33333814247
 20
-510.1539715802127
 30
0.0
 10
-1082.289365350279
 20
-510.1477923108923
 30
0.0
 10
-1082.267422518404
 20
-510.144708798087
 30
0.0
 11
-1082.382333925574
 21
-510.199169434367
 31
0.0
 11
-1082.330429604096
 21
-510.1599188359419
 31
0.0
 11
-1082.267422518404
 21
-510.144708798087
 31
0.0
  0
SPLINE
  5
386
330
1F
100
AcDbEntity
  8
0
  6
Continuous
 62
     7
100
AcDbSpline
210
0.0
220
0.0
230
1.0
 70
     8
 71
     3
 72
    75
 73
    71
 74
    69
 42
0.0000000001
 43
0.0000000001
 44
0.00000001
 40
0.0
 40
0.0
 40
0.0
 40
0.0
 40
0.1577740087630442
 40
0.3155480168964067
 40
0.3933056650754405
 40
0.4710633131202358
 40
0.5480663839491119
 40
0.6250694546157214
 40
0.701316674500014
 40
0.7775638942335791
 40
0.8530539698012484
 40
0.9285440452168063
 40
1.003275663407084
 40
1.078007281450158
 40
1.151979109637384
 40
1.225950937678687
 40
1.299161623777536
 40
1.372372309733067
 40
1.444820482326794
 40
1.517268654777779
 40
1.588952923233014
 40
1.66063719154905
 40
1.731556146151602
 40
1.802475100618372
 40
1.872627312694512
 40
1.942779524636432
 40
2.012163546673924
 40
2.081547568579103
 40
2.150161934374887
 40
2.218776300041762
 40
2.28661952483795
 40
2.354462749508397
 40
2.421533330130077
 40
2.48860391062155
 40
2.554900325607725
 40
2.621196740495824
 40
2.686717450342855
 40
2.752238159993443
 40
2.816981606935311
 40
2.881725054044202
 40
2.945689663579834
 40
3.009654271971324
 40
3.06174629964469
 40
3.113838326643825
 40
3.166751903622587
 40
3.219665480890135
 40
3.273397164989003
 40
3.327128849113397
 40
3.381675208284738
 40
3.436221567554954
 40
3.491579181014389
 40
3.546936794555054
 40
3.603102252608466
 40
3.659267710751331
 40
3.716237615002925
 40
3.77320751934153
 40
3.830978482758817
 40
3.888749446272618
 40
3.947318093347212
 40
4.005886740490318
 40
4.065249707223026
 40
4.124612674138179
 40
4.184766608594307
 40
4.244920542801439
 40
4.30586210355056
 40
4.366803665706919
 40
4.428529528263667
 40
4.490255385932677
 40
4.490877984293221
 40
4.491500582656704
 40
4.491500582656704
 40
4.491500582656704
 40
4.491500582656704
 10
-1128.448718616594
 20
-530.043650098397
 30
0.0
 10
-1128.500855585792
 20
-530.0505484566336
 30
0.0
 10
-1128.605129523979
 20
-530.0643451730789
 30
0.0
 10
-1128.735048860389
 20
-530.0819155938536
 30
0.0
 10
-1128.838514999273
 20
-530.0960695958356
 30
0.0
 10
-1128.915293856014
 20
-530.1066624822693
 30
0.0
 10
-1128.991811820151
 20
-530.1173056074006
 30
0.0
 10
-1129.067819313864
 20
-530.127963837416
 30
0.0
 10
-1129.143565519373
 20
-530.1386707377962
 30
0.0
 10
-1129.218800604165
 20
-530.1493898713156
 30
0.0
 10
-1129.293774073999
 20
-530.1601555979362
 30
0.0
 10
-1129.368235752458
 20
-530.1709308217214
 30
0.0
 10
-1129.442435496695
 20
-530.1817505245701
 30
0.0
 10
-1129.516122774839
 20
-530.1925769990618
 30
0.0
 10
-1129.589547802652
 20
-530.2034458351108
 30
0.0
 10
-1129.662459686739
 20
-530.214318718894
 30
0.0
 10
-1129.735109007233
 20
-530.2252318455984
 30
0.0
 10
-1129.807244503535
 20
-530.2361462971662
 30
0.0
 10
-1129.879117125807
 20
-530.2470988719879
 30
0.0
 10
-1129.9504752406
 20
-530.2580500498412
 30
0.0
 10
-1130.021570173747
 20
-530.2690372302177
 30
0.0
 10
-1130.092149913305
 20
-530.2800202928934
 30
0.0
 10
-1130.162466166428
 20
-530.2910372362477
 30
0.0
 10
-1130.232266537027
 20
-530.3020473423234
 30
0.0
 10
-1130.301803119226
 20
-530.3130892060456
 30
0.0
 10
-1130.37082312714
 20
-530.324121514127
 30
0.0
 10
-1130.439579047512
 20
-530.3351834555796
 30
0.0
 10
-1130.507817699008
 20
-530.346233124313
 30
0.0
 10
-1130.57579196665
 20
-530.357310300829
 30
0.0
 10
-1130.643248267997
 20
-530.3683724889036
 30
0.0
 10
-1130.71043989201
 20
-530.379460057786
 30
0.0
 10
-1130.777112849478
 20
-530.3905299239314
 30
0.0
 10
-1130.843520838964
 20
-530.4016230424367
 30
0.0
 10
-1130.909409458809
 20
-530.4126957454394
 30
0.0
 10
-1130.97503282286
 20
-530.4237895708521
 30
0.0
 10
-1131.040136111372
 20
-530.4348602695248
 30
0.0
 10
-1131.104973859133
 20
-530.4459499588309
 30
0.0
 10
-1131.169290822483
 20
-530.4570138120976
 30
0.0
 10
-1131.233341962903
 20
-530.4680945232036
 30
0.0
 10
-1131.29687160767
 20
-530.479146689853
 30
0.0
 10
-1131.360135150349
 20
-530.4902135770926
 30
0.0
 10
-1131.419234998971
 20
-530.5006087124127
 30
0.0
 10
-1131.474428951999
 20
-530.5103647703307
 30
0.0
 10
-1131.525988557719
 20
-530.5195186045278
 30
0.0
 10
-1131.57781077891
 20
-530.5287597517163
 30
0.0
 10
-1131.630163894056
 20
-530.5381369691886
 30
0.0
 10
-1131.682778152735
 20
-530.5476028605464
 30
0.0
 10
-1131.735920630104
 20
-530.5572063952752
 30
0.0
 10
-1131.789322777184
 20
-530.5668999656015
 30
0.0
 10
-1131.843250469082
 20
-530.5767327544606
 30
0.0
 10
-1131.897436355691
 20
-530.5866569388883
 30
0.0
 10
-1131.952145114564
 20
-530.5967219179082
 30
0.0
 10
-1132.007110591755
 20
-530.6068796515508
 30
0.0
 10
-1132.062596270024
 20
-530.6171797569361
 30
0.0
 10
-1132.118337188855
 20
-530.6275739749775
 30
0.0
 10
-1132.174595638966
 20
-530.6381121428376
 30
0.0
 10
-1132.23110785047
 20
-530.6487457805126
 30
0.0
 10
-1132.288134924882
 20
-530.6595249469435
 30
0.0
 10
-1132.345414280086
 20
-530.6704009395299
 30
0.0
 10
-1132.403205831243
 20
-530.6814240405788
 30
0.0
 10
-1132.46124818115
 20
-530.69254532339
 30
0.0
 10
-1132.519800061619
 20
-530.703815295102
 30
0.0
 10
-1132.578601257249
 20
-530.7151848034916
 30
0.0
 10
-1132.637909319175
 20
-530.7267045818694
 30
0.0
 10
-1132.697465211457
 20
-530.738325250943
 30
0.0
 10
-1132.757525308532
 20
-530.750097773208
 30
0.0
 10
-1132.817831749177
 20
-530.7619725347721
 30
0.0
 10
-1132.858403738705
 20
-530.76999793922
 30
0.0
 10
-1132.87899333524
 20
-530.7740800182094
 30
0.0
 10
-1132.879400475362
 20
-530.7741607421344
 30
0.0
 10
-1132.879604045424
 20
-530.774201104097
 30
0.0
 11
-1128.448718616594
 21
-530.043650098397
 31
0.0
 11
-1128.605119518199
 21
-530.0644201686539
 31
0.0
 11
-1128.761473087478
 21
-530.0855435920486
 31
0.0
 11
-1128.838512980248
 21
-530.0960843117784
 31
0.0
 11
-1128.915541044799
 21
-530.1067111222582
 31
0.0
 11
-1128.991809847905
 21
-530.11731973149
 31
0.0
 11
-1129.068066837194
 21
-530.1280129291732
 31
0.0
 11
-1129.143563554077
 21
-530.1386845869627
 31
0.0
 11
-1129.219048480047
 21
-530.1494393286338
 31
0.0
 11
-1129.293772114154
 21
-530.1601691941983
 31
0.0
 11
-1129.368483988727
 21
-530.1709806364731
 31
0.0
 11
-1129.442433543506
 21
-530.1817638690701
 31
0.0
 11
-1129.516371378612
 21
-530.1926271685317
 31
0.0
 11
-1129.589545857518
 21
-530.2034589274905
 31
0.0
 11
-1129.662708665083
 21
-530.2143692406439
 31
0.0
 11
-1129.735107071564
 21
-530.2252446853713
 31
0.0
 11
-1129.807493863508
 21
-530.2361971686565
 31
0.0
 11
-1129.879115201016
 21
-530.2471114586331
 31
0.0
 11
-1129.950724989263
 21
-530.2581012684021
 31
0.0
 11
-1130.021568261246
 21
-530.2690495631874
 31
0.0
 11
-1130.092400057718
 21
-530.280071855713
 31
0.0
 11
-1130.162464267628
 21
-530.2910493149639
 31
0.0
 11
-1130.232517084254
 21
-530.3020992464351
 31
0.0
 11
-1130.301801235542
 21
-530.3131010298988
 31
0.0
 11
-1130.37107408425
 21
-530.3241737564044
 31
0.0
 11
-1130.439577180357
 21
-530.3351950239268
 31
0.0
 11
-1130.508069073072
 21
-530.346285701456
 31
0.0
 11
-1130.575790117439
 21
-530.3573216129915
 31
0.0
 11
-1130.643500066096
 21
-530.3684253974286
 31
0.0
 11
-1130.710438062161
 21
-530.3794711130467
 31
0.0
 11
-1130.777365078699
 21
-530.3905831601576
 31
0.0
 11
-1130.843519029896
 21
-530.4016338400423
 31
0.0
 11
-1130.909662126251
 21
-530.4127493054873
 31
0.0
 11
-1130.975031035986
 21
-530.4238001099886
 31
0.0
 11
-1131.040389224136
 21
-530.4349141492517
 31
0.0
 11
-1131.104972095911
 21
-530.4459602387038
 31
0.0
 11
-1131.169544387725
 21
-530.4570680072873
 31
0.0
 11
-1131.233340224637
 21
-530.4681045427338
 31
0.0
 11
-1131.297125632391
 21
-530.4792011954373
 31
0.0
 11
-1131.36013343897
 21
-530.4902233360232
 31
0.0
 11
-1131.42313097351
 21
-530.5013040295321
 31
0.0
 11
-1131.474427807932
 21
-530.5103712300587
 31
0.0
 11
-1131.525717775729
 21
-530.5194771885583
 31
0.0
 11
-1131.577809589886
 21
-530.528766404163
 31
0.0
 11
-1131.629894270786
 21
-530.538095534606
 31
0.0
 11
-1131.682776918647
 21
-530.5476097046321
 31
0.0
 11
-1131.73565216211
 21
-530.5571649391964
 31
0.0
 11
-1131.789321497248
 21
-530.5669070008232
 31
0.0
 11
-1131.842983153121
 21
-530.5766912738449
 31
0.0
 11
-1131.897435029277
 21
-530.5866641646502
 31
0.0
 11
-1131.951878947251
 21
-530.5966804100829
 31
0.0
 11
-1132.007109218171
 21
-530.6068870673444
 31
0.0
 11
-1132.062331247917
 21
-530.6171382194292
 31
0.0
 11
-1132.118335767409
 21
-530.6275815803299
 31
0.0
 11
-1132.174331758557
 21
-530.6380705734065
 31
0.0
 11
-1132.231106380451
 21
-530.6487535749947
 31
0.0
 11
-1132.287872182588
 21
-530.6594833435429
 31
0.0
 11
-1132.345412760783
 21
-530.6704089227537
 31
0.0
 11
-1132.40294422344
 21
-530.6813824013591
 31
0.0
 11
-1132.461246611781
 21
-530.692553494995
 31
0.0
 11
-1132.519539584534
 21
-530.7037736183719
 31
0.0
 11
-1132.578599637246
 21
-530.7151931632075
 31
0.0
 11
-1132.637649969302
 21
-530.7266628661105
 31
0.0
 11
-1132.697463539353
 21
-530.7383337985616
 31
0.0
 11
-1132.757267081171
 21
-530.750056016103
 31
0.0
 11
-1132.81783002648
 21
-530.7619812734947
 31
0.0
 11
-1132.878382623562
 21
-530.7739589398603
 31
0.0
 11
-1132.878993335019
 21
-530.7740800193179
 31
0.0
 11
-1132.879604045424
 21
-530.774201104097
 31
0.0
  0
SPLINE
  5
387
330
1F
100
AcDbEntity
  8
0
  6
Continuous
 62
     7
100
AcDbSpline
210
0.0
220
0.0
230
1.0
 70
     8
 71
     3
 72
     9
 73
     5
 74
     3
 42
0.0000000001
 43
0.0000000001
 44
0.00000001
 40
0.0
 40
0.0
 40
0.0
 40
0.0
 40
0.7095353502830984
 40
1.419073495035035
 40
1.419073495035035
 40
1.419073495035035
 40
1.419073495035035
 10
-1138.598190609604
 20
-532.154164549817
 30
0.0
 10
-1138.825393946603
 20
-532.2198782861784
 30
0.0
 10
-1139.279801515429
 20
-532.3513060177115
 30
0.0
 10
-1139.732139848141
 20
-532.4896878084804
 30
0.0
 10
-1139.958309459874
 20
-532.558878840117
 30
0.0
 11
-1138.598190609604
 21
-532.154164549817
 31
0.0
 11
-1139.279283313609
 21
-532.3530442668632
 31
0.0
 11
-1139.958309459874
 21
-532.558878840117
 31
0.0
  0
SPLINE
  5
388
330
1F
100
AcDbEntity
  8
0
  6
Continuous
 62
     7
100
AcDbSpline
210
0.0
220
0.0
230
1.0
 70
     8
 71
     3
 72
    15
 73
    11
 74
     9
 42
0.0000000001
 43
0.0000000001
 44
0.00000001
 40
0.0
 40
0.0
 40
0.0
 40
0.0
 40
1.926386035607432
 40
3.852783757774215
 40
4.306777461686895
 40
4.760768611131286
 40
5.181610207510285
 40
5.602452211391483
 40
6.469605164707724
 40
7.336759212053201
 40
7.336759212053201
 40
7.336759212053201
 40
7.336759212053201
 10
-1132.847331696334
 20
-530.7658876121369
 30
0.0
 10
-1133.476375593848
 20
-530.8950464065097
 30
0.0
 10
-1134.734467205016
 20
-531.1533647788059
 30
0.0
 10
-1136.129996284451
 20
-531.4914900350814
 30
0.0
 10
-1137.044782215789
 20
-531.7276922638973
 30
0.0
 10
-1137.47291295001
 20
-531.8412966555168
 30
0.0
 10
-1137.889671862049
 20
-531.9546310958204
 30
0.0
 10
-1138.438388447802
 20
-532.1075012993344
 30
0.0
 10
-1139.128816912538
 20
-532.3060623772656
 30
0.0
 10
-1139.681811827816
 20
-532.474606650393
 30
0.0
 10
-1139.958309459874
 20
-532.558878840117
 30
0.0
 11
-1132.847331696334
 21
-530.7658876121369
 31
0.0
 11
-1134.732045770792
 21
-531.1644048836881
 31
0.0
 11
-1136.60509769534
 21
-531.6146100279461
 31
0.0
 11
-1137.044656146873
 21
-531.7281822555304
 31
0.0
 11
-1137.483467702738
 21
-531.8445969548292
 31
0.0
 11
-1137.88955629563
 21
-531.955049224909
 31
0.0
 11
-1138.294973429128
 21
-532.0679427149638
 31
0.0
 11
-1139.128163652258
 21
-532.3082514674586
 31
0.0
 11
-1139.958309459874
 21
-532.558878840117
 31
0.0
  0
SPLINE
  5
389
330
1F
100
AcDbEntity
  8
0
  6
DASHED
 62
     7
100
AcDbSpline
210
0.0
220
0.0
230
1.0
 70
     8
 71
     3
 72
    11
 73
     7
 74
     5
 42
0.0000000001
 43
0.0000000001
 44
0.00000001
 40
0.0
 40
0.0
 40
0.0
 40
0.0
 40
0.3940486448623672
 40
0.788041535606629
 40
1.139234369269611
 40
1.489974138827463
 40
1.489974138827463
 40
1.489974138827463
 40
1.489974138827463
 10
-1187.311885194604
 20
-494.7144514463366
 30
0.0
 10
-1187.183030229754
 20
-494.6843289984097
 30
0.0
 10
-1186.9253385318
 20
-494.6240883645945
 30
0.0
 10
-1186.603902956877
 20
-494.4105741861704
 30
0.0
 10
-1186.362825138975
 20
-494.1182212269858
 30
0.0
 10
-1186.328857867975
 20
-493.8824923437563
 30
0.0
 10
-1186.311885194604
 20
-493.7647039780317
 30
0.0
 11
-1187.311885194604
 21
-494.7144514463366
 31
0.0
 11
-1186.934157891765
 21
-494.6022176759837
 31
0.0
 11
-1186.604778439709
 21
-494.3860243030036
 31
0.0
 11
-1186.392874703395
 21
-494.1059650004403
 31
0.0
 11
-1186.311885194604
 21
-493.7647039780317
 31
0.0
  0
SPLINE
  5
38A
330
1F
100
AcDbEntity
  8
0
  6
DASHED
 62
     7
100
AcDbSpline
210
0.0
220
0.0
230
1.0
 70
     8
 71
     3
 72
    39
 73
    35
 74
    33
 42
0.0000000001
 43
0.0000000001
 44
0.00000001
 40
0.0
 40
0.0
 40
0.0
 40
0.0
 40
0.023900270314678
 40
0.0478015314277106
 40
0.0609854573294653
 40
0.0741691098800343
 40
0.0844102741901616
 40
0.0946515330260795
 40
0.1113612695413852
 40
0.1280709577401745
 40
0.1418675328747853
 40
0.1556644079644803
 40
0.1878600855918713
 40
0.2200570084133013
 40
0.249320923897918
 40
0.2785845199369031
 40
0.3125424601066246
 40
0.3465017519506317
 40
0.3842479594607232
 40
0.4219938958567164
 40
0.4549694709730512
 40
0.4879440709506692
 40
0.5202736391224901
 40
0.5526042763401572
 40
0.5917596086853604
 40
0.6309150065564755
 40
0.6660315480010081
 40
0.7011486720034248
 40
0.7439983714081734
 40
0.786847923247317
 40
0.8237545845324151
 40
0.86066266367063
 40
0.9936354691501152
 40
1.126647833364279
 40
1.126647833364279
 40
1.126647833364279
 40
1.126647833364279
 10
-1186.311885194604
 20
-490.1789175404036
 30
0.0
 10
-1186.311797698708
 20
-490.1709506182249
 30
0.0
 10
-1186.311622703289
 20
-490.1550164435947
 30
0.0
 10
-1186.31061639842
 20
-490.1347085390646
 30
0.0
 10
-1186.309529113282
 20
-490.1179876507224
 30
0.0
 10
-1186.30858061661
 20
-490.1058212206618
 30
0.0
 10
-1186.307590252681
 20
-490.0946428521009
 30
0.0
 10
-1186.306381838243
 20
-490.0823043346566
 30
0.0
 10
-1186.304789680531
 20
-490.0678375551221
 30
0.0
 10
-1186.302834546479
 20
-490.052220207382
 30
0.0
 10
-1186.300799865387
 20
-490.0375929369815
 30
0.0
 10
-1186.297807459051
 20
-490.0178887612362
 30
0.0
 10
-1186.293351966764
 20
-489.9922049685202
 30
0.0
 10
-1186.287088517727
 20
-489.9616159737848
 30
0.0
 10
-1186.280147948069
 20
-489.9321775452599
 30
0.0
 10
-1186.272217270241
 20
-489.9023823142766
 30
0.0
 10
-1186.262904626491
 20
-489.8713495195014
 30
0.0
 10
-1186.251636442996
 20
-489.8379724272809
 30
0.0
 10
-1186.238715648818
 20
-489.8038435283144
 30
0.0
 10
-1186.224623514367
 20
-489.7705371158061
 30
0.0
 10
-1186.210012110409
 20
-489.7392048350205
 30
0.0
 10
-1186.195173224844
 20
-489.7099913575382
 30
0.0
 10
-1186.179473577832
 20
-489.6814768204695
 30
0.0
 10
-1186.161791712305
 20
-489.6517230499736
 30
0.0
 10
-1186.141805942993
 20
-489.6207154437667
 30
0.0
 10
-1186.120074785316
 20
-489.5897633187269
 30
0.0
 10
-1186.098016020501
 20
-489.5607200247794
 30
0.0
 10
-1186.07416876187
 20
-489.5315183081455
 30
0.0
 10
-1186.047492076183
 20
-489.5013315290502
 30
0.0
 10
-1186.019139118966
 20
-489.4718820839428
 30
0.0
 10
-1185.99108003109
 20
-489.4449388609591
 30
0.0
 10
-1185.93960653081
 20
-489.3991081908324
 30
0.0
 10
-1185.859004323994
 20
-489.3374574594628
 30
0.0
 10
-1185.780347824912
 20
-489.296270583864
 30
0.0
 10
-1185.741013726264
 20
-489.2756740832987
 30
0.0
 11
-1186.311885194604
 21
-490.1789175404036
 31
0.0
 11
-1186.311469272031
 21
-490.1550208893929
 31
0.0
 11
-1186.310360551073
 21
-490.1311453575531
 31
0.0
 11
-1186.309500896016
 21
-490.1179894883167
 31
0.0
 11
-1186.308478348951
 21
-490.104845550852
 31
0.0
 11
-1186.307574515683
 21
-490.0946443483813
 31
0.0
 11
-1186.306576534992
 21
-490.0844518306803
 31
0.0
 11
-1186.304748391696
 21
-490.0678424000308
 31
0.0
 11
-1186.302672567252
 21
-490.0512621517643
 31
0.0
 11
-1186.300771437853
 21
-490.037597189545
 31
0.0
 11
-1186.298699608823
 21
-490.0239567611533
 31
0.0
 11
-1186.293192776244
 21
-489.9922355308361
 31
0.0
 11
-1186.28673002808
 21
-489.9606938960443
 31
0.0
 11
-1186.28001259358
 21
-489.9322113957464
 31
0.0
 11
-1186.272483310197
 21
-489.903932995069
 31
0.0
 11
-1186.262721145287
 21
-489.8714085144913
 31
0.0
 11
-1186.251856810006
 21
-489.8392339947364
 31
0.0
 11
-1186.238491599805
 21
-489.8039331825976
 31
0.0
 11
-1186.223782426305
 21
-489.7691711928766
 31
0.0
 11
-1186.209845770201
 21
-489.7392854409051
 31
0.0
 11
-1186.194912437853
 21
-489.7098861240989
 31
0.0
 11
-1186.179319858129
 21
-489.6815652407135
 31
0.0
 11
-1186.162803260062
 21
-489.6537718585661
 31
0.0
 11
-1186.14159155777
 21
-489.6208597979059
 31
0.0
 11
-1186.119093177583
 21
-489.5888134553468
 31
0.0
 11
-1186.097854113293
 21
-489.5608478759475
 31
0.0
 11
-1186.075642494711
 21
-489.5336475745121
 31
0.0
 11
-1186.047268170391
 21
-489.5015384720891
 31
0.0
 11
-1186.01755166516
 21
-489.4706675568179
 31
0.0
 11
-1185.990925212676
 21
-489.4451110767129
 31
0.0
 11
-1185.96338111375
 21
-489.4205442511141
 31
0.0
 11
-1185.857046482997
 21
-489.3407024494073
 31
0.0
 11
-1185.741013726264
 21
-489.2756740832987
 31
0.0
  0
SPLINE
  5
38B
330
1F
100
AcDbEntity
  8
0
  6
Continuous
 62
     7
100
AcDbSpline
210
0.0
220
0.0
230
1.0
 70
     8
 71
     3
 72
    11
 73
     7
 74
     5
 42
0.0000000001
 43
0.0000000001
 44
0.00000001
 40
0.0
 40
0.0
 40
0.0
 40
0.0
 40
0.0395418629403085
 40
0.0790896967182865
 40
0.1265114300053818
 40
0.173909834883386
 40
0.173909834883386
 40
0.173909834883386
 40
0.173909834883386
 10
-1129.526081393394
 20
-482.2789780512369
 30
0.0
 10
-1129.512859888032
 20
-482.2779552390488
 30
0.0
 10
-1129.486414880855
 20
-482.2759094602275
 30
0.0
 10
-1129.44707262369
 20
-482.2591737228545
 30
0.0
 10
-1129.410139685782
 20
-482.233001312739
 30
0.0
 10
-1129.389984549067
 20
-482.208499114242
 30
0.0
 10
-1129.379909460074
 20
-482.1962510291069
 30
0.0
 11
-1129.526081393394
 21
-482.2789780512369
 31
0.0
 11
-1129.486879272588
 21
-482.2738057549255
 31
0.0
 11
-1129.450170689564
 21
-482.2590914391445
 31
0.0
 11
-1129.411610880341
 21
-482.2314877817672
 31
0.0
 11
-1129.379909460074
 21
-482.1962510291069
 31
0.0
  0
SPLINE
  5
38C
330
1F
100
AcDbEntity
  8
0
  6
Continuous
 62
     7
100
AcDbSpline
210
0.0
220
0.0
230
1.0
 70
     8
 71
     3
 72
    11
 73
     7
 74
     5
 42
0.0000000001
 43
0.0000000001
 44
0.00000001
 40
0.0
 40
0.0
 40
0.0
 40
0.0
 40
0.0539371246376812
 40
0.1078237473656034
 40
0.161825449781507
 40
0.2158291562436303
 40
0.2158291562436303
 40
0.2158291562436303
 40
0.2158291562436303
 10
-1129.379909460074
 20
-482.1962510291069
 30
0.0
 10
-1129.370018463987
 20
-482.181176537269
 30
0.0
 10
-1129.350245732859
 20
-482.1510416680018
 30
0.0
 10
-1129.331090247349
 20
-482.1002623057891
 30
0.0
 10
-1129.318258457823
 20
-482.0476560831075
 30
0.0
 10
-1129.315726400598
 20
-482.0116820913602
 30
0.0
 10
-1129.314460348494
 20
-481.9936947617368
 30
0.0
 11
-1129.379909460074
 21
-482.1962510291069
 31
0.0
 11
-1129.351990487787
 21
-482.1501018752619
 31
0.0
 11
-1129.332156495071
 21
-482.0999981743809
 31
0.0
 11
-1129.319765711484
 21
-482.0474372350255
 31
0.0
 11
-1129.314460348494
 21
-481.9936947617368
 31
0.0
  0
SPLINE
  5
38D
330
1F
100
AcDbEntity
  8
0
  6
Continuous
 62
     7
100
AcDbSpline
210
0.0
220
0.0
230
1.0
 70
     8
 71
     3
 72
    11
 73
     7
 74
     5
 42
0.0000000001
 43
0.0000000001
 44
0.00000001
 40
0.0
 40
0.0
 40
0.0
 40
0.0
 40
0.0539908684783173
 40
0.1080057390482973
 40
0.1619497228771841
 40
0.2158307765720431
 40
0.2158307765720431
 40
0.2158307765720431
 40
0.2158307765720431
 10
-1121.110011918504
 20
-481.9936947786669
 30
0.0
 10
-1121.10874751479
 20
-482.0116780600945
 30
0.0
 10
-1121.10621814526
 20
-482.0476526175676
 30
0.0
 10
-1121.093374907138
 20
-482.1002753831488
 30
0.0
 10
-1121.074228463748
 20
-482.1510644811082
 30
0.0
 10
-1121.054447130146
 20
-482.1811947086348
 30
0.0
 10
-1121.044562235854
 20
-482.1962510299168
 30
0.0
 11
-1121.110011918504
 21
-481.9936947786669
 31
0.0
 11
-1121.10471040235
 21
-482.0474247312587
 31
0.0
 11
-1121.092315277655
 21
-482.0999981763283
 31
0.0
 11
-1121.07246269055
 21
-482.1501562083529
 31
0.0
 11
-1121.044562235854
 21
-482.1962510299168
 31
0.0
  0
SPLINE
  5
38E
330
1F
100
AcDbEntity
  8
0
  6
Continuous
 62
     7
100
AcDbSpline
210
0.0
220
0.0
230
1.0
 70
     8
 71
     3
 72
    11
 73
     7
 74
     5
 42
0.0000000001
 43
0.0000000001
 44
0.00000001
 40
0.0
 40
0.0
 40
0.0
 40
0.0
 40
0.0474369636630626
 40
0.0948200554359051
 40
0.1343285507020339
 40
0.1739115061539953
 40
0.1739115061539953
 40
0.1739115061539953
 40
0.1739115061539953
 10
-1121.044562235854
 20
-482.1962510299168
 30
0.0
 10
-1121.034478599579
 20
-482.2085092391985
 30
0.0
 10
-1121.014322778531
 20
-482.2330117367001
 30
0.0
 10
-1120.977396369831
 20
-482.2591666828904
 30
0.0
 10
-1120.938074563277
 20
-482.2759191320979
 30
0.0
 10
-1120.911627103784
 20
-482.2779577717687
 30
0.0
 10
-1120.898390924634
 20
-482.2789780512369
 30
0.0
 11
-1121.044562235854
 21
-482.1962510299168
 31
0.0
 11
-1121.012832184646
 21
-482.2315138910018
 31
0.0
 11
-1120.974301207283
 21
-482.259091439287
 31
0.0
 11
-1120.937634241712
 21
-482.2738038433738
 31
0.0
 11
-1120.898390924634
 21
-482.2789780512369
 31
0.0
  0
SPLINE
  5
38F
330
1F
100
AcDbEntity
  8
0
  6
Continuous
 62
     7
100
AcDbSpline
210
0.0
220
0.0
230
1.0
 70
     8
 71
     3
 72
    11
 73
     7
 74
     5
 42
0.0000000001
 43
0.0000000001
 44
0.00000001
 40
0.0
 40
0.0
 40
0.0
 40
0.0
 40
0.0538839473465376
 40
0.1078271480126368
 40
0.161813287340173
 40
0.2158343926502836
 40
0.2158343926502836
 40
0.2158343926502836
 40
0.2158343926502836
 10
-1121.044191885044
 20
-482.3617050465368
 30
0.0
 10
-1121.054077195278
 20
-482.3767621439262
 30
0.0
 10
-1121.073858686098
 20
-482.4068928961964
 30
0.0
 10
-1121.093008122496
 20
-482.4576714831089
 30
0.0
 10
-1121.105850141209
 20
-482.5102942577601
 30
0.0
 10
-1121.108390134329
 20
-482.5462683485052
 30
0.0
 10
-1121.109660542034
 20
-482.5642612169568
 30
0.0
 11
-1121.044191885044
 21
-482.3617050465368
 31
0.0
 11
-1121.072094513054
 21
-482.4078019350627
 31
0.0
 11
-1121.09195030487
 21
-482.4579578562432
 31
0.0
 11
-1121.104342206871
 21
-482.5105025420288
 31
0.0
 11
-1121.109660542034
 21
-482.5642612169568
 31
0.0
  0
SPLINE
  5
390
330
1F
100
AcDbEntity
  8
0
  6
Continuous
 62
     7
100
AcDbSpline
210
0.0
220
0.0
230
1.0
 70
     8
 71
     3
 72
    11
 73
     7
 74
     5
 42
0.0000000001
 43
0.0000000001
 44
0.00000001
 40
0.0
 40
0.0
 40
0.0
 40
0.0
 40
0.039403814666985
 40
0.0787331822287907
 40
0.1261377844732391
 40
0.1735491820012574
 40
0.1735491820012574
 40
0.1735491820012574
 40
0.1735491820012574
 10
-1120.898390924634
 20
-482.2789780512369
 30
0.0
 10
-1120.91156572772
 20
-482.2800132122275
 30
0.0
 10
-1120.937890442243
 20
-482.2820815784404
 30
0.0
 10
-1120.977083895295
 20
-482.2988337654983
 30
0.0
 10
-1121.013961763816
 20
-482.3249488175102
 30
0.0
 10
-1121.034114696527
 20
-482.3494523848198
 30
0.0
 10
-1121.044191885044
 20
-482.3617050465368
 30
0.0
 11
-1120.898390924634
 21
-482.2789780512369
 31
0.0
 11
-1120.937449256315
 21
-482.2841845218833
 31
0.0
 11
-1120.973936140528
 21
-482.2988646592546
 31
0.0
 11
-1121.012481880237
 21
-482.3264585401755
 31
0.0
 11
-1121.044191885044
 21
-482.3617050465368
 31
0.0
  0
SPLINE
  5
391
330
1F
100
AcDbEntity
  8
0
  6
Continuous
 62
     7
100
AcDbSpline
210
0.0
220
0.0
230
1.0
 70
     8
 71
     3
 72
    11
 73
     7
 74
     5
 42
0.0000000001
 43
0.0000000001
 44
0.00000001
 40
0.0
 40
0.0
 40
0.0
 40
0.0
 40
0.0540192463140348
 40
0.1080072872097775
 40
0.1619248573033635
 40
0.2158338725539286
 40
0.2158338725539286
 40
0.2158338725539286
 40
0.2158338725539286
 10
-1129.314108941124
 20
-482.5642612169468
 30
0.0
 10
-1129.315379211707
 20
-482.5462689931957
 30
0.0
 10
-1129.317919019072
 20
-482.5102949393015
 30
0.0
 10
-1129.33075799774
 20
-482.4576798729221
 30
0.0
 10
-1129.349911776123
 20
-482.4069030714362
 30
0.0
 10
-1129.369689510718
 20
-482.3767702579285
 30
0.0
 10
-1129.379577593444
 20
-482.3617050465268
 30
0.0
 11
-1129.314108941124
 21
-482.5642612169468
 31
0.0
 11
-1129.319426638627
 21
-482.5105043470081
 31
0.0
 11
-1129.331819171292
 21
-482.4579578562224
 31
0.0
 11
-1129.351666678911
 21
-482.4078262214385
 31
0.0
 11
-1129.379577593444
 21
-482.3617050465268
 31
0.0
  0
SPLINE
  5
392
330
1F
100
AcDbEntity
  8
0
  6
Continuous
 62
     7
100
AcDbSpline
210
0.0
220
0.0
230
1.0
 70
     8
 71
     3
 72
    11
 73
     7
 74
     5
 42
0.0000000001
 43
0.0000000001
 44
0.00000001
 40
0.0
 40
0.0
 40
0.0
 40
0.0
 40
0.0473976575633782
 40
0.0948155646063623
 40
0.1343158279271582
 40
0.1738935502796519
 40
0.1738935502796519
 40
0.1738935502796519
 40
0.1738935502796519
 10
-1129.379577593444
 20
-482.3617050465268
 30
0.0
 10
-1129.389652714277
 20
-482.3494571735573
 30
0.0
 10
-1129.409807260289
 20
-482.3249561950169
 30
0.0
 10
-1129.446724553659
 20
-482.2987948895807
 30
0.0
 10
-1129.486052787378
 20
-482.2820389025743
 30
0.0
 10
-1129.51249555244
 20
-482.2799990010623
 30
0.0
 10
-1129.525729885674
 20
-482.2789780512369
 30
0.0
 11
-1129.379577593444
 21
-482.3617050465268
 31
0.0
 11
-1129.411278807114
 21
-482.3264691132437
 31
0.0
 11
-1129.449833340288
 21
-482.2988646592539
 31
0.0
 11
-1129.486492047487
 21
-482.284153779303
 31
0.0
 11
-1129.525729885674
 21
-482.2789780512369
 31
0.0
  0
SPLINE
  5
393
330
1F
100
AcDbEntity
  8
0
  6
Continuous
 62
     7
100
AcDbSpline
210
0.0
220
0.0
230
1.0
 70
    24
 71
     3
 72
    19
 73
    15
 74
    13
 42
0.0000000001
 43
0.0000000001
 44
0.00000001
 40
0.0
 40
0.0
 40
0.0
 40
0.0
 40
0.0956667320128872
 40
0.191333464031004
 40
0.2345455193446924
 40
0.2777575746581533
 40
0.3156331836360096
 40
0.3535087926125016
 40
0.3845920582498366
 40
0.4156753238883084
 40
0.438771918613611
 40
0.4618685133389135
 40
0.4808961804617411
 40
0.4999238475800212
 40
0.4999238475800212
 40
0.4999238475800212
 40
0.4999238475800212
 10
-1088.415923122244
 20
-502.1447089814869
 30
0.0
 10
-1088.447812032915
 20
-502.1447089814869
 30
0.0
 10
-1088.511589854259
 20
-502.1447089814868
 30
0.0
 10
-1088.58977169404
 20
-502.1447089814868
 30
0.0
 10
-1088.650468641589
 20
-502.144708981487
 30
0.0
 10
-1088.691901881457
 20
-502.1447089814867
 30
0.0
 10
-1088.73155630588
 20
-502.1447089814869
 30
0.0
 10
-1088.76716780041
 20
-502.1447089814868
 30
0.0
 10
-1088.800515180495
 20
-502.1447089814871
 30
0.0
 10
-1088.828936222495
 20
-502.1447089814868
 30
0.0
 10
-1088.854695040858
 20
-502.1447089814868
 30
0.0
 10
-1088.876435326382
 20
-502.144708981487
 30
0.0
 10
-1088.896819302704
 20
-502.1447089814869
 30
0.0
 10
-1088.909504414118
 20
-502.1447089814869
 30
0.0
 10
-1088.915846969824
 20
-502.1447089814869
 30
0.0
 11
-1088.415923122244
 21
-502.1447089814869
 31
0.0
 11
-1088.511589854257
 21
-502.1447089814868
 31
0.0
 11
-1088.607256586275
 21
-502.1447089814869
 31
0.0
 11
-1088.650468641589
 21
-502.1447089814869
 31
0.0
 11
-1088.693680696902
 21
-502.1447089814868
 31
0.0
 11
-1088.73155630588
 21
-502.1447089814869
 31
0.0
 11
-1088.769431914857
 21
-502.1447089814868
 31
0.0
 11
-1088.800515180494
 21
-502.1447089814869
 31
0.0
 11
-1088.831598446132
 21
-502.1447089814868
 31
0.0
 11
-1088.854695040858
 21
-502.1447089814868
 31
0.0
 11
-1088.877791635583
 21
-502.1447089814869
 31
0.0
 11
-1088.896819302706
 21
-502.1447089814869
 31
0.0
 11
-1088.915846969824
 21
-502.1447089814869
 31
0.0
  0
SPLINE
  5
394
330
1F
100
AcDbEntity
  8
0
  6
Continuous
 62
     7
100
AcDbSpline
210
0.0
220
0.0
230
1.0
 70
    24
 71
     3
 72
    15
 73
    11
 74
     9
 42
0.0000000001
 43
0.0000000001
 44
0.00000001
 40
0.0
 40
0.0
 40
0.0
 40
0.0
 40
0.0765334143752625
 40
0.1530668287498429
 40
0.187636452985771
 40
0.2222060772216992
 40
0.2525065420975352
 40
0.2828070069733712
 40
0.3413730425143058
 40
0.3999390780600152
 40
0.3999390780600152
 40
0.3999390780600152
 40
0.3999390780600152
 10
-1089.315786047884
 20
-502.1447089814869
 30
0.0
 10
-1089.290274909759
 20
-502.1447089814869
 30
0.0
 10
-1089.239252633509
 20
-502.144708981487
 30
0.0
 10
-1089.176707149181
 20
-502.1447089814869
 30
0.0
 10
-1089.128149594898
 20
-502.1447089814867
 30
0.0
 10
-1089.095003023782
 20
-502.144708981487
 30
0.0
 10
-1089.063279505787
 20
-502.1447089814868
 30
0.0
 10
-1089.023557184023
 20
-502.144708981487
 30
0.0
 10
-1088.974413005368
 20
-502.1447089814869
 30
0.0
 10
-1088.935368981673
 20
-502.144708981487
 30
0.0
 10
-1088.915846969824
 20
-502.1447089814869
 30
0.0
 11
-1089.315786047884
 21
-502.1447089814869
 31
0.0
 11
-1089.239252633509
 21
-502.1447089814869
 31
0.0
 11
-1089.162719219134
 21
-502.1447089814868
 31
0.0
 11
-1089.128149594898
 21
-502.1447089814868
 31
0.0
 11
-1089.093579970662
 21
-502.1447089814869
 31
0.0
 11
-1089.063279505787
 21
-502.1447089814869
 31
0.0
 11
-1089.032979040911
 21
-502.1447089814869
 31
0.0
 11
-1088.97441300537
 21
-502.1447089814869
 31
0.0
 11
-1088.915846969824
 21
-502.1447089814869
 31
0.0
  0
SPLINE
  5
395
330
1F
100
AcDbEntity
  8
0
  6
Continuous
 62
     7
100
AcDbSpline
210
0.0
220
0.0
230
1.0
 70
     8
 71
     3
 72
     9
 73
     5
 74
     3
 42
0.0000000001
 43
0.0000000001
 44
0.00000001
 40
0.0
 40
0.0
 40
0.0
 40
0.0
 40
0.100049047592815
 40
0.2000957841858884
 40
0.2000957841858884
 40
0.2000957841858884
 40
0.2000957841858884
 10
-1078.118168969824
 20
-502.1481994627768
 30
0.0
 10
-1078.151522971224
 20
-502.1480454958126
 30
0.0
 10
-1078.218230203591
 20
-502.1477375654408
 30
0.0
 10
-1078.284856305058
 20
-502.1444341975007
 30
0.0
 10
-1078.318168971044
 20
-502.1427825326068
 30
0.0
 11
-1078.118168969824
 21
-502.1481994627768
 31
0.0
 11
-1078.21821069083
 21
-502.1469886851943
 31
0.0
 11
-1078.318168971044
 21
-502.1427825326068
 31
0.0
  0
SPLINE
  5
396
330
1F
100
AcDbEntity
  8
0
  6
Continuous
 62
     7
100
AcDbSpline
210
0.0
220
0.0
230
1.0
 70
     8
 71
     3
 72
     9
 73
     5
 74
     3
 42
0.0000000001
 43
0.0000000001
 44
0.00000001
 40
0.0
 40
0.0
 40
0.0
 40
0.0
 40
0.1000490470290154
 40
0.2000957830668282
 40
0.2000957830668282
 40
0.2000957830668282
 40
0.2000957830668282
 10
-1082.518168969824
 20
-502.1481994627768
 30
0.0
 10
-1082.484814968612
 20
-502.1480454958202
 30
0.0
 10
-1082.418107736618
 20
-502.1477375654632
 30
0.0
 10
-1082.351481635524
 20
-502.1444341975082
 30
0.0
 10
-1082.318168969724
 20
-502.1427825326068
 30
0.0
 11
-1082.518168969824
 21
-502.1481994627768
 31
0.0
 11
-1082.418127249382
 21
-502.1469886852094
 31
0.0
 11
-1082.318168969724
 21
-502.1427825326068
 31
0.0
  0
SPLINE
  5
397
330
1F
100
AcDbEntity
  8
0
  6
Continuous
 62
     7
100
AcDbSpline
210
0.0
220
0.0
230
1.0
 70
     8
 71
     3
 72
     9
 73
     5
 74
     3
 42
0.0000000001
 43
0.0000000001
 44
0.00000001
 40
0.0
 40
0.0
 40
0.0
 40
0.0
 40
0.1000040912721574
 40
0.2000079882292901
 40
0.2000079882292901
 40
0.2000079882292901
 40
0.2000079882292901
 10
-1082.518168969824
 20
-502.1412185001968
 30
0.0
 10
-1082.48483391202
 20
-502.1412627999703
 30
0.0
 10
-1082.418163861185
 20
-502.1413513994312
 30
0.0
 10
-1082.351500578622
 20
-502.1423054885238
 30
0.0
 10
-1082.318168969724
 20
-502.1427825326068
 30
0.0
 11
-1082.518168969824
 21
-502.1412185001968
 31
0.0
 11
-1082.418165488484
 21
-502.1415677723456
 31
0.0
 11
-1082.318168969724
 21
-502.1427825326068
 31
0.0
  0
SPLINE
  5
398
330
1F
100
AcDbEntity
  8
0
  6
Continuous
 62
     7
100
AcDbSpline
210
0.0
220
0.0
230
1.0
 70
     8
 71
     3
 72
     9
 73
     5
 74
     3
 42
0.0000000001
 43
0.0000000001
 44
0.00000001
 40
0.0
 40
0.0
 40
0.0
 40
0.0
 40
0.1000040918357829
 40
0.2000079893492428
 40
0.2000079893492428
 40
0.2000079893492428
 40
0.2000079893492428
 10
-1078.118168969824
 20
-502.1412185002068
 30
0.0
 10
-1078.151504027816
 20
-502.1412627999767
 30
0.0
 10
-1078.218174079024
 20
-502.1413513994305
 30
0.0
 10
-1078.28483736196
 20
-502.1423054885238
 30
0.0
 10
-1078.318168971044
 20
-502.1427825326068
 30
0.0
 11
-1078.118168969824
 21
-502.1412185002068
 31
0.0
 11
-1078.218172451728
 21
-502.1415677723469
 31
0.0
 11
-1078.318168971044
 21
-502.1427825326068
 31
0.0
  0
SPLINE
  5
399
330
1F
100
AcDbEntity
  8
0
  6
Continuous
 62
     7
100
AcDbSpline
210
0.0
220
0.0
230
1.0
 70
     8
 71
     3
 72
    15
 73
    11
 74
     9
 42
0.0000000001
 43
0.0000000001
 44
0.00000001
 40
0.0
 40
0.0
 40
0.0
 40
0.0
 40
0.0609684090047722
 40
0.1219368180113634
 40
0.1519543972592601
 40
0.1819719765060199
 40
0.216003623739198
 40
0.2500352709726035
 40
0.3250203131722316
 40
0.4000053553700407
 40
0.4000053553700407
 40
0.4000053553700407
 40
0.4000053553700407
 10
-1075.368168969824
 20
-502.1447089814869
 30
0.0
 10
-1075.388491772826
 20
-502.1447089815173
 30
0.0
 10
-1075.42913737883
 20
-502.1447089815781
 30
0.0
 10
-1075.479788844582
 20
-502.1447089808086
 30
0.0
 10
-1075.520123367083
 20
-502.144708982675
 30
0.0
 10
-1075.551478968992
 20
-502.144708982176
 30
0.0
 10
-1075.584172593563
 20
-502.144708976711
 30
0.0
 10
-1075.631855372452
 20
-502.1447089771511
 30
0.0
 10
-1075.693189282996
 20
-502.1447090550598
 30
0.0
 10
-1075.743179311128
 20
-502.1447090060111
 30
0.0
 10
-1075.768174325194
 20
-502.1447089814869
 30
0.0
 11
-1075.368168969824
 21
-502.1447089814869
 31
0.0
 11
-1075.429137378829
 21
-502.1447089814085
 31
0.0
 11
-1075.490105787835
 21
-502.144708981489
 31
0.0
 11
-1075.520123367083
 21
-502.1447089823639
 31
0.0
 11
-1075.55014094633
 21
-502.1447089814881
 31
0.0
 11
-1075.584172593563
 21
-502.1447089777116
 31
0.0
 11
-1075.618204240797
 21
-502.1447089814906
 31
0.0
 11
-1075.693189282996
 21
-502.1447090269228
 31
0.0
 11
-1075.768174325194
 21
-502.1447089814869
 31
0.0
  0
SPLINE
  5
39A
330
1F
100
AcDbEntity
  8
0
  6
DASHED
 62
     7
100
AcDbSpline
210
0.0
220
0.0
230
1.0
 70
     8
 71
     3
 72
    11
 73
     7
 74
     5
 42
0.0000000001
 43
0.0000000001
 44
0.00000001
 40
0.0
 40
0.0
 40
0.0
 40
0.0
 40
0.3940486448618783
 40
0.7880415356060437
 40
1.139234369269595
 40
1.489974138827669
 40
1.489974138827669
 40
1.489974138827669
 40
1.489974138827669
 10
-843.5962467554666
 20
-499.2208419172124
 30
0.0
 10
-843.4673917906165
 20
-499.2509643651391
 30
0.0
 10
-843.2097000926626
 20
-499.3112049989539
 30
0.0
 10
-842.8882645177405
 20
-499.5247191773784
 30
0.0
 10
-842.6471866998368
 20
-499.817072136563
 30
0.0
 10
-842.6132194288376
 20
-500.0528010197929
 30
0.0
 10
-842.5962467554666
 20
-500.1705893855174
 30
0.0
 11
-843.5962467554666
 21
-499.2208419172124
 31
0.0
 11
-843.2185194526277
 21
-499.3330756875648
 31
0.0
 11
-842.8891400005722
 21
-499.549269060545
 31
0.0
 11
-842.6772362642573
 21
-499.8293283631086
 31
0.0
 11
-842.5962467554666
 21
-500.1705893855174
 31
0.0
  0
SPLINE
  5
39B
330
1F
100
AcDbEntity
  8
0
  6
DASHED
 62
     7
100
AcDbSpline
210
0.0
220
0.0
230
1.0
 70
     8
 71
     3
 72
    39
 73
    35
 74
    33
 42
0.0000000001
 43
0.0000000001
 44
0.00000001
 40
0.0
 40
0.0
 40
0.0
 40
0.0
 40
0.02390027031468
 40
0.0478015314274854
 40
0.0609854573289072
 40
0.0741691098793062
 40
0.0844102741897331
 40
0.0946515330258761
 40
0.111361269541314
 40
0.1280709577402866
 40
0.1418675328749131
 40
0.1556644079643883
 40
0.1878600855914799
 40
0.2200570084121905
 40
0.2493209238959919
 40
0.2785845199344762
 40
0.3125424601051996
 40
0.3465017519506924
 40
0.384247959461428
 40
0.4219938958574212
 40
0.4549694709736083
 40
0.4879440709511765
 40
0.5202736391226438
 40
0.5526042763403385
 40
0.5917596086853983
 40
0.6309150065555424
 40
0.6660315479984467
 40
0.7011486720000445
 40
0.7439983714055359
 40
0.7868479232461776
 40
0.8237545845308656
 40
0.8606626636684774
 40
0.9936354691484173
 40
1.126647833366005
 40
1.126647833366005
 40
1.126647833366005
 40
1.126647833366005
 10
-842.5962467554666
 20
-503.7563758231454
 30
0.0
 10
-842.5961592595706
 20
-503.7643427453241
 30
0.0
 10
-842.595984264151
 20
-503.7802769199543
 30
0.0
 10
-842.5949779592826
 20
-503.800584824484
 30
0.0
 10
-842.5938906741444
 20
-503.8173057128261
 30
0.0
 10
-842.592942177472
 20
-503.8294721428865
 30
0.0
 10
-842.5919518135436
 20
-503.8406505114477
 30
0.0
 10
-842.590743399105
 20
-503.8529890288921
 30
0.0
 10
-842.5891512413947
 20
-503.8674558084268
 30
0.0
 10
-842.5871961073418
 20
-503.8830731561671
 30
0.0
 10
-842.5851614262496
 20
-503.8977004265675
 30
0.0
 10
-842.5821690199144
 20
-503.9174046023126
 30
0.0
 10
-842.5777135276265
 20
-503.9430883950284
 30
0.0
 10
-842.571450078591
 20
-503.9736773897629
 30
0.0
 10
-842.5645095089365
 20
-504.0031158182884
 30
0.0
 10
-842.5565788311111
 20
-504.0329110492721
 30
0.0
 10
-842.5472661873589
 20
-504.0639438440477
 30
0.0
 10
-842.5359980038603
 20
-504.0973209362676
 30
0.0
 10
-842.5230772096803
 20
-504.1314498352347
 30
0.0
 10
-842.5089850752296
 20
-504.1647562477429
 30
0.0
 10
-842.4943736712725
 20
-504.1960885285287
 30
0.0
 10
-842.4795347857072
 20
-504.2253020060107
 30
0.0
 10
-842.463835138695
 20
-504.2538165430794
 30
0.0
 10
-842.4461532731674
 20
-504.2835703135746
 30
0.0
 10
-842.4261675038555
 20
-504.3145779197812
 30
0.0
 10
-842.4044363461805
 20
-504.3455300448211
 30
0.0
 10
-842.382377581368
 20
-504.3745733387694
 30
0.0
 10
-842.3585303227383
 20
-504.4037750554039
 30
0.0
 10
-842.3318536370507
 20
-504.4339618344986
 30
0.0
 10
-842.3035006798311
 20
-504.4634112796052
 30
0.0
 10
-842.2754415919561
 20
-504.4903545025892
 30
0.0
 10
-842.2239680916776
 20
-504.5361851727174
 30
0.0
 10
-842.143365884859
 20
-504.5978359040865
 30
0.0
 10
-842.0647093857763
 20
-504.6390227796851
 30
0.0
 10
-842.0253752871267
 20
-504.6596192802504
 30
0.0
 11
-842.5962467554666
 21
-503.7563758231454
 31
0.0
 11
-842.5958308328935
 21
-503.7802724741561
 31
0.0
 11
-842.5947221119353
 21
-503.8041480059956
 31
0.0
 11
-842.593862456878
 21
-503.8173038752317
 31
0.0
 11
-842.5928399098138
 21
-503.8304478126962
 31
0.0
 11
-842.5919360765454
 21
-503.8406490151673
 31
0.0
 11
-842.5909380958541
 21
-503.8508415328685
 31
0.0
 11
-842.5891099525586
 21
-503.8674509635181
 31
0.0
 11
-842.5870341281146
 21
-503.8840312117848
 31
0.0
 11
-842.5851329987156
 21
-503.8976961740041
 31
0.0
 11
-842.5830611696857
 21
-503.9113366023956
 31
0.0
 11
-842.5775543371071
 21
-503.9430578327126
 31
0.0
 11
-842.5710915889442
 21
-503.9745994675038
 31
0.0
 11
-842.5643741544469
 21
-504.0030819678017
 31
0.0
 11
-842.556844871066
 21
-504.0313603684791
 31
0.0
 11
-842.5470827061547
 21
-504.0638848490573
 31
0.0
 11
-842.5362183708709
 21
-504.0960593688127
 31
0.0
 11
-842.5228531606675
 21
-504.1313601809516
 31
0.0
 11
-842.5081439871677
 21
-504.1661221706726
 31
0.0
 11
-842.4942073310643
 21
-504.196007922644
 31
0.0
 11
-842.4792739987163
 21
-504.2254072394501
 31
0.0
 11
-842.4636814189925
 21
-504.2537281228351
 31
0.0
 11
-842.4471648209251
 21
-504.2815215049824
 31
0.0
 11
-842.4259531186322
 21
-504.3144335656424
 31
0.0
 11
-842.4034547384473
 21
-504.3464799082017
 31
0.0
 11
-842.3822156741608
 21
-504.3744454876011
 31
0.0
 11
-842.3600040555802
 21
-504.4016457890365
 31
0.0
 11
-842.3316297312582
 21
-504.4337548914594
 31
0.0
 11
-842.3019132260251
 21
-504.4646258067306
 31
0.0
 11
-842.2752867735422
 21
-504.4901822868356
 31
0.0
 11
-842.2477426746167
 21
-504.5147491124345
 31
0.0
 11
-842.1414080438635
 21
-504.5945909141413
 31
0.0
 11
-842.0253752871267
 21
-504.6596192802504
 31
0.0
  0
SPLINE
  5
39C
330
1F
100
AcDbEntity
  8
0
  6
Continuous
 62
     7
100
AcDbSpline
210
0.0
220
0.0
230
1.0
 70
     8
 71
     3
 72
    15
 73
    11
 74
     9
 42
0.0000000001
 43
0.0000000001
 44
0.00000001
 40
0.0
 40
0.0
 40
0.0
 40
0.0
 40
0.060968409006521
 40
0.121936818010636
 40
0.1519543972582421
 40
0.1819719765054392
 40
0.2160036237384224
 40
0.2500352709713998
 40
0.3250203131704865
 40
0.4000053553679929
 40
0.4000053553679929
 40
0.4000053553679929
 40
0.4000053553679929
 10
-844.5399225467363
 20
-489.0349078418515
 30
0.0
 10
-844.5196257085123
 20
-489.035934817985
 30
0.0
 10
-844.4790320320658
 20
-489.0379887702524
 30
0.0
 10
-844.4284452795778
 20
-489.040548351402
 30
0.0
 10
-844.3881622890974
 20
-489.0425865818163
 30
0.0
 10
-844.3568467476957
 20
-489.0441710810505
 30
0.0
 10
-844.3241948933659
 20
-489.0458231998072
 30
0.0
 10
-844.2765730348335
 20
-489.048232762522
 30
0.0
 10
-844.215317481664
 20
-489.0513320831586
 30
0.0
 10
-844.1653913241721
 20
-489.0538582879673
 30
0.0
 10
-844.1404282454262
 20
-489.0551213903716
 30
0.0
 11
-844.5399225467363
 21
-489.0349078418515
 31
0.0
 11
-844.4790320320732
 21
-489.0379887704203
 31
0.0
 11
-844.4181415174041
 21
-489.0410696988246
 31
0.0
 11
-844.388162289113
 21
-489.042586582127
 31
0.0
 11
-844.3581830609107
 21
-489.0441034671784
 31
0.0
 11
-844.324194893315
 21
-489.0458231988081
 31
0.0
 11
-844.2902067253376
 21
-489.0475429228927
 31
0.0
 11
-844.2153174830853
 21
-489.0513321112587
 31
0.0
 11
-844.1404282454262
 21
-489.0551213903716
 31
0.0
  0
SPLINE
  5
39D
330
1F
100
AcDbEntity
  8
0
  6
Continuous
 62
     7
100
AcDbSpline
210
0.0
220
0.0
230
1.0
 70
     8
 71
     3
 72
     9
 73
     5
 74
     3
 42
0.0000000001
 43
0.0000000001
 44
0.00000001
 40
0.0
 40
0.0
 40
0.0
 40
0.0
 40
0.1000040912713754
 40
0.2000079882316513
 40
0.2000079882316513
 40
0.2000079882316513
 40
0.2000079882316513
 10
-837.3992339008962
 20
-489.3997062061214
 30
0.0
 10
-837.4325241306195
 20
-489.3979774359785
 30
0.0
 10
-837.4991045253822
 20
-489.3945198990521
 30
0.0
 10
-837.5656344245631
 20
-489.3901983202788
 30
0.0
 10
-837.5988993418362
 20
-489.3880375329916
 30
0.0
 11
-837.3992339008962
 21
-489.3997062061214
 31
0.0
 11
-837.4990919661462
 21
-489.3943038848116
 31
0.0
 11
-837.5988993418362
 21
-489.3880375329916
 31
0.0
  0
SPLINE
  5
39E
330
1F
100
AcDbEntity
  8
0
  6
Continuous
 62
     7
100
AcDbSpline
210
0.0
220
0.0
230
1.0
 70
     8
 71
     3
 72
     9
 73
     5
 74
     3
 42
0.0000000001
 43
0.0000000001
 44
0.00000001
 40
0.0
 40
0.0
 40
0.0
 40
0.0
 40
0.1000490470385579
 40
0.2000957830777406
 40
0.2000957830777406
 40
0.2000957830777406
 40
0.2000957830777406
 10
-837.3988811305462
 20
-489.3927341625515
 30
0.0
 10
-837.43220029853
 20
-489.3912024485564
 30
0.0
 10
-837.4988378648691
 20
-489.3881390559466
 30
0.0
 10
-837.5655457729938
 20
-489.3880713737159
 30
0.0
 10
-837.5988993418362
 20
-489.3880375329916
 30
0.0
 11
-837.3988811305462
 21
-489.3927341625515
 31
0.0
 11
-837.4988562203499
 21
-489.3888879654603
 31
0.0
 11
-837.5988993418362
 21
-489.3880375329916
 31
0.0
  0
SPLINE
  5
39F
330
1F
100
AcDbEntity
  8
0
  6
Continuous
 62
     7
100
AcDbSpline
210
0.0
220
0.0
230
1.0
 70
     8
 71
     3
 72
     9
 73
     5
 74
     3
 42
0.0000000001
 43
0.0000000001
 44
0.00000001
 40
0.0
 40
0.0
 40
0.0
 40
0.0
 40
0.1000490475931015
 40
0.2000957841920081
 40
0.2000957841920081
 40
0.2000957841920081
 40
0.2000957841920081
 10
-841.7932596111762
 20
-489.1703881056415
 30
0.0
 10
-841.7599560038926
 20
-489.1722273601419
 30
0.0
 10
-841.6933495585927
 20
-489.1759058266585
 30
0.0
 10
-841.6269755095675
 20
-489.1825718039166
 30
0.0
 10
-841.5937888683463
 20
-489.1859047540515
 30
0.0
 11
-841.7932596111762
 21
-489.1703881056415
 31
0.0
 11
-841.6934068897364
 21
-489.1766527640803
 31
0.0
 11
-841.5937888683463
 21
-489.1859047540515
 31
0.0
  0
SPLINE
  5
3A0
330
1F
100
AcDbEntity
  8
0
  6
DASHED
 62
     7
100
AcDbSpline
210
0.0
220
0.0
230
1.0
 70
    24
 71
     3
 72
    15
 73
    11
 74
     9
 42
0.0000000001
 43
0.0000000001
 44
0.00000001
 40
0.0
 40
0.0
 40
0.0
 40
0.0
 40
0.0765334143757864
 40
0.153066828751636
 40
0.1876364529889234
 40
0.2222060772260124
 40
0.2525065421014779
 40
0.282807006977869
 40
0.3413730425216665
 40
0.399939078060957
 40
0.399939078060957
 40
0.399939078060957
 40
0.399939078060957
 10
-830.6101251958662
 20
-489.7397254920015
 30
0.0
 10
-830.6356037405012
 20
-489.738436332691
 30
0.0
 10
-830.6865608297715
 20
-489.7358580140702
 30
0.0
 10
-830.7490264048619
 20
-489.7326973909292
 30
0.0
 10
-830.797521921138
 20
-489.7302436225833
 30
0.0
 10
-830.8306261435973
 20
-489.7285686204503
 30
0.0
 10
-830.8623091310549
 20
-489.7269655297353
 30
0.0
 10
-830.901980702865
 20
-489.7249582339117
 30
0.0
 10
-830.9510620940289
 20
-489.7224748215588
 30
0.0
 10
-830.9900562343744
 20
-489.7205018023072
 30
0.0
 10
-831.0095533045462
 20
-489.7195152926815
 30
0.0
 11
-830.6101251958662
 21
-489.7397254920015
 31
0.0
 11
-830.6865608297712
 21
-489.7358580140697
 31
0.0
 11
-830.7629964636762
 21
-489.7319905361365
 31
0.0
 11
-830.797521921138
 21
-489.7302436225832
 31
0.0
 11
-830.8320473785996
 21
-489.7284967090293
 31
0.0
 11
-830.8623091310544
 21
-489.7269655297354
 31
0.0
 11
-830.8925708835102
 21
-489.7254343504412
 31
0.0
 11
-830.9510620940304
 21
-489.7224748215594
 31
0.0
 11
-831.0095533045462
 21
-489.7195152926815
 31
0.0
  0
SPLINE
  5
3A1
330
1F
100
AcDbEntity
  8
0
  6
Continuous
 62
     7
100
AcDbSpline
210
0.0
220
0.0
230
1.0
 70
    24
 71
     3
 72
    19
 73
    15
 74
    13
 42
0.0000000001
 43
0.0000000001
 44
0.00000001
 40
0.0
 40
0.0
 40
0.0
 40
0.0
 40
0.0956667320098472
 40
0.1913334640276323
 40
0.2345455193406403
 40
0.2777575746527456
 40
0.315633183629749
 40
0.3535087926060034
 40
0.3845920582428838
 40
0.4156753238799281
 40
0.4387719186022142
 40
0.4618685133256702
 40
0.4808961804507922
 40
0.4999238475761301
 40
0.4999238475761301
 40
0.4999238475761301
 40
0.4999238475761301
 10
-831.5088384403962
 20
-489.6942525435316
 30
0.0
 10
-831.4769902715736
 20
-489.6958639920656
 30
0.0
 10
-831.4132939339263
 20
-489.6990868891339
 30
0.0
 10
-831.3352119806751
 20
-489.703037667267
 30
0.0
 10
-831.2745925806425
 20
-489.7061048779386
 30
0.0
 10
-831.2332122766297
 20
-489.7081986319182
 30
0.0
 10
-831.1936085154159
 20
-489.71020249667
 30
0.0
 10
-831.158042518774
 20
-489.7120020592587
 30
0.0
 10
-831.1247377439049
 20
-489.7136872089139
 30
0.0
 10
-831.0963530131423
 20
-489.7151234149656
 30
0.0
 10
-831.0706271047125
 20
-489.7164250903487
 30
0.0
 10
-831.0489145949696
 20
-489.7175236964299
 30
0.0
 10
-831.028556661581
 20
-489.7185537638783
 30
0.0
 10
-831.0158877568911
 20
-489.7191947830804
 30
0.0
 10
-831.0095533045462
 20
-489.7195152926815
 30
0.0
 11
-831.5088384403962
 21
-489.6942525435316
 31
0.0
 11
-831.413293933929
 21
-489.6990868891329
 31
0.0
 11
-831.3177494274538
 21
-489.7039212347318
 31
0.0
 11
-831.2745925806422
 21
-489.7061048779386
 31
0.0
 11
-831.2314357338315
 21
-489.7082885211455
 31
0.0
 11
-831.1936085154158
 21
-489.7102024966701
 31
0.0
 11
-831.1557812970009
 21
-489.7121164721956
 31
0.0
 11
-831.124737743905
 21
-489.7136872089137
 31
0.0
 11
-831.093694190809
 21
-489.7152579456306
 31
0.0
 11
-831.0706271047127
 21
-489.7164250903488
 31
0.0
 11
-831.0475600186153
 21
-489.7175922350676
 31
0.0
 11
-831.028556661581
 21
-489.7185537638769
 31
0.0
 11
-831.0095533045462
 21
-489.7195152926815
 31
0.0
  0
SPLINE
  5
3A2
330
1F
100
AcDbEntity
  8
0
  6
Continuous
 62
     7
100
AcDbSpline
210
0.0
220
0.0
230
1.0
 70
     8
 71
     3
 72
    11
 73
     7
 74
     5
 42
0.0000000001
 43
0.0000000001
 44
0.00000001
 40
0.0
 40
0.0
 40
0.0
 40
0.0
 40
0.0473976575613452
 40
0.0948155646057328
 40
0.1343158279254011
 40
0.1738935502850339
 40
0.1738935502850339
 40
0.1738935502850339
 40
0.1738935502850339
 10
-778.3461689233363
 20
-512.1884083797015
 30
0.0
 10
-778.3367255988123
 20
-512.2011497326116
 30
0.0
 10
-778.3178349153361
 20
-512.2266378818614
 30
0.0
 10
-778.2822868025097
 20
-512.2546313119187
 30
0.0
 10
-778.2438555488039
 20
-512.2733532724693
 30
0.0
 10
-778.2175496502334
 20
-512.2767268051618
 30
0.0
 10
-778.2043838172763
 20
-512.2784152237416
 30
0.0
 11
-778.3461689233363
 21
-512.1884083797015
 31
0.0
 11
-778.3162887959936
 21
-512.2252012585272
 31
0.0
 11
-778.2791784620367
 21
-512.254718728305
 31
0.0
 11
-778.2433099784264
 21
-512.2712632949605
 31
0.0
 11
-778.2043838172763
 21
-512.2784152237416
 31
0.0
  0
SPLINE
  5
3A3
330
1F
100
AcDbEntity
  8
0
  6
Continuous
 62
     7
100
AcDbSpline
210
0.0
220
0.0
230
1.0
 70
     8
 71
     3
 72
    11
 73
     7
 74
     5
 42
0.0000000001
 43
0.0000000001
 44
0.00000001
 40
0.0
 40
0.0
 40
0.0
 40
0.0
 40
0.0540192463188568
 40
0.1080072872132672
 40
0.161924857308159
 40
0.2158338725556195
 40
0.2158338725556195
 40
0.2158338725556195
 40
0.2158338725556195
 10
-778.4013181213263
 20
-511.9828026585415
 30
0.0
 10
-778.4009586782095
 20
-512.0008360859352
 30
0.0
 10
-778.4002399996158
 20
-512.0368925233105
 30
0.0
 10
-778.3900762316541
 20
-512.0900891623428
 30
0.0
 10
-778.3735128384801
 20
-512.1417689920829
 30
0.0
 10
-778.3552830796078
 20
-512.1728627394771
 30
0.0
 10
-778.3461689233363
 20
-512.1884083797015
 30
0.0
 11
-778.4013181213263
 21
-511.9828026585415
 31
0.0
 11
-778.3987237241832
 21
-512.0367595679816
 31
0.0
 11
-778.3890023664919
 21
-512.0898651586878
 31
0.0
 11
-778.371713528068
 21
-512.1409357023591
 31
0.0
 11
-778.3461689233363
 21
-512.1884083797015
 31
0.0
  0
SPLINE
  5
3A4
330
1F
100
AcDbEntity
  8
0
  6
Continuous
 62
     7
100
AcDbSpline
210
0.0
220
0.0
230
1.0
 70
     8
 71
     3
 72
    11
 73
     7
 74
     5
 42
0.0000000001
 43
0.0000000001
 44
0.00000001
 40
0.0
 40
0.0
 40
0.0
 40
0.0
 40
0.0394038146640312
 40
0.0787331822242927
 40
0.1261377844635293
 40
0.1735491819920787
 40
0.1735491819920787
 40
0.1735491819920787
 40
0.1735491819920787
 10
-786.8207003344262
 20
-511.8424482238215
 30
0.0
 10
-786.8074900537152
 20
-511.8420801502587
 30
0.0
 10
-786.7810944509722
 20
-511.8413446985484
 30
0.0
 10
-786.7411045306524
 20
-511.8265944847913
 30
0.0
 10
-786.7029541009554
 20
-511.8023763543514
 30
0.0
 10
-786.6815886724563
 20
-511.7789224853167
 30
0.0
 10
-786.6709051925961
 20
-511.7671947103515
 30
0.0
 11
-786.8207003344262
 21
-511.8424482238215
 31
0.0
 11
-786.7814288047824
 21
-511.8392221473321
 31
0.0
 11
-786.7442467026306
 21
-511.8264045643985
 31
0.0
 11
-786.7043558027004
 21
-511.8007937772918
 31
0.0
 11
-786.6709051925961
 21
-511.7671947103515
 31
0.0
  0
SPLINE
  5
3A5
330
1F
100
AcDbEntity
  8
0
  6
Continuous
 62
     7
100
AcDbSpline
210
0.0
220
0.0
230
1.0
 70
     8
 71
     3
 72
    11
 73
     7
 74
     5
 42
0.0000000001
 43
0.0000000001
 44
0.00000001
 40
0.0
 40
0.0
 40
0.0
 40
0.0
 40
0.0538839473521811
 40
0.1078271480181612
 40
0.1618132873470236
 40
0.2158343926522741
 40
0.2158343926522741
 40
0.2158343926522741
 40
0.2158343926522741
 10
-786.6709051925961
 20
-511.7671947103515
 30
0.0
 10
-786.6602716287762
 20
-511.7526563864877
 30
0.0
 10
-786.6389928079714
 20
-511.7235637517378
 30
0.0
 10
-786.6173018330161
 20
-511.67381772266
 30
0.0
 10
-786.6018170245816
 20
-511.6219111280479
 30
0.0
 10
-786.5974623908704
 20
-511.5861113524181
 30
0.0
 10
-786.5952843691362
 20
-511.5682056697415
 30
0.0
 11
-786.6709051925961
 21
-511.7671947103515
 31
0.0
 11
-786.6407087904365
 21
-511.7225667249738
 31
0.0
 11
-786.6183438278064
 21
-511.6734782604975
 31
0.0
 11
-786.6033125070858
 21
-511.6216269091455
 31
0.0
 11
-786.5952843691362
 21
-511.5682056697415
 31
0.0
  0
SPLINE
  5
3A6
330
1F
100
AcDbEntity
  8
0
  6
Continuous
 62
     7
100
AcDbSpline
210
0.0
220
0.0
230
1.0
 70
     8
 71
     3
 72
    11
 73
     7
 74
     5
 42
0.0000000001
 43
0.0000000001
 44
0.00000001
 40
0.0
 40
0.0
 40
0.0
 40
0.0
 40
0.047436963670106
 40
0.0948200554444124
 40
0.1343285507074808
 40
0.1739115061554866
 40
0.1739115061554866
 40
0.1739115061554866
 40
0.1739115061554866
 10
-786.6788962349863
 20
-511.9324560549414
 30
0.0
 10
-786.6883475417523
 20
-511.9197039486129
 30
0.0
 10
-786.7072394218862
 20
-511.8942142179145
 30
0.0
 10
-786.74279695975
 20
-511.8662266783502
 30
0.0
 10
-786.781221973275
 20
-511.847508575865
 30
0.0
 10
-786.8075326240394
 20
-511.8441360661791
 30
0.0
 10
-786.8207003344262
 20
-511.8424482238215
 30
0.0
 11
-786.6788962349863
 21
-511.9324560549414
 31
0.0
 11
-786.7088038022906
 21
-511.8956348254647
 31
0.0
 11
-786.7458919701643
 21
-511.8661454173684
 31
0.0
 11
-786.7817686245746
 21
-511.8495989112033
 31
0.0
 11
-786.8207003344262
 21
-511.8424482238215
 31
0.0
  0
SPLINE
  5
3A7
330
1F
100
AcDbEntity
  8
0
  6
Continuous
 62
     7
100
AcDbSpline
210
0.0
220
0.0
230
1.0
 70
     8
 71
     3
 72
    11
 73
     7
 74
     5
 42
0.0000000001
 43
0.0000000001
 44
0.00000001
 40
0.0
 40
0.0
 40
0.0
 40
0.0
 40
0.0539908684672217
 40
0.1080057390339653
 40
0.1619497228654037
 40
0.2158307765583
 40
0.2158307765583
 40
0.2158307765583
 40
0.2158307765583
 10
-786.6237659865362
 20
-512.1380608982215
 30
0.0
 10
-786.6241200221605
 20
-512.1200366982032
 30
0.0
 10
-786.6248282507984
 20
-512.0839802853551
 30
0.0
 10
-786.634995883711
 20
-512.0307757417197
 30
0.0
 10
-786.6515513298848
 20
-511.9790840018786
 30
0.0
 10
-786.6697848138338
 20
-511.9479926552858
 30
0.0
 10
-786.6788962349863
 20
-511.9324560549414
 30
0.0
 11
-786.6237659865362
 21
-512.1380608982215
 31
0.0
 11
-786.6263455832134
 21
-512.084131689449
 31
0.0
 11
-786.6360681675378
 21
-512.0309990479149
 31
0.0
 11
-786.6533607450206
 21
-511.9799018840444
 31
0.0
 11
-786.6788962349863
 21
-511.9324560549414
 31
0.0
  0
SPLINE
  5
3A8
330
1F
100
AcDbEntity
  8
0
  6
Continuous
 62
     7
100
AcDbSpline
210
0.0
220
0.0
230
1.0
 70
     8
 71
     3
 72
    11
 73
     7
 74
     5
 42
0.0000000001
 43
0.0000000001
 44
0.00000001
 40
0.0
 40
0.0
 40
0.0
 40
0.0
 40
0.0539371246331565
 40
0.1078237473616936
 40
0.1618254497776461
 40
0.2158291562342321
 40
0.2158291562342321
 40
0.2158291562342321
 40
0.2158291562342321
 10
-778.3541984008061
 20
-512.3536677803716
 30
0.0
 10
-778.3648385222094
 20
-512.3682231891337
 30
0.0
 10
-778.386108802557
 20
-512.397320378274
 30
0.0
 10
-778.4078058580628
 20
-512.4470668759808
 30
0.0
 10
-778.4232796139606
 20
-512.4989574566814
 30
0.0
 10
-778.4276263169199
 20
-512.5347575344647
 30
0.0
 10
-778.4297997087263
 20
-512.5526579054915
 30
0.0
 11
-778.3541984008061
 21
-512.3536677803716
 31
0.0
 11
-778.3844137674868
 21
-512.3983471383576
 31
0.0
 11
-778.4067543200047
 21
-512.447384550833
 31
0.0
 11
-778.4217853450879
 21
-512.499252191504
 31
0.0
 11
-778.4297997087263
 21
-512.5526579054915
 31
0.0
  0
SPLINE
  5
3A9
330
1F
100
AcDbEntity
  8
0
  6
Continuous
 62
     7
100
AcDbSpline
210
0.0
220
0.0
230
1.0
 70
     8
 71
     3
 72
    11
 73
     7
 74
     5
 42
0.0000000001
 43
0.0000000001
 44
0.00000001
 40
0.0
 40
0.0
 40
0.0
 40
0.0
 40
0.0395418629340327
 40
0.079089696712238
 40
0.1265114300033998
 40
0.1739098348897442
 40
0.1739098348897442
 40
0.1739098348897442
 40
0.1739098348897442
 10
-778.2040327586562
 20
-512.2784329865515
 30
0.0
 10
-778.21728905795
 20
-512.2787863670718
 30
0.0
 10
-778.243803658246
 20
-512.279493181473
 30
0.0
 10
-778.2839413613094
 20
-512.2942194470165
 30
0.0
 10
-778.3221496885344
 20
-512.3184920794438
 30
0.0
 10
-778.3435172490549
 20
-512.3419444700437
 30
0.0
 10
-778.3541984008061
 20
-512.3536677803716
 30
0.0
 11
-778.2040327586562
 21
-512.2784329865515
 31
0.0
 11
-778.2434461667756
 21
-512.281617666239
 31
0.0
 11
-778.2808514116382
 21
-512.2944581807659
 31
0.0
 11
-778.3207568571537
 21
-512.320078020862
 31
0.0
 11
-778.3541984008061
 21
-512.3536677803716
 31
0.0
  0
SPLINE
  5
3AA
330
1F
100
AcDbEntity
  8
0
  6
DASHED
 62
     7
100
AcDbSpline
210
0.0
220
0.0
230
1.0
 70
     8
 71
     3
 72
    11
 73
     7
 74
     5
 42
0.0000000001
 43
0.0000000001
 44
0.00000001
 40
0.0
 40
0.0
 40
0.0
 40
0.0
 40
0.1139824513728032
 40
0.2279292360611198
 40
0.3295762762852671
 40
0.4311084015501251
 40
0.4311084015501251
 40
0.4311084015501251
 40
0.4311084015501251
 10
-841.3886425887965
 20
-494.2850469725117
 30
0.0
 10
-841.3921497104756
 20
-494.2468262030741
 30
0.0
 10
-841.3991628564072
 20
-494.170396624006
 30
0.0
 10
-841.4545656792119
 20
-494.0724096053458
 30
0.0
 10
-841.5375967349761
 20
-494.0000414893836
 30
0.0
 10
-841.6059103920218
 20
-493.9900432598549
 30
0.0
 10
-841.6400479019765
 20
-493.9850469725117
 30
0.0
 11
-841.3886425887965
 21
-494.2850469725117
 31
0.0
 11
-841.4069920244887
 21
-494.1725512062325
 31
0.0
 11
-841.4622775001989
 21
-494.0729149381556
 31
0.0
 11
-841.5414102379468
 21
-494.0091173629443
 31
0.0
 11
-841.6400479019765
 21
-493.9850469725117
 31
0.0
  0
SOLID
  5
3B1
330
1F
100
AcDbEntity
  8
1
 62
     1
100
AcDbTrace
 10
-1145.72554152567
 20
-548.171855453768
 30
0.0
 11
-1145.544807272613
 21
-547.2681841884835
 31
0.0
 12
-1142.203142034223
 22
-548.4064262941093
 32
0.0
 13
-1142.203142034223
 23
-548.4064262941093
 33
0.0
  0
LEADER
  5
3B2
330
1F
100
AcDbEntity
  8
1
  6
Continuous
 62
     1
100
AcDbLeader
  3
Standard
 71
     0
 76
     2
 10
-1142.203142034223
 20
-548.4064262941093
 30
0.0
 10
-1153.079927768222
 20
-546.2310691473095
 30
0.0
  0
SOLID
  5
3B3
330
1F
100
AcDbEntity
  8
1
 62
     1
100
AcDbTrace
 10
-918.5208208772453
 20
-524.7772332901332
 30
0.0
 11
-918.8065257811443
 21
-525.6533949954234
 31
0.0
 12
-921.99122776738
 22
-524.1302420433702
 32
0.0
 13
-921.99122776738
 23
-524.1302420433702
 33
0.0
  0
LEADER
  5
3B4
330
1F
100
AcDbEntity
  8
1
  6
Continuous
 62
     1
100
AcDbLeader
  3
Standard
 71
     0
 76
     2
 10
-921.99122776738
 20
-524.1302420433702
 30
0.0
 10
-915.7476512022599
 20
-526.1661909233002
 30
0.0
  0
MTEXT
  5
3B6
330
1F
100
AcDbEntity
  8
1
 62
     4
100
AcDbMText
 10
-1233.99522113548
 20
-577.6056223001549
 30
0.0
 40
2.0
 41
0.0
 71
     7
 72
     1
  1
Der Platzbedarf des Antriebs ist abh\U+00e4ngig von der Montageart / Required space depends on mounting
  7
CONVERTER_11
 73
     1
 44
1.02040816326531
  0
MTEXT
  5
3B7
330
1F
100
AcDbEntity
  8
1
 62
     4
100
AcDbMText
 10
-926.99522113548
 20
-577.6056223001531
 30
0.0
 40
2.0
 41
0.0
 71
     7
 72
     1
  1
Der Platzbedarf des Antriebs ist abh\U+00e4ngig von der Montageart / Required space depends on mounting
  7
CONVERTER_11
 73
     1
 44
1.02040816326531
  0
MTEXT
  5
3B9
330
1F
100
AcDbEntity
  8
1
 62
     4
100
AcDbMText
 10
-1234.391933305098
 20
-440.5575952834444
 30
0.0
 40
3.0
 41
0.0
 71
     7
 72
     1
  1
EW-RM: Rahmenmontage / frame mounting\P 
  7
CONVERTER_12
 73
     1
 44
1.02040816326531
  0
MTEXT
  5
3BA
330
1F
100
AcDbEntity
  8
1
 62
     4
100
AcDbMText
 10
-926.588002181828
 20
-440.8388695472806
 30
0.0
 40
3.0
 41
0.0
 71
     7
 72
     1
  1
AW-RM: Rahmenmontage / frame mounting\P 
  7
CONVERTER_12
 73
     1
 44
1.02040816326531
  0
MTEXT
  5
3BB
330
1F
100
AcDbEntity
  8
1
 62
     4
100
AcDbMText
 10
-927.3919333050981
 20
-420.6747434257377
 30
0.0
 40
3.0
 41
0.0
 71
     7
 72
     1
  1
Ausw\U+00e4rts / outward 
  7
CONVERTER_12
 73
     1
 44
1.02040816326531
  0
MTEXT
  5
3BC
330
1F
100
AcDbEntity
  8
1
 62
     4
100
AcDbMText
 10
-1234.391933305098
 20
-420.6747434257395
 30
0.0
 40
3.0
 41
0.0
 71
     7
 72
     1
  1
Einw\U+00e4rts / inward 
  7
CONVERTER_12
 73
     1
 44
1.02040816326531
  0
TEXT
  5
3BD
330
1F
100
AcDbEntity
  8
1
 62
     4
100
AcDbText
 10
-1234.99522113548
 20
-413.2405003983737
 30
0.0
 40
6.0
  1
GEZE ECchain
 41
0.9
  7
CONVERTER_12
100
AcDbText
  0
TEXT
  5
3BE
330
1F
100
AcDbEntity
  8
1
 62
     1
100
AcDbText
 10
-1234.99522113548
 20
-404.4727704424481
 30
0.0
 40
4.0
  1
Skizze zum Kettenantrieb / sketch of the chain drive:
 41
0.9
  7
CONVERTER_12
100
AcDbText
  0
TEXT
  5
3BF
330
1F
100
AcDbEntity
  8
1
 62
     1
100
AcDbText
 10
-927.99522113548
 20
-404.4727704424482
 30
0.0
 40
4.0
  1
Skizze zum Kettenantrieb / sketch of the chain drive:
 41
0.9
  7
CONVERTER_12
100
AcDbText
  0
TEXT
  5
3C0
330
1F
100
AcDbEntity
  8
1
 62
     4
100
AcDbText
 10
-927.99522113548
 20
-413.2405003983738
 30
0.0
 40
6.0
  1
GEZE ECchain
 41
0.9
  7
CONVERTER_12
100
AcDbText
  0
MTEXT
  5
3C1
330
1F
100
AcDbEntity
  8
0
 62
     7
100
AcDbMText
 10
-1237.509100757043
 20
-593.2850785498886
 30
0.0
 40
1.0
 41
0.0
 71
     7
 72
     1
  3
This drawing shows the actual state of product development at the date of the drawing or the revision date. No claims or\Pdamages in any form can be made against GEZE as a result of the interpretation of this drawing. This drawing remains the proper
  3
ty\Pof GEZE and is made available to third parties only for the duration of contractural obligations. All rights connected with this drawing remain\Pin possession of GEZE. This drawing may not be copied or handed over to third parties without the ex
  1
press consent of GEZE.
  7
CONVERTER_12
 73
     1
 44
0.7202881152461
  0
MTEXT
  5
3C2
330
1F
100
AcDbEntity
  8
0
 62
     7
100
AcDbMText
 10
-1237.452974282669
 20
-587.7561941060994
 30
0.0
 40
1.0
 41
0.0
 71
     7
 72
     1
  3
Diese Zeichnung entspricht dem Entwicklungsstand des Zeichnungsdatums bzw. der letzten \U+00c4nderungseintragung.Aus der Ben\U+00fctzung der\PZeichnung k\U+00f6nnen keine Anspr\U+00fcche, gleich welcher Art, einschlie\U+00dflich Schadenersatzanspr\U
  3
+00fcche, abgeleitet und gegen GEZE geltend ge-\Pmacht werden. Die Zeichnung bleibt unser Eigentum und ist Dritten nur f\U+00fcr die Vertragsdauer zur Benutzung \U+00fcberlassen.S\U+00e4mtliche sich\Paus der Zeichnung ergebenden Anspr\U+00fcche steh
  1
en ausschlie\U+00dflich GEZE zu.Ohne vorherige Zustimmung von GEZE darf diese Zeichnung weder\Pvervielf\U+00e4ltigt noch Dritten zug\U+00e4nglich gemacht werden.
  7
CONVERTER_12
 73
     1
 44
0.7202881152461
  0
TEXT
  5
3C3
330
1F
100
AcDbEntity
  8
1
 62
     4
100
AcDbText
 10
-1006.189765019486
 20
-588.1056223001506
 30
0.0
 40
3.0
  1
GEZE WinCalc, Apr. 2013
 41
0.9
  7
CONVERTER_12
100
AcDbText
  0
MTEXT
  5
3C4
330
1F
100
AcDbEntity
  8
0
 62
     7
100
AcDbMText
 10
-930.5091007570479
 20
-593.2850785498849
 30
0.0
 40
1.0
 41
0.0
 71
     7
 72
     1
  3
This drawing shows the actual state of product development at the date of the drawing or the revision date. No claims or\Pdamages in any form can be made against GEZE as a result of the interpretation of this drawing. This drawing remains the proper
  3
ty\Pof GEZE and is made available to third parties only for the duration of contractural obligations. All rights connected with this drawing remain\Pin possession of GEZE. This drawing may not be copied or handed over to third parties without the ex
  1
press consent of GEZE.
  7
CONVERTER_12
 73
     1
 44
0.7202881152461
  0
MTEXT
  5
3C5
330
1F
100
AcDbEntity
  8
0
 62
     7
100
AcDbMText
 10
-930.452974282669
 20
-587.7561941061022
 30
0.0
 40
1.0
 41
0.0
 71
     7
 72
     1
  3
Diese Zeichnung entspricht dem Entwicklungsstand des Zeichnungsdatums bzw. der letzten \U+00c4nderungseintragung.Aus der Ben\U+00fctzung der\PZeichnung k\U+00f6nnen keine Anspr\U+00fcche, gleich welcher Art, einschlie\U+00dflich Schadenersatzanspr\U
  3
+00fcche, abgeleitet und gegen GEZE geltend ge-\Pmacht werden. Die Zeichnung bleibt unser Eigentum und ist Dritten nur f\U+00fcr die Vertragsdauer zur Benutzung \U+00fcberlassen.S\U+00e4mtliche sich\Paus der Zeichnung ergebenden Anspr\U+00fcche steh
  1
en ausschlie\U+00dflich GEZE zu.Ohne vorherige Zustimmung von GEZE darf diese Zeichnung weder\Pvervielf\U+00e4ltigt noch Dritten zug\U+00e4nglich gemacht werden.
  7
CONVERTER_12
 73
     1
 44
0.7202881152461
  0
TEXT
  5
3C6
330
1F
100
AcDbEntity
  8
1
 62
     4
100
AcDbText
 10
-699.189765019488
 20
-588.1056223001531
 30
0.0
 40
3.0
  1
GEZE WinCalc, Apr. 2013
 41
0.9
  7
CONVERTER_12
100
AcDbText
  0
MTEXT
  5
3C8
330
1F
100
AcDbEntity
  8
70
 62
     3
100
AcDbMText
 10
-1037.33680789609
 20
-555.3538253929811
 30
0.0
 40
2.0
 41
0.0
 71
     4
 72
     1
  1
(*)\Pbei Fl\U+00fcgel\U+00fcberschlag 0-9mm\PUnterlage 10mm H bauseits notwendig\P/ if overlap is between 0-9mm \Psupport-plate 10mm H should be \Pprovided by the customer
  7
CONVERTER_13
 73
     1
 44
1.0
  0
MTEXT
  5
3C9
330
1F
100
AcDbEntity
  8
1
 62
     4
100
AcDbMText
 10
-767.7958332897972
 20
-538.8020771588097
 30
0.0
 40
2.5
 41
0.0
 71
     7
 72
     1
  1
Schwenkbereich\Ppivoting range
  7
CONVERTER_11
 73
     1
 44
1.02040816326531
  0
DIMENSION
  5
3D5
330
1F
100
AcDbEntity
  8
1
100
AcDbDimension
  2
*D4
 10
-844.5962467554666
 20
-455.756658989494
 30
0.0
 11
-873.0612924102493
 21
-451.700408989494
 31
0.0
 70
    32
  1
Ü=10...23
 71
     5
 42
-1.0
 53
0.00013888888889
  3
ME10_DIM_10
100
AcDbAlignedDimension
 13
-854.5962467554764
 23
-472.8262673465197
 33
0.0
 14
-844.5962467554666
 24
-504.1850471559137
 34
0.0
100
AcDbRotatedDimension
  0
DIMENSION
  5
3E1
330
1F
100
AcDbEntity
  8
1
100
AcDbDimension
  2
*D5
 10
-1178.311885194386
 20
-449.6697247692406
 30
0.0
 11
-1206.345791972968
 21
-445.6134747692406
 31
0.0
 70
    32
  1
Ü=10...23 (*)
 71
     5
 42
-1.0
 53
0.00013888888889
  3
ME10_DIM_11
100
AcDbAlignedDimension
 13
-1188.311885194604
 23
-458.2859289886829
 33
0.0
 14
-1178.311885194386
 24
-517.144708798077
 34
0.0
100
AcDbRotatedDimension
  0
DIMENSION
  5
3EC
330
1F
100
AcDbEntity
  8
1
100
AcDbDimension
  2
*D6
 10
-1052.31709418883
 20
-462.1789175404036
 30
0.0
 11
-1056.06709418883
 21
-483.964887202821
 31
0.0
 70
    32
  1
55
 71
     5
 42
-1.0
 53
90.0
  3
ME10_DIM_12
100
AcDbAlignedDimension
 13
-1178.311885194604
 23
-516.644708798077
 33
0.0
 14
-1188.311885194604
 24
-462.1789175404036
 34
0.0
 50
90.0
100
AcDbRotatedDimension
  0
DIMENSION
  5
3F7
330
1F
100
AcDbEntity
  8
1
100
AcDbDimension
  2
*D7
 10
-1052.31709418883
 20
-553.144708798087
 30
0.0
 11
-1056.06709418883
 21
-535.039078973017
 31
0.0
 70
    32
  1
<>
 71
     5
 42
-1.0
 53
90.0
  3
ME10_DIM_13
100
AcDbAlignedDimension
 13
-1178.311885194604
 23
-516.644708798077
 33
0.0
 14
-1174.311885194604
 24
-553.144708798087
 34
0.0
 50
90.0
100
AcDbRotatedDimension
  0
DIMENSION
  5
402
330
1F
100
AcDbEntity
  8
1
100
AcDbDimension
  2
*D8
 10
-1178.311885194386
 20
-449.817641058071
 30
0.0
 11
-1132.06736858955
 21
-446.067641058071
 31
0.0
 70
    32
  1
<>
 71
     5
 42
-1.0
 53
0.00013888888889
  3
ME10_DIM_14
100
AcDbAlignedDimension
 13
-1072.031889819644
 23
-499.4664112188372
 33
0.0
 14
-1178.311885194386
 24
-517.144708798077
 34
0.0
100
AcDbRotatedDimension
  0
DIMENSION
  5
40D
330
1F
100
AcDbEntity
  8
1
100
AcDbDimension
  2
*D9
 10
-893.747424750692
 20
-484.1850471559137
 30
0.0
 11
-897.497424750692
 21
-492.562440049775
 31
0.0
 70
    32
  1
<>
 71
     5
 42
-1.0
 53
90.0
  3
ME10_DIM_15
100
AcDbAlignedDimension
 13
-844.5962467554666
 23
-504.1850471559137
 33
0.0
 14
-847.5962467554766
 24
-484.1850471559137
 34
0.0
 50
90.0
100
AcDbRotatedDimension
  0
DIMENSION
  5
418
330
1F
100
AcDbEntity
  8
1
100
AcDbDimension
  2
*D10
 10
-893.747424750692
 20
-504.1850471559137
 30
0.0
 11
-897.497424750692
 21
-516.327069680572
 31
0.0
 70
    33
  1
<>)
 71
     5
 42
-1.0
 53
90.0
  3
ME10_DIM_16
100
AcDbAlignedDimension
 13
-844.5962467554666
 23
-531.7563758231454
 33
0.0
 14
-844.5962467554666
 24
-504.1850471559137
 34
0.0
  0
DIMENSION
  5
423
330
1F
100
AcDbEntity
  8
1
100
AcDbDimension
  2
*D11
 10
-844.5962467554666
 20
-455.756658989494
 30
0.0
 11
-799.070020886087
 21
-452.006658989494
 31
0.0
 70
    32
  1
95
 71
     5
 42
-1.0
 53
0.00013888888889
  3
ME10_DIM_17
100
AcDbAlignedDimension
 13
-750.6087802175862
 23
-504.8628985210514
 33
0.0
 14
-844.5962467554666
 24
-504.1850471559137
 34
0.0
100
AcDbRotatedDimension
  0
DIMENSION
  5
42E
330
1F
100
AcDbEntity
  8
1
100
AcDbDimension
  2
*D12
 10
-900.758378117041
 20
-539.1850471559137
 30
0.0
 11
-904.508378117041
 21
-516.411374538705
 31
0.0
 70
    33
  1
<>
 71
     5
 42
-1.0
 53
90.0
  3
ME10_DIM_18
100
AcDbAlignedDimension
 13
-844.5962467554666
 23
-504.1850471559137
 33
0.0
 14
-844.5962467554666
 24
-539.1850471559137
 34
0.0
  0
HATCH
  5
42F
330
1F
100
AcDbEntity
  8
1
  6
Continuous
 62
     3
100
AcDbHatch
 10
0.0
 20
0.0
 30
0.0
210
0.0
220
0.0
230
1.0
  2
_USER
 70
     0
 71
     0
 91
        1
 92
        1
 93
       24
 72
     1
 10
-1220.311885194604
 20
-544.9301564396875
 11
-1220.311885194604
 21
-458.1070767513875
 72
     1
 10
-1220.311885194604
 20
-458.1070767513875
 11
-1219.812936667264
 21
-458.201658803183
 72
     1
 10
-1219.812936667264
 20
-458.201658803183
 11
-1216.572379801741
 21
-458.6145141658773
 72
     1
 10
-1216.572379801741
 20
-458.6145141658773
 11
-1213.662747847977
 21
-458.8095262458801
 72
     1
 10
-1213.662747847977
 20
-458.8095262458801
 11
-1211.056965127818
 21
-458.8381488223815
 72
     1
 10
-1211.056965127818
 20
-458.8381488223815
 11
-1208.727955963082
 21
-458.7518356748761
 72
     1
 10
-1208.727955963082
 20
-458.7518356748761
 11
-1206.64864467563
 21
-458.6020405827869
 72
     1
 10
-1206.64864467563
 20
-458.6020405827869
 11
-1204.791955587307
 21
-458.4402173253757
 72
     1
 10
-1204.791955587307
 20
-458.4402173253757
 11
-1203.130813019945
 21
-458.3178196822839
 72
     1
 10
-1203.130813019945
 20
-458.3178196822839
 11
-1201.637918451334
 21
-458.2743289630881
 72
     1
 10
-1201.637918451334
 20
-458.2743289630881
 11
-1200.285081982873
 21
-458.3013365982761
 72
     1
 10
-1200.285081982873
 20
-458.3013365982761
 11
-1199.04389087195
 21
-458.3784615486795
 72
     1
 10
-1199.04389087195
 20
-458.3784615486795
 11
-1197.885932375908
 21
-458.4853227752894
 72
     1
 10
-1197.885932375908
 20
-458.4853227752894
 11
-1196.78279375212
 21
-458.6015392386755
 72
     1
 10
-1196.78279375212
 20
-458.6015392386755
 11
-1195.706062257943
 21
-458.7067298998874
 72
     1
 10
-1195.706062257943
 20
-458.7067298998874
 11
-1194.627325150721
 21
-458.7805137196838
 72
     1
 10
-1194.627325150721
 20
-458.7805137196838
 11
-1193.518169687812
 21
-458.80250965878
 72
     1
 10
-1193.518169687812
 20
-458.80250965878
 11
-1192.356255654229
 21
-458.7580166396793
 72
     1
 10
-1192.356255654229
 20
-458.7580166396793
 11
-1191.143532945467
 21
-458.6550534306871
 72
     1
 10
-1191.143532945467
 20
-458.6550534306871
 11
-1188.311885194604
 21
-458.2859289886829
 72
     1
 10
-1188.311885194604
 20
-458.2859289886829
 11
-1188.311885194604
 21
-524.9301564396874
 72
     1
 10
-1188.311885194604
 20
-524.9301564396874
 11
-1217.311885194604
 21
-524.9301564396874
 72
     1
 10
-1217.311885194604
 20
-524.9301564396874
 11
-1217.311885194604
 21
-544.9301564396875
 72
     1
 10
-1217.311885194604
 20
-544.9301564396875
 11
-1220.311885194604
 21
-544.9301564396875
 97
        0
 75
     1
 76
     0
 52
44.99999999999998
 41
5.0
 77
     0
 78
     1
 53
44.99999999999998
 43
0.0
 44
0.0
 45
-3.535533905932736
 46
3.535533905932739
 79
     0
 98
        1
 10
0.0
 20
0.0
  0
HATCH
  5
430
330
1F
100
AcDbEntity
  8
1
  6
Continuous
 62
     3
100
AcDbHatch
 10
0.0
 20
0.0
 30
0.0
210
0.0
220
0.0
230
1.0
  2
_USER
 70
     0
 71
     0
 91
        1
 92
        1
 93
       19
 72
     1
 10
-877.7962473104153
 20
-524.1850471559137
 11
-848.7962473104153
 21
-524.1850471559137
 72
     1
 10
-848.7962473104153
 20
-524.1850471559137
 11
-848.7962473104153
 21
-504.1850471559137
 72
     1
 10
-848.7962473104153
 20
-504.1850471559137
 11
-844.5962467554666
 21
-504.1850471559137
 72
     1
 10
-844.5962467554666
 20
-504.1850471559137
 11
-844.5962467554666
 21
-538.6970139261227
 72
     1
 10
-844.5962467554666
 20
-538.6970139261227
 11
-844.5962467554666
 21
-552.8536675039188
 72
     1
 10
-844.5962467554666
 20
-552.8536675039188
 11
-844.5962467554666
 21
-553.5830936145187
 72
     1
 10
-844.5962467554666
 20
-553.5830936145187
 11
-847.0417283407903
 21
-553.3934013825178
 72
     1
 10
-847.0417283407903
 20
-553.3934013825178
 11
-851.3937020637413
 21
-552.9511309765198
 72
     1
 10
-851.3937020637413
 20
-552.9511309765198
 11
-854.0373025397002
 21
-552.8631580913188
 72
     1
 10
-854.0373025397002
 20
-552.8631580913188
 11
-857.7497477485763
 21
-552.9649588686127
 72
     1
 10
-857.7497477485763
 20
-552.9649588686127
 11
-861.3161769177264
 21
-553.2499530404148
 72
     1
 10
-861.3161769177264
 20
-553.2499530404148
 11
-864.4702140536992
 21
-553.4158414028186
 72
     1
 10
-864.4702140536992
 20
-553.4158414028186
 11
-868.2222001291102
 21
-553.2048475906176
 72
     1
 10
-868.2222001291102
 20
-553.2048475906176
 11
-870.9163942282632
 21
-552.9482615631257
 72
     1
 10
-870.9163942282632
 20
-552.9482615631257
 11
-872.0667653520522
 21
-552.8980363667197
 72
     1
 10
-872.0667653520522
 20
-552.8980363667197
 11
-874.7771589943613
 21
-553.0192027596177
 72
     1
 10
-874.7771589943613
 20
-553.0192027596177
 11
-876.9643276883023
 21
-553.2859863012247
 72
     1
 10
-876.9643276883023
 20
-553.2859863012247
 11
-877.7962473104153
 21
-553.4042413772238
 72
     1
 10
-877.7962473104153
 20
-553.4042413772238
 11
-877.7962473104153
 21
-524.1850471559137
 97
        0
 75
     1
 76
     0
 52
225.0
 41
4.0
 77
     0
 78
     1
 53
225.0
 43
0.0
 44
0.0
 45
2.828427124746189
 46
-2.828427124746192
 79
     0
 98
        1
 10
0.0
 20
0.0
  0
HATCH
  5
431
330
1F
100
AcDbEntity
  8
1
  6
Continuous
 62
     3
100
AcDbHatch
 10
0.0
 20
0.0
 30
0.0
210
0.0
220
0.0
230
1.0
  2
_USER
 70
     0
 71
     0
 91
        1
 92
        1
 93
       24
 72
     1
 10
-887.7962473104153
 20
-532.4704947975238
 11
-887.7962473104153
 21
-472.6474151092237
 72
     1
 10
-887.7962473104153
 20
-472.6474151092237
 11
-887.2972987830753
 21
-472.7419971610198
 72
     1
 10
-887.2972987830753
 20
-472.7419971610198
 11
-884.0567419175522
 21
-473.1548525237138
 72
     1
 10
-884.0567419175522
 20
-473.1548525237138
 11
-881.1471099637884
 21
-473.3498646037167
 72
     1
 10
-881.1471099637884
 20
-473.3498646037167
 11
-878.5413272436292
 21
-473.3784871802177
 72
     1
 10
-878.5413272436292
 20
-473.3784871802177
 11
-876.2123180788933
 21
-473.2921740327127
 72
     1
 10
-876.2123180788933
 20
-473.2921740327127
 11
-874.1330067914414
 21
-473.1423789406226
 72
     1
 10
-874.1330067914414
 20
-473.1423789406226
 11
-872.2763177031184
 21
-472.9805556832119
 72
     1
 10
-872.2763177031184
 20
-472.9805556832119
 11
-870.6151751357563
 21
-472.8581580401197
 72
     1
 10
-870.6151751357563
 20
-472.8581580401197
 11
-869.1222805671443
 21
-472.8146673209247
 72
     1
 10
-869.1222805671443
 20
-472.8146673209247
 11
-867.7694440986843
 21
-472.8416749561127
 72
     1
 10
-867.7694440986843
 20
-472.8416749561127
 11
-866.5282529877613
 21
-472.9187999065157
 72
     1
 10
-866.5282529877613
 20
-472.9187999065157
 11
-865.3702944917193
 21
-473.0256611331258
 72
     1
 10
-865.3702944917193
 20
-473.0256611331258
 11
-864.2671558679313
 21
-473.1418775965117
 72
     1
 10
-864.2671558679313
 20
-473.1418775965117
 11
-863.1904243737542
 21
-473.2470682577237
 72
     1
 10
-863.1904243737542
 20
-473.2470682577237
 11
-860.9116867115933
 21
-473.3208520775197
 72
     1
 10
-860.9116867115933
 20
-473.3208520775197
 11
-859.8025312486843
 21
-473.3428480166167
 72
     1
 10
-859.8025312486843
 20
-473.3428480166167
 11
-858.6406172151012
 21
-473.2983549975156
 72
     1
 10
-858.6406172151012
 20
-473.2983549975156
 11
-857.4278945063393
 21
-473.1953917885237
 72
     1
 10
-857.4278945063393
 20
-473.1953917885237
 11
-854.5962467554764
 21
-472.8262673465197
 72
     1
 10
-854.5962467554764
 20
-472.8262673465197
 11
-854.5962467554764
 21
-512.4704947975238
 72
     1
 10
-854.5962467554764
 20
-512.4704947975238
 11
-884.7962473104153
 21
-512.4704947975238
 72
     1
 10
-884.7962473104153
 20
-512.4704947975238
 11
-884.7962473104153
 21
-532.4704947975238
 72
     1
 10
-884.7962473104153
 20
-532.4704947975238
 11
-887.7962473104153
 21
-532.4704947975238
 97
        0
 75
     1
 76
     0
 52
134.9999999999999
 41
2.5
 77
     0
 78
     1
 53
134.9999999999999
 43
0.0
 44
0.0
 45
-1.767766952966371
 46
-1.767766952966367
 79
     0
 98
        1
 10
0.0
 20
0.0
  0
HATCH
  5
432
330
1F
100
AcDbEntity
  8
1
  6
Continuous
 62
     3
100
AcDbHatch
 10
0.0
 20
0.0
 30
0.0
210
0.0
220
0.0
230
1.0
  2
_USER
 70
     0
 71
     0
 91
        1
 92
        1
 93
       19
 72
     1
 10
-1210.311885194604
 20
-536.644708798077
 11
-1181.311885194604
 21
-536.644708798077
 72
     1
 10
-1181.311885194604
 20
-536.644708798077
 11
-1181.311885194604
 21
-516.644708798077
 72
     1
 10
-1181.311885194604
 20
-516.644708798077
 11
-1178.311885194604
 21
-516.644708798077
 72
     1
 10
-1178.311885194604
 20
-516.644708798077
 11
-1178.311885194604
 21
-551.1566755682862
 72
     1
 10
-1178.311885194604
 20
-551.1566755682862
 11
-1178.311885194604
 21
-560.3133291460828
 72
     1
 10
-1178.311885194604
 20
-560.3133291460828
 11
-1178.311885194604
 21
-561.0427552566827
 72
     1
 10
-1178.311885194604
 20
-561.0427552566827
 11
-1179.557366224979
 21
-560.8530630246815
 72
     1
 10
-1179.557366224979
 20
-560.8530630246815
 11
-1183.90933994793
 21
-560.4107926186836
 72
     1
 10
-1183.90933994793
 20
-560.4107926186836
 11
-1186.55294042389
 21
-560.3228197334821
 72
     1
 10
-1186.55294042389
 20
-560.3228197334821
 11
-1190.265385632765
 21
-560.4246205107767
 72
     1
 10
-1190.265385632765
 20
-560.4246205107767
 11
-1193.831814801915
 21
-560.709614682578
 72
     1
 10
-1193.831814801915
 20
-560.709614682578
 11
-1196.985851937889
 21
-560.8755030449821
 72
     1
 10
-1196.985851937889
 20
-560.8755030449821
 11
-1200.7378380133
 21
-560.6645092327809
 72
     1
 10
-1200.7378380133
 20
-560.6645092327809
 11
-1203.432032112452
 21
-560.4079232052892
 72
     1
 10
-1203.432032112452
 20
-560.4079232052892
 11
-1204.582403236242
 21
-560.357698008883
 72
     1
 10
-1204.582403236242
 20
-560.357698008883
 11
-1207.29279687855
 21
-560.4788644017818
 72
     1
 10
-1207.29279687855
 20
-560.4788644017818
 11
-1209.479965572491
 21
-560.7456479433887
 72
     1
 10
-1209.479965572491
 20
-560.7456479433887
 11
-1210.311885194604
 21
-560.8639030193873
 72
     1
 10
-1210.311885194604
 20
-560.8639030193873
 11
-1210.311885194604
 21
-536.644708798077
 97
        0
 75
     1
 76
     0
 52
135.0
 41
2.0
 77
     0
 78
     1
 53
135.0
 43
0.0
 44
0.0
 45
-1.414213562373095
 46
-1.414213562373095
 79
     0
 98
        1
 10
0.0
 20
0.0
  0
ENDSEC
  0
SECTION
  2
OBJECTS
  0
DICTIONARY
  5
C
330
0
100
AcDbDictionary
281
     1
  3
ACAD_GROUP
350
D
  3
ACAD_LAYOUT
350
1A
  3
ACAD_MATERIAL
350
3B
  3
ACAD_MLEADERSTYLE
350
435
  3
ACAD_MLINESTYLE
350
17
  3
ACAD_PLOTSETTINGS
350
19
  3
ACAD_PLOTSTYLENAME
350
E
  3
ACAD_SCALELIST
350
4E
  3
ACAD_VISUALSTYLE
350
2A
  3
AcDbVariableDictionary
350
433
  0
DICTIONARY
  5
D
102
{ACAD_REACTORS
330
C
102
}
330
C
100
AcDbDictionary
281
     1
  0
DICTIONARY
  5
1A
102
{ACAD_REACTORS
330
C
102
}
330
C
100
AcDbDictionary
281
     1
  3
Layout1
350
1E
  3
Layout2
350
26
  3
Model
350
22
  0
DICTIONARY
  5
3B
102
{ACAD_REACTORS
330
C
102
}
330
C
100
AcDbDictionary
281
     1
  3
ByBlock
350
3D
  3
ByLayer
350
3C
  3
Global
350
3E
  0
DICTIONARY
  5
435
102
{ACAD_REACTORS
330
C
102
}
330
C
100
AcDbDictionary
281
     1
  0
DICTIONARY
  5
17
102
{ACAD_REACTORS
330
C
102
}
330
C
100
AcDbDictionary
281
     1
  3
Standard
350
18
  0
DICTIONARY
  5
19
102
{ACAD_REACTORS
330
C
102
}
330
C
100
AcDbDictionary
281
     1
  0
ACDBDICTIONARYWDFLT
  5
E
102
{ACAD_REACTORS
330
C
102
}
330
C
100
AcDbDictionary
281
     1
  3
Normal
350
F
100
AcDbDictionaryWithDefault
340
F
  0
DICTIONARY
  5
4E
102
{ACAD_REACTORS
330
C
102
}
330
C
100
AcDbDictionary
281
     1
  3
A0
350
4F
  3
A1
350
50
  3
A2
350
51
  3
A3
350
52
  3
A4
350
53
  3
A5
350
54
  3
A6
350
55
  3
A7
350
56
  3
A8
350
57
  3
A9
350
58
  3
B0
350
59
  3
B1
350
5A
  3
B2
350
5B
  3
B3
350
5C
  3
B4
350
5D
  3
B5
350
5E
  3
B6
350
5F
  3
B7
350
60
  3
B8
350
61
  3
B9
350
62
  3
C0
350
63
  3
C1
350
64
  3
C2
350
65
  3
C3
350
66
  3
C4
350
67
  3
C5
350
68
  3
C6
350
69
  3
C7
350
6A
  3
C8
350
6B
  3
C9
350
6C
  3
D0
350
6D
  3
D1
350
6E
  3
D2
350
6F
  0
DICTIONARY
  5
2A
102
{ACAD_REACTORS
330
C
102
}
330
C
100
AcDbDictionary
281
     1
  3
2dWireframe
350
2F
  3
3D Hidden
350
31
  3
3dWireframe
350
30
  3
Basic
350
32
  3
Brighten
350
36
  3
ColorChange
350
3A
  3
Conceptual
350
34
  3
Dim
350
35
  3
Facepattern
350
39
  3
Flat
350
2B
  3
FlatWithEdges
350
2C
  3
Gouraud
350
2D
  3
GouraudWithEdges
350
2E
  3
Linepattern
350
38
  3
Realistic
350
33
  3
Thicken
350
37
  0
DICTIONARY
  5
433
102
{ACAD_REACTORS
330
C
102
}
330
C
100
AcDbDictionary
281
     1
  3
CANNOSCALE
350
436
  3
DIMASSOC
350
437
  3
HIDETEXT
350
438
  0
LAYOUT
  5
1E
102
{ACAD_REACTORS
330
1A
102
}
330
1A
100
AcDbPlotSettings
  1

  2
none_device
  4

  6

 40
0.0
 41
0.0
 42
0.0
 43
0.0
 44
0.0
 45
0.0
 46
0.0
 47
0.0
 48
0.0
 49
0.0
140
0.0
141
0.0
142
1.0
143
1.0
 70
   688
 72
     0
 73
     0
 74
     5
  7

 75
    16
147
1.0
148
0.0
149
0.0
100
AcDbLayout
  1
Layout1
 70
     1
 71
     1
 10
0.0
 20
0.0
 11
12.0
 21
9.0
 12
0.0
 22
0.0
 32
0.0
 14
1.00000000000000E+20
 24
1.00000000000000E+20
 34
1.00000000000000E+20
 15
-1.00000000000000E+20
 25
-1.00000000000000E+20
 35
-1.00000000000000E+20
146
0.0
 13
0.0
 23
0.0
 33
0.0
 16
1.0
 26
0.0
 36
0.0
 17
0.0
 27
1.0
 37
0.0
 76
     0
330
1B
  0
LAYOUT
  5
26
102
{ACAD_REACTORS
330
1A
102
}
330
1A
100
AcDbPlotSettings
  1

  2
none_device
  4

  6

 40
0.0
 41
0.0
 42
0.0
 43
0.0
 44
0.0
 45
0.0
 46
0.0
 47
0.0
 48
0.0
 49
0.0
140
0.0
141
0.0
142
1.0
143
1.0
 70
   688
 72
     0
 73
     0
 74
     5
  7

 75
    16
147
1.0
148
0.0
149
0.0
100
AcDbLayout
  1
Layout2
 70
     1
 71
     2
 10
0.0
 20
0.0
 11
0.0
 21
0.0
 12
0.0
 22
0.0
 32
0.0
 14
0.0
 24
0.0
 34
0.0
 15
0.0
 25
0.0
 35
0.0
146
0.0
 13
0.0
 23
0.0
 33
0.0
 16
1.0
 26
0.0
 36
0.0
 17
0.0
 27
1.0
 37
0.0
 76
     0
330
23
  0
LAYOUT
  5
22
102
{ACAD_REACTORS
330
1A
102
}
330
1A
100
AcDbPlotSettings
  1

  2
none_device
  4

  6

 40
0.0
 41
0.0
 42
0.0
 43
0.0
 44
0.0
 45
0.0
 46
0.0
 47
0.0
 48
0.0
 49
0.0
140
0.0
141
0.0
142
1.0
143
1.0
 70
  1712
 72
     0
 73
     0
 74
     0
  7

 75
     0
147
1.0
148
0.0
149
0.0
100
AcDbLayout
  1
Model
 70
     1
 71
     0
 10
0.0
 20
0.0
 11
12.0
 21
9.0
 12
0.0
 22
0.0
 32
0.0
 14
-1237.799904123951
 24
-593.5850785498885
 34
0.0
 15
-643.7999041239509
 25
-397.7444029799372
 35
0.0
146
0.0
 13
0.0
 23
0.0
 33
0.0
 16
1.0
 26
0.0
 36
0.0
 17
0.0
 27
1.0
 37
0.0
 76
     0
330
1F
331
29
  0
MATERIAL
  5
3D
102
{ACAD_REACTORS
330
3B
102
}
102
{ACAD_XDICTIONARY
360
45B
102
}
330
3B
100
AcDbMaterial
  1
ByBlock
  0
MATERIAL
  5
3C
102
{ACAD_REACTORS
330
3B
102
}
102
{ACAD_XDICTIONARY
360
459
102
}
330
3B
100
AcDbMaterial
  1
ByLayer
  0
MATERIAL
  5
3E
102
{ACAD_REACTORS
330
3B
102
}
102
{ACAD_XDICTIONARY
360
45D
102
}
330
3B
100
AcDbMaterial
  1
Global
  0
MLINESTYLE
  5
18
102
{ACAD_REACTORS
330
17
102
}
330
17
100
AcDbMlineStyle
  2
Standard
 70
     0
  3

 62
   256
 51
90.0
 52
90.0
 71
     2
 49
0.5
 62
   256
  6
BYLAYER
 49
-0.5
 62
   256
  6
BYLAYER
  0
ACDBPLACEHOLDER
  5
F
102
{ACAD_REACTORS
330
E
102
}
330
E
  0
SCALE
  5
4F
102
{ACAD_REACTORS
330
4E
102
}
330
4E
100
AcDbScale
 70
     0
300
1:1
140
1.0
141
1.0
290
     1
  0
SCALE
  5
50
102
{ACAD_REACTORS
330
4E
102
}
330
4E
100
AcDbScale
 70
     0
300
1:2
140
1.0
141
2.0
290
     0
  0
SCALE
  5
51
102
{ACAD_REACTORS
330
4E
102
}
330
4E
100
AcDbScale
 70
     0
300
1:4
140
1.0
141
4.0
290
     0
  0
SCALE
  5
52
102
{ACAD_REACTORS
330
4E
102
}
330
4E
100
AcDbScale
 70
     0
300
1:5
140
1.0
141
5.0
290
     0
  0
SCALE
  5
53
102
{ACAD_REACTORS
330
4E
102
}
330
4E
100
AcDbScale
 70
     0
300
1:8
140
1.0
141
8.0
290
     0
  0
SCALE
  5
54
102
{ACAD_REACTORS
330
4E
102
}
330
4E
100
AcDbScale
 70
     0
300
1:10
140
1.0
141
10.0
290
     0
  0
SCALE
  5
55
102
{ACAD_REACTORS
330
4E
102
}
330
4E
100
AcDbScale
 70
     0
300
1:16
140
1.0
141
16.0
290
     0
  0
SCALE
  5
56
102
{ACAD_REACTORS
330
4E
102
}
330
4E
100
AcDbScale
 70
     0
300
1:20
140
1.0
141
20.0
290
     0
  0
SCALE
  5
57
102
{ACAD_REACTORS
330
4E
102
}
330
4E
100
AcDbScale
 70
     0
300
1:30
140
1.0
141
30.0
290
     0
  0
SCALE
  5
58
102
{ACAD_REACTORS
330
4E
102
}
330
4E
100
AcDbScale
 70
     0
300
1:40
140
1.0
141
40.0
290
     0
  0
SCALE
  5
59
102
{ACAD_REACTORS
330
4E
102
}
330
4E
100
AcDbScale
 70
     0
300
1:50
140
1.0
141
50.0
290
     0
  0
SCALE
  5
5A
102
{ACAD_REACTORS
330
4E
102
}
330
4E
100
AcDbScale
 70
     0
300
1:100
140
1.0
141
100.0
290
     0
  0
SCALE
  5
5B
102
{ACAD_REACTORS
330
4E
102
}
330
4E
100
AcDbScale
 70
     0
300
2:1
140
2.0
141
1.0
290
     0
  0
SCALE
  5
5C
102
{ACAD_REACTORS
330
4E
102
}
330
4E
100
AcDbScale
 70
     0
300
4:1
140
4.0
141
1.0
290
     0
  0
SCALE
  5
5D
102
{ACAD_REACTORS
330
4E
102
}
330
4E
100
AcDbScale
 70
     0
300
8:1
140
8.0
141
1.0
290
     0
  0
SCALE
  5
5E
102
{ACAD_REACTORS
330
4E
102
}
330
4E
100
AcDbScale
 70
     0
300
10:1
140
10.0
141
1.0
290
     0
  0
SCALE
  5
5F
102
{ACAD_REACTORS
330
4E
102
}
330
4E
100
AcDbScale
 70
     0
300
100:1
140
100.0
141
1.0
290
     0
  0
SCALE
  5
60
102
{ACAD_REACTORS
330
4E
102
}
330
4E
100
AcDbScale
 70
     0
300
1/128" = 1'-0"
140
0.0078125
141
12.0
290
     0
  0
SCALE
  5
61
102
{ACAD_REACTORS
330
4E
102
}
330
4E
100
AcDbScale
 70
     0
300
1/64" = 1'-0"
140
0.015625
141
12.0
290
     0
  0
SCALE
  5
62
102
{ACAD_REACTORS
330
4E
102
}
330
4E
100
AcDbScale
 70
     0
300
1/32" = 1'-0"
140
0.03125
141
12.0
290
     0
  0
SCALE
  5
63
102
{ACAD_REACTORS
330
4E
102
}
330
4E
100
AcDbScale
 70
     0
300
1/16" = 1'-0"
140
0.0625
141
12.0
290
     0
  0
SCALE
  5
64
102
{ACAD_REACTORS
330
4E
102
}
330
4E
100
AcDbScale
 70
     0
300
3/32" = 1'-0"
140
0.09375
141
12.0
290
     0
  0
SCALE
  5
65
102
{ACAD_REACTORS
330
4E
102
}
330
4E
100
AcDbScale
 70
     0
300
1/8" = 1'-0"
140
0.125
141
12.0
290
     0
  0
SCALE
  5
66
102
{ACAD_REACTORS
330
4E
102
}
330
4E
100
AcDbScale
 70
     0
300
3/16" = 1'-0"
140
0.1875
141
12.0
290
     0
  0
SCALE
  5
67
102
{ACAD_REACTORS
330
4E
102
}
330
4E
100
AcDbScale
 70
     0
300
1/4" = 1'-0"
140
0.25
141
12.0
290
     0
  0
SCALE
  5
68
102
{ACAD_REACTORS
330
4E
102
}
330
4E
100
AcDbScale
 70
     0
300
3/8" = 1'-0"
140
0.375
141
12.0
290
     0
  0
SCALE
  5
69
102
{ACAD_REACTORS
330
4E
102
}
330
4E
100
AcDbScale
 70
     0
300
1/2" = 1'-0"
140
0.5
141
12.0
290
     0
  0
SCALE
  5
6A
102
{ACAD_REACTORS
330
4E
102
}
330
4E
100
AcDbScale
 70
     0
300
3/4" = 1'-0"
140
0.75
141
12.0
290
     0
  0
SCALE
  5
6B
102
{ACAD_REACTORS
330
4E
102
}
330
4E
100
AcDbScale
 70
     0
300
1" = 1'-0"
140
1.0
141
12.0
290
     0
  0
SCALE
  5
6C
102
{ACAD_REACTORS
330
4E
102
}
330
4E
100
AcDbScale
 70
     0
300
1-1/2" = 1'-0"
140
1.5
141
12.0
290
     0
  0
SCALE
  5
6D
102
{ACAD_REACTORS
330
4E
102
}
330
4E
100
AcDbScale
 70
     0
300
3" = 1'-0"
140
3.0
141
12.0
290
     0
  0
SCALE
  5
6E
102
{ACAD_REACTORS
330
4E
102
}
330
4E
100
AcDbScale
 70
     0
300
6" = 1'-0"
140
6.0
141
12.0
290
     0
  0
SCALE
  5
6F
102
{ACAD_REACTORS
330
4E
102
}
330
4E
100
AcDbScale
 70
     0
300
1'-0" = 1'-0"
140
12.0
141
12.0
290
     0
  0
VISUALSTYLE
  5
2F
102
{ACAD_REACTORS
330
2A
102
}
102
{ACAD_XDICTIONARY
360
441
102
}
330
2A
100
AcDbVisualStyle
  2
2dWireframe
 70
     4
 71
     0
 72
     2
 73
     0
 90
        0
 40
-0.6
 41
-30.0
 62
     5
 63
     7
 74
     1
 91
        4
 64
     7
 65
   257
 75
     1
175
     1
 42
1.0
 92
        0
 66
   257
 43
1.0
 76
     1
 77
     6
 78
     2
 67
     7
 79
     5
170
     0
171
     0
290
     0
174
     0
 93
        1
 44
0.0
173
     0
291
     0
 45
0.0
1001
ACAD
1000
AcDbSavedByObjectVersion
1070
     0
  0
VISUALSTYLE
  5
31
102
{ACAD_REACTORS
330
2A
102
}
102
{ACAD_XDICTIONARY
360
445
102
}
330
2A
100
AcDbVisualStyle
  2
3D Hidden
 70
     6
 71
     1
 72
     2
 73
     2
 90
        0
 40
-0.6
 41
-30.0
 62
     5
 63
     7
 74
     2
 91
        2
 64
     7
 65
   257
 75
     2
175
     1
 42
40.0
 92
        0
 66
   257
 43
1.0
 76
     1
 77
     6
 78
     2
 67
     7
 79
     3
170
     0
171
     0
290
     0
174
     0
 93
        1
 44
0.0
173
     0
291
     0
 45
0.0
1001
ACAD
1000
AcDbSavedByObjectVersion
1070
     0
  0
VISUALSTYLE
  5
30
102
{ACAD_REACTORS
330
2A
102
}
102
{ACAD_XDICTIONARY
360
443
102
}
330
2A
100
AcDbVisualStyle
  2
3dWireframe
 70
     5
 71
     0
 72
     2
 73
     0
 90
        0
 40
-0.6
 41
-30.0
 62
     5
 63
     7
 74
     1
 91
        4
 64
     7
 65
   257
 75
     1
175
     1
 42
1.0
 92
        0
 66
   257
 43
1.0
 76
     1
 77
     6
 78
     2
 67
     7
 79
     5
170
     0
171
     0
290
     0
174
     0
 93
        1
 44
0.0
173
     0
291
     0
 45
0.0
1001
ACAD
1000
AcDbSavedByObjectVersion
1070
     0
  0
VISUALSTYLE
  5
32
102
{ACAD_REACTORS
330
2A
102
}
102
{ACAD_XDICTIONARY
360
447
102
}
330
2A
100
AcDbVisualStyle
  2
Basic
 70
     7
 71
     1
 72
     0
 73
     1
 90
        0
 40
-0.6
 41
-30.0
 62
     5
 63
     7
 74
     0
 91
        4
 64
     7
 65
   257
 75
     1
175
     1
 42
1.0
 92
        8
 66
     7
 43
1.0
 76
     1
 77
     6
 78
     2
 67
     7
 79
     5
170
     0
171
     0
290
     0
174
     0
 93
        1
 44
0.0
173
     0
291
     1
 45
0.0
1001
ACAD
1000
AcDbSavedByObjectVersion
1070
     0
  0
VISUALSTYLE
  5
36
102
{ACAD_REACTORS
330
2A
102
}
102
{ACAD_XDICTIONARY
360
44F
102
}
330
2A
100
AcDbVisualStyle
  2
Brighten
 70
    12
 71
     2
 72
     2
 73
     0
 90
        0
 40
-0.6
 41
-30.0
 62
     5
 63
     7
 74
     1
 91
        4
 64
     7
 65
   257
 75
     1
175
     1
 42
1.0
 92
        8
 66
     7
 43
1.0
 76
     1
 77
     6
 78
     2
 67
     7
 79
     5
170
     0
171
     0
290
     0
174
     0
 93
        1
 44
50.0
173
     0
291
     1
 45
0.0
1001
ACAD
1000
AcDbSavedByObjectVersion
1070
     0
  0
VISUALSTYLE
  5
3A
102
{ACAD_REACTORS
330
2A
102
}
102
{ACAD_XDICTIONARY
360
457
102
}
330
2A
100
AcDbVisualStyle
  2
ColorChange
 70
    16
 71
     2
 72
     2
 73
     3
 90
        0
 40
-0.6
 41
-30.0
 62
     5
 63
     8
 74
     1
 91
        4
 64
     7
 65
   257
 75
     1
175
     1
 42
1.0
 92
        8
 66
     8
 43
1.0
 76
     1
 77
     6
 78
     2
 67
     7
 79
     5
170
     0
171
     0
290
     0
174
     0
 93
        1
 44
0.0
173
     0
291
     1
 45
0.0
1001
ACAD
1000
AcDbSavedByObjectVersion
1070
     0
  0
VISUALSTYLE
  5
34
102
{ACAD_REACTORS
330
2A
102
}
102
{ACAD_XDICTIONARY
360
44B
102
}
330
2A
100
AcDbVisualStyle
  2
Conceptual
 70
     9
 71
     3
 72
     2
 73
     0
 90
        0
 40
-0.6
 41
-30.0
 62
     5
 63
     7
 74
     2
 91
        2
 64
     7
 65
   257
 75
     1
175
     1
 42
40.0
 92
        8
 66
     7
 43
1.0
 76
     1
 77
     6
 78
     2
 67
     7
 79
     3
170
     0
171
     0
290
     0
174
     0
 93
        1
 44
0.0
173
     0
291
     0
 45
0.0
1001
ACAD
1000
AcDbSavedByObjectVersion
1070
     0
  0
VISUALSTYLE
  5
35
102
{ACAD_REACTORS
330
2A
102
}
102
{ACAD_XDICTIONARY
360
44D
102
}
330
2A
100
AcDbVisualStyle
  2
Dim
 70
    11
 71
     2
 72
     2
 73
     0
 90
        0
 40
-0.6
 41
-30.0
 62
     5
 63
     7
 74
     1
 91
        4
 64
     7
 65
   257
 75
     1
175
     1
 42
1.0
 92
        8
 66
     7
 43
1.0
 76
     1
 77
     6
 78
     2
 67
     7
 79
     5
170
     0
171
     0
290
     0
174
     0
 93
        1
 44
-50.0
173
     0
291
     1
 45
0.0
1001
ACAD
1000
AcDbSavedByObjectVersion
1070
     0
  0
VISUALSTYLE
  5
39
102
{ACAD_REACTORS
330
2A
102
}
102
{ACAD_XDICTIONARY
360
455
102
}
330
2A
100
AcDbVisualStyle
  2
Facepattern
 70
    15
 71
     2
 72
     2
 73
     0
 90
        0
 40
-0.6
 41
-30.0
 62
     5
 63
     7
 74
     1
 91
        4
 64
     7
 65
   257
 75
     1
175
     1
 42
1.0
 92
        8
 66
     7
 43
1.0
 76
     1
 77
     6
 78
     2
 67
     7
 79
     5
170
     0
171
     0
290
     0
174
     0
 93
        1
 44
0.0
173
     0
291
     1
 45
0.0
1001
ACAD
1000
AcDbSavedByObjectVersion
1070
     0
  0
VISUALSTYLE
  5
2B
102
{ACAD_REACTORS
330
2A
102
}
102
{ACAD_XDICTIONARY
360
439
102
}
330
2A
100
AcDbVisualStyle
  2
Flat
 70
     0
 71
     2
 72
     1
 73
     1
 90
        2
 40
-0.6
 41
30.0
 62
     5
 63
     7
 74
     0
 91
        4
 64
     7
 65
   257
 75
     1
175
     1
 42
1.0
 92
        8
 66
     7
 43
1.0
 76
     1
 77
     6
 78
     2
 67
     7
 79
     5
170
     0
171
     0
290
     0
174
     0
 93
       13
 44
0.0
173
     0
291
     1
 45
0.0
1001
ACAD
1000
AcDbSavedByObjectVersion
1070
     0
  0
VISUALSTYLE
  5
2C
102
{ACAD_REACTORS
330
2A
102
}
102
{ACAD_XDICTIONARY
360
43B
102
}
330
2A
100
AcDbVisualStyle
  2
FlatWithEdges
 70
     1
 71
     2
 72
     1
 73
     1
 90
        2
 40
-0.6
 41
30.0
 62
     5
 63
     7
 74
     1
 91
        4
 64
     7
 65
   257
 75
     1
175
     1
 42
1.0
 92
        0
 66
   257
 43
1.0
 76
     1
 77
     6
 78
     2
 67
     7
 79
     5
170
     0
171
     0
290
     0
174
     0
 93
       13
 44
0.0
173
     0
291
     1
 45
0.0
1001
ACAD
1000
AcDbSavedByObjectVersion
1070
     0
  0
VISUALSTYLE
  5
2D
102
{ACAD_REACTORS
330
2A
102
}
102
{ACAD_XDICTIONARY
360
43D
102
}
330
2A
100
AcDbVisualStyle
  2
Gouraud
 70
     2
 71
     2
 72
     2
 73
     1
 90
        2
 40
-0.6
 41
30.0
 62
     5
 63
     7
 74
     0
 91
        4
 64
     7
 65
   257
 75
     1
175
     1
 42
1.0
 92
        0
 66
     7
 43
1.0
 76
     1
 77
     6
 78
     2
 67
     7
 79
     5
170
     0
171
     0
290
     0
174
     0
 93
       13
 44
0.0
173
     0
291
     1
 45
0.0
1001
ACAD
1000
AcDbSavedByObjectVersion
1070
     0
  0
VISUALSTYLE
  5
2E
102
{ACAD_REACTORS
330
2A
102
}
102
{ACAD_XDICTIONARY
360
43F
102
}
330
2A
100
AcDbVisualStyle
  2
GouraudWithEdges
 70
     3
 71
     2
 72
     2
 73
     1
 90
        2
 40
-0.6
 41
30.0
 62
     5
 63
     7
 74
     1
 91
        4
 64
     7
 65
   257
 75
     1
175
     1
 42
1.0
 92
        0
 66
   257
 43
1.0
 76
     1
 77
     6
 78
     2
 67
     7
 79
     5
170
     0
171
     0
290
     0
174
     0
 93
       13
 44
0.0
173
     0
291
     1
 45
0.0
1001
ACAD
1000
AcDbSavedByObjectVersion
1070
     0
  0
VISUALSTYLE
  5
38
102
{ACAD_REACTORS
330
2A
102
}
102
{ACAD_XDICTIONARY
360
453
102
}
330
2A
100
AcDbVisualStyle
  2
Linepattern
 70
    14
 71
     2
 72
     2
 73
     0
 90
        0
 40
-0.6
 41
-30.0
 62
     5
 63
     7
 74
     1
 91
        4
 64
     7
 65
   257
 75
     7
175
     7
 42
1.0
 92
        8
 66
     7
 43
1.0
 76
     1
 77
     6
 78
     2
 67
     7
 79
     5
170
     0
171
     0
290
     0
174
     0
 93
        1
 44
0.0
173
     0
291
     1
 45
0.0
1001
ACAD
1000
AcDbSavedByObjectVersion
1070
     0
  0
VISUALSTYLE
  5
33
102
{ACAD_REACTORS
330
2A
102
}
102
{ACAD_XDICTIONARY
360
449
102
}
330
2A
100
AcDbVisualStyle
  2
Realistic
 70
     8
 71
     2
 72
     2
 73
     0
 90
        0
 40
-0.6
 41
-30.0
 62
     5
 63
     7
 74
     1
 91
        0
 64
     7
 65
   257
 75
     1
175
     1
 42
1.0
 92
        8
 66
     8
 43
1.0
 76
     1
 77
     6
 78
     2
 67
     7
 79
     5
170
     0
171
     0
290
     0
174
     0
 93
       13
 44
0.0
173
     0
291
     0
 45
0.0
1001
ACAD
1000
AcDbSavedByObjectVersion
1070
     0
  0
VISUALSTYLE
  5
37
102
{ACAD_REACTORS
330
2A
102
}
102
{ACAD_XDICTIONARY
360
451
102
}
330
2A
100
AcDbVisualStyle
  2
Thicken
 70
    13
 71
     2
 72
     2
 73
     0
 90
        0
 40
-0.6
 41
-30.0
 62
     5
 63
     7
 74
     1
 91
        4
 64
     7
 65
   257
 75
     1
175
     1
 42
1.0
 92
       12
 66
     7
 43
1.0
 76
     1
 77
     6
 78
     2
 67
     7
 79
     5
170
     0
171
     0
290
     0
174
     0
 93
        1
 44
0.0
173
     0
291
     1
 45
0.0
1001
ACAD
1000
AcDbSavedByObjectVersion
1070
     0
  0
DICTIONARYVAR
  5
436
102
{ACAD_REACTORS
330
433
102
}
330
433
100
DictionaryVariables
280
     0
  1
1:1
  0
DICTIONARYVAR
  5
437
102
{ACAD_REACTORS
330
433
102
}
330
433
100
DictionaryVariables
280
     0
  1
2
  0
DICTIONARYVAR
  5
438
102
{ACAD_REACTORS
330
433
102
}
330
433
100
DictionaryVariables
280
     0
  1
1
  0
DICTIONARY
  5
45B
330
3D
100
AcDbDictionary
280
     1
281
     1
  3
ACAD_XREC_ROUNDTRIP
360
45C
  0
DICTIONARY
  5
459
330
3C
100
AcDbDictionary
280
     1
281
     1
  3
ACAD_XREC_ROUNDTRIP
360
45A
  0
DICTIONARY
  5
45D
330
3E
100
AcDbDictionary
280
     1
281
     1
  3
ACAD_XREC_ROUNDTRIP
360
45E
  0
DICTIONARY
  5
441
330
2F
100
AcDbDictionary
280
     1
281
     1
  3
ACAD_XREC_ROUNDTRIP
360
442
  0
DICTIONARY
  5
445
330
31
100
AcDbDictionary
280
     1
281
     1
  3
ACAD_XREC_ROUNDTRIP
360
446
  0
DICTIONARY
  5
443
330
30
100
AcDbDictionary
280
     1
281
     1
  3
ACAD_XREC_ROUNDTRIP
360
444
  0
DICTIONARY
  5
447
330
32
100
AcDbDictionary
280
     1
281
     1
  3
ACAD_XREC_ROUNDTRIP
360
448
  0
DICTIONARY
  5
44F
330
36
100
AcDbDictionary
280
     1
281
     1
  3
ACAD_XREC_ROUNDTRIP
360
450
  0
DICTIONARY
  5
457
330
3A
100
AcDbDictionary
280
     1
281
     1
  3
ACAD_XREC_ROUNDTRIP
360
458
  0
DICTIONARY
  5
44B
330
34
100
AcDbDictionary
280
     1
281
     1
  3
ACAD_XREC_ROUNDTRIP
360
44C
  0
DICTIONARY
  5
44D
330
35
100
AcDbDictionary
280
     1
281
     1
  3
ACAD_XREC_ROUNDTRIP
360
44E
  0
DICTIONARY
  5
455
330
39
100
AcDbDictionary
280
     1
281
     1
  3
ACAD_XREC_ROUNDTRIP
360
456
  0
DICTIONARY
  5
439
330
2B
100
AcDbDictionary
280
     1
281
     1
  3
ACAD_XREC_ROUNDTRIP
360
43A
  0
DICTIONARY
  5
43B
330
2C
100
AcDbDictionary
280
     1
281
     1
  3
ACAD_XREC_ROUNDTRIP
360
43C
  0
DICTIONARY
  5
43D
330
2D
100
AcDbDictionary
280
     1
281
     1
  3
ACAD_XREC_ROUNDTRIP
360
43E
  0
DICTIONARY
  5
43F
330
2E
100
AcDbDictionary
280
     1
281
     1
  3
ACAD_XREC_ROUNDTRIP
360
440
  0
DICTIONARY
  5
453
330
38
100
AcDbDictionary
280
     1
281
     1
  3
ACAD_XREC_ROUNDTRIP
360
454
  0
DICTIONARY
  5
449
330
33
100
AcDbDictionary
280
     1
281
     1
  3
ACAD_XREC_ROUNDTRIP
360
44A
  0
DICTIONARY
  5
451
330
37
100
AcDbDictionary
280
     1
281
     1
  3
ACAD_XREC_ROUNDTRIP
360
452
  0
XRECORD
  5
45C
102
{ACAD_REACTORS
330
45B
102
}
330
45B
100
AcDbXrecord
280
     1
102
MATERIAL
148
0.0
149
0.0
149
0.0
 93
        0
 94
      127
282
     0
 72
     1
 77
     1
171
     1
175
     1
179
     1
273
     0
  0
XRECORD
  5
45A
102
{ACAD_REACTORS
330
459
102
}
330
459
100
AcDbXrecord
280
     1
102
MATERIAL
148
0.0
149
0.0
149
0.0
 93
        0
 94
      127
282
     0
 72
     1
 77
     1
171
     1
175
     1
179
     1
273
     0
  0
XRECORD
  5
45E
102
{ACAD_REACTORS
330
45D
102
}
330
45D
100
AcDbXrecord
280
     1
102
MATERIAL
148
0.0
149
0.0
149
0.0
 93
        0
 94
      127
282
     0
 72
     1
 77
     1
171
     1
175
     1
179
     1
273
     0
  0
XRECORD
  5
442
102
{ACAD_REACTORS
330
441
102
}
330
441
100
AcDbXrecord
280
     1
102
RTVSPropertyOp0
 70
     1
102
RTVSPropertyOp1
 70
     1
102
RTVSPropertyOp2
 70
     1
102
RTVSPropertyOp3
 70
     1
102
RTVSPropertyOp4
 70
     1
102
RTVSPropertyOp5
 70
     1
102
RTVSPropertyOp6
 70
     1
102
RTVSPropertyOp7
 70
     1
102
RTVSPropertyOp8
 70
     1
102
RTVSPropertyOp9
 70
     1
102
RTVSPropertyOp10
 70
     1
102
RTVSPropertyOp11
 70
     1
102
RTVSPropertyOp12
 70
     1
102
RTVSPropertyOp13
 70
     1
102
RTVSPropertyOp14
 70
     1
102
RTVSPropertyOp15
 70
     1
102
RTVSPropertyOp16
 70
     1
102
RTVSPropertyOp17
 70
     1
102
RTVSPropertyOp18
 70
     1
102
RTVSPropertyOp19
 70
     1
102
RTVSPropertyOp20
 70
     1
102
RTVSPropertyOp21
 70
     1
102
RTVSPropertyOp22
 70
     1
102
RTVSPropertyOp23
 70
     1
102
RTVSPropertyOp24
 70
     1
102
RTVSPropertyOp25
 70
     1
102
RTVSPropertyOp26
 70
     1
102
RTVSPropertyOp27
 70
     1
  0
XRECORD
  5
446
102
{ACAD_REACTORS
330
445
102
}
330
445
100
AcDbXrecord
280
     1
102
RTVSPropertyOp0
 70
     1
102
RTVSPropertyOp1
 70
     1
102
RTVSPropertyOp2
 70
     1
102
RTVSPropertyOp3
 70
     1
102
RTVSPropertyOp4
 70
     1
102
RTVSPropertyOp5
 70
     1
102
RTVSPropertyOp6
 70
     1
102
RTVSPropertyOp7
 70
     1
102
RTVSPropertyOp8
 70
     1
102
RTVSPropertyOp9
 70
     1
102
RTVSPropertyOp10
 70
     1
102
RTVSPropertyOp11
 70
     1
102
RTVSPropertyOp12
 70
     1
102
RTVSPropertyOp13
 70
     1
102
RTVSPropertyOp14
 70
     1
102
RTVSPropertyOp15
 70
     1
102
RTVSPropertyOp16
 70
     1
102
RTVSPropertyOp17
 70
     1
102
RTVSPropertyOp18
 70
     1
102
RTVSPropertyOp19
 70
     1
102
RTVSPropertyOp20
 70
     1
102
RTVSPropertyOp21
 70
     1
102
RTVSPropertyOp22
 70
     1
102
RTVSPropertyOp23
 70
     1
102
RTVSPropertyOp24
 70
     1
102
RTVSPropertyOp25
 70
     1
102
RTVSPropertyOp26
 70
     1
102
RTVSPropertyOp27
 70
     1
  0
XRECORD
  5
444
102
{ACAD_REACTORS
330
443
102
}
330
443
100
AcDbXrecord
280
     1
102
RTVSPropertyOp0
 70
     1
102
RTVSPropertyOp1
 70
     1
102
RTVSPropertyOp2
 70
     1
102
RTVSPropertyOp3
 70
     1
102
RTVSPropertyOp4
 70
     1
102
RTVSPropertyOp5
 70
     1
102
RTVSPropertyOp6
 70
     1
102
RTVSPropertyOp7
 70
     1
102
RTVSPropertyOp8
 70
     1
102
RTVSPropertyOp9
 70
     1
102
RTVSPropertyOp10
 70
     1
102
RTVSPropertyOp11
 70
     1
102
RTVSPropertyOp12
 70
     1
102
RTVSPropertyOp13
 70
     1
102
RTVSPropertyOp14
 70
     1
102
RTVSPropertyOp15
 70
     1
102
RTVSPropertyOp16
 70
     1
102
RTVSPropertyOp17
 70
     1
102
RTVSPropertyOp18
 70
     1
102
RTVSPropertyOp19
 70
     1
102
RTVSPropertyOp20
 70
     1
102
RTVSPropertyOp21
 70
     1
102
RTVSPropertyOp22
 70
     1
102
RTVSPropertyOp23
 70
     1
102
RTVSPropertyOp24
 70
     1
102
RTVSPropertyOp25
 70
     1
102
RTVSPropertyOp26
 70
     1
102
RTVSPropertyOp27
 70
     1
  0
XRECORD
  5
448
102
{ACAD_REACTORS
330
447
102
}
330
447
100
AcDbXrecord
280
     1
102
RTVSPropertyOp0
 70
     1
102
RTVSPropertyOp1
 70
     1
102
RTVSPropertyOp2
 70
     1
102
RTVSPropertyOp3
 70
     1
102
RTVSPropertyOp4
 70
     1
102
RTVSPropertyOp5
 70
     1
102
RTVSPropertyOp6
 70
     1
102
RTVSPropertyOp7
 70
     1
102
RTVSPropertyOp8
 70
     1
102
RTVSPropertyOp9
 70
     1
102
RTVSPropertyOp10
 70
     1
102
RTVSPropertyOp11
 70
     1
102
RTVSPropertyOp12
 70
     1
102
RTVSPropertyOp13
 70
     1
102
RTVSPropertyOp14
 70
     1
102
RTVSPropertyOp15
 70
     1
102
RTVSPropertyOp16
 70
     1
102
RTVSPropertyOp17
 70
     1
102
RTVSPropertyOp18
 70
     1
102
RTVSPropertyOp19
 70
     1
102
RTVSPropertyOp20
 70
     1
102
RTVSPropertyOp21
 70
     1
102
RTVSPropertyOp22
 70
     1
102
RTVSPropertyOp23
 70
     1
102
RTVSPropertyOp24
 70
     1
102
RTVSPropertyOp25
 70
     1
102
RTVSPropertyOp26
 70
     1
102
RTVSPropertyOp27
 70
     1
  0
XRECORD
  5
450
102
{ACAD_REACTORS
330
44F
102
}
330
44F
100
AcDbXrecord
280
     1
102
RTVSPropertyOp0
 70
     1
102
RTVSPropertyOp1
 70
     1
102
RTVSPropertyOp2
 70
     1
102
RTVSPropertyOp3
 70
     1
102
RTVSPropertyOp4
 70
     1
102
RTVSPropertyOp5
 70
     1
102
RTVSPropertyOp6
 70
     1
102
RTVSPropertyOp7
 70
     1
102
RTVSPropertyOp8
 70
     1
102
RTVSPropertyOp9
 70
     1
102
RTVSPropertyOp10
 70
     1
102
RTVSPropertyOp11
 70
     1
102
RTVSPropertyOp12
 70
     1
102
RTVSPropertyOp13
 70
     1
102
RTVSPropertyOp14
 70
     1
102
RTVSPropertyOp15
 70
     1
102
RTVSPropertyOp16
 70
     1
102
RTVSPropertyOp17
 70
     1
102
RTVSPropertyOp18
 70
     1
102
RTVSPropertyOp19
 70
     1
102
RTVSPropertyOp20
 70
     1
102
RTVSPropertyOp21
 70
     1
102
RTVSPropertyOp22
 70
     1
102
RTVSPropertyOp23
 70
     1
102
RTVSPropertyOp24
 70
     1
102
RTVSPropertyOp25
 70
     1
102
RTVSPropertyOp26
 70
     1
102
RTVSPropertyOp27
 70
     1
  0
XRECORD
  5
458
102
{ACAD_REACTORS
330
457
102
}
330
457
100
AcDbXrecord
280
     1
102
RTVSPropertyOp0
 70
     1
102
RTVSPropertyOp1
 70
     1
102
RTVSPropertyOp2
 70
     1
102
RTVSPropertyOp3
 70
     1
102
RTVSPropertyOp4
 70
     1
102
RTVSPropertyOp5
 70
     1
102
RTVSPropertyOp6
 70
     1
102
RTVSPropertyOp7
 70
     1
102
RTVSPropertyOp8
 70
     1
102
RTVSPropertyOp9
 70
     1
102
RTVSPropertyOp10
 70
     1
102
RTVSPropertyOp11
 70
     1
102
RTVSPropertyOp12
 70
     1
102
RTVSPropertyOp13
 70
     1
102
RTVSPropertyOp14
 70
     1
102
RTVSPropertyOp15
 70
     1
102
RTVSPropertyOp16
 70
     1
102
RTVSPropertyOp17
 70
     1
102
RTVSPropertyOp18
 70
     1
102
RTVSPropertyOp19
 70
     1
102
RTVSPropertyOp20
 70
     1
102
RTVSPropertyOp21
 70
     1
102
RTVSPropertyOp22
 70
     1
102
RTVSPropertyOp23
 70
     1
102
RTVSPropertyOp24
 70
     1
102
RTVSPropertyOp25
 70
     1
102
RTVSPropertyOp26
 70
     1
102
RTVSPropertyOp27
 70
     1
  0
XRECORD
  5
44C
102
{ACAD_REACTORS
330
44B
102
}
330
44B
100
AcDbXrecord
280
     1
102
RTVSPropertyOp0
 70
     1
102
RTVSPropertyOp1
 70
     1
102
RTVSPropertyOp2
 70
     1
102
RTVSPropertyOp3
 70
     1
102
RTVSPropertyOp4
 70
     1
102
RTVSPropertyOp5
 70
     1
102
RTVSPropertyOp6
 70
     1
102
RTVSPropertyOp7
 70
     1
102
RTVSPropertyOp8
 70
     1
102
RTVSPropertyOp9
 70
     1
102
RTVSPropertyOp10
 70
     1
102
RTVSPropertyOp11
 70
     1
102
RTVSPropertyOp12
 70
     1
102
RTVSPropertyOp13
 70
     1
102
RTVSPropertyOp14
 70
     1
102
RTVSPropertyOp15
 70
     1
102
RTVSPropertyOp16
 70
     1
102
RTVSPropertyOp17
 70
     1
102
RTVSPropertyOp18
 70
     1
102
RTVSPropertyOp19
 70
     1
102
RTVSPropertyOp20
 70
     1
102
RTVSPropertyOp21
 70
     1
102
RTVSPropertyOp22
 70
     1
102
RTVSPropertyOp23
 70
     1
102
RTVSPropertyOp24
 70
     1
102
RTVSPropertyOp25
 70
     1
102
RTVSPropertyOp26
 70
     1
102
RTVSPropertyOp27
 70
     1
  0
XRECORD
  5
44E
102
{ACAD_REACTORS
330
44D
102
}
330
44D
100
AcDbXrecord
280
     1
102
RTVSPropertyOp0
 70
     1
102
RTVSPropertyOp1
 70
     1
102
RTVSPropertyOp2
 70
     1
102
RTVSPropertyOp3
 70
     1
102
RTVSPropertyOp4
 70
     1
102
RTVSPropertyOp5
 70
     1
102
RTVSPropertyOp6
 70
     1
102
RTVSPropertyOp7
 70
     1
102
RTVSPropertyOp8
 70
     1
102
RTVSPropertyOp9
 70
     1
102
RTVSPropertyOp10
 70
     1
102
RTVSPropertyOp11
 70
     1
102
RTVSPropertyOp12
 70
     1
102
RTVSPropertyOp13
 70
     1
102
RTVSPropertyOp14
 70
     1
102
RTVSPropertyOp15
 70
     1
102
RTVSPropertyOp16
 70
     1
102
RTVSPropertyOp17
 70
     1
102
RTVSPropertyOp18
 70
     1
102
RTVSPropertyOp19
 70
     1
102
RTVSPropertyOp20
 70
     1
102
RTVSPropertyOp21
 70
     1
102
RTVSPropertyOp22
 70
     1
102
RTVSPropertyOp23
 70
     1
102
RTVSPropertyOp24
 70
     1
102
RTVSPropertyOp25
 70
     1
102
RTVSPropertyOp26
 70
     1
102
RTVSPropertyOp27
 70
     1
  0
XRECORD
  5
456
102
{ACAD_REACTORS
330
455
102
}
330
455
100
AcDbXrecord
280
     1
102
RTVSPropertyOp0
 70
     1
102
RTVSPropertyOp1
 70
     1
102
RTVSPropertyOp2
 70
     1
102
RTVSPropertyOp3
 70
     1
102
RTVSPropertyOp4
 70
     1
102
RTVSPropertyOp5
 70
     1
102
RTVSPropertyOp6
 70
     1
102
RTVSPropertyOp7
 70
     1
102
RTVSPropertyOp8
 70
     1
102
RTVSPropertyOp9
 70
     1
102
RTVSPropertyOp10
 70
     1
102
RTVSPropertyOp11
 70
     1
102
RTVSPropertyOp12
 70
     1
102
RTVSPropertyOp13
 70
     1
102
RTVSPropertyOp14
 70
     1
102
RTVSPropertyOp15
 70
     1
102
RTVSPropertyOp16
 70
     1
102
RTVSPropertyOp17
 70
     1
102
RTVSPropertyOp18
 70
     1
102
RTVSPropertyOp19
 70
     1
102
RTVSPropertyOp20
 70
     1
102
RTVSPropertyOp21
 70
     1
102
RTVSPropertyOp22
 70
     1
102
RTVSPropertyOp23
 70
     1
102
RTVSPropertyOp24
 70
     1
102
RTVSPropertyOp25
 70
     1
102
RTVSPropertyOp26
 70
     1
102
RTVSPropertyOp27
 70
     1
  0
XRECORD
  5
43A
102
{ACAD_REACTORS
330
439
102
}
330
439
100
AcDbXrecord
280
     1
102
RTVSPropertyOp0
 70
     1
102
RTVSPropertyOp1
 70
     1
102
RTVSPropertyOp2
 70
     1
102
RTVSPropertyOp3
 70
     1
102
RTVSPropertyOp4
 70
     1
102
RTVSPropertyOp5
 70
     1
102
RTVSPropertyOp6
 70
     1
102
RTVSPropertyOp7
 70
     1
102
RTVSPropertyOp8
 70
     1
102
RTVSPropertyOp9
 70
     1
102
RTVSPropertyOp10
 70
     1
102
RTVSPropertyOp11
 70
     1
102
RTVSPropertyOp12
 70
     1
102
RTVSPropertyOp13
 70
     1
102
RTVSPropertyOp14
 70
     1
102
RTVSPropertyOp15
 70
     1
102
RTVSPropertyOp16
 70
     1
102
RTVSPropertyOp17
 70
     1
102
RTVSPropertyOp18
 70
     1
102
RTVSPropertyOp19
 70
     1
102
RTVSPropertyOp20
 70
     1
102
RTVSPropertyOp21
 70
     1
102
RTVSPropertyOp22
 70
     1
102
RTVSPropertyOp23
 70
     1
102
RTVSPropertyOp24
 70
     1
102
RTVSPropertyOp25
 70
     1
102
RTVSPropertyOp26
 70
     1
102
RTVSPropertyOp27
 70
     1
  0
XRECORD
  5
43C
102
{ACAD_REACTORS
330
43B
102
}
330
43B
100
AcDbXrecord
280
     1
102
RTVSPropertyOp0
 70
     1
102
RTVSPropertyOp1
 70
     1
102
RTVSPropertyOp2
 70
     1
102
RTVSPropertyOp3
 70
     1
102
RTVSPropertyOp4
 70
     1
102
RTVSPropertyOp5
 70
     1
102
RTVSPropertyOp6
 70
     1
102
RTVSPropertyOp7
 70
     1
102
RTVSPropertyOp8
 70
     1
102
RTVSPropertyOp9
 70
     1
102
RTVSPropertyOp10
 70
     1
102
RTVSPropertyOp11
 70
     1
102
RTVSPropertyOp12
 70
     1
102
RTVSPropertyOp13
 70
     1
102
RTVSPropertyOp14
 70
     1
102
RTVSPropertyOp15
 70
     1
102
RTVSPropertyOp16
 70
     1
102
RTVSPropertyOp17
 70
     1
102
RTVSPropertyOp18
 70
     1
102
RTVSPropertyOp19
 70
     1
102
RTVSPropertyOp20
 70
     1
102
RTVSPropertyOp21
 70
     1
102
RTVSPropertyOp22
 70
     1
102
RTVSPropertyOp23
 70
     1
102
RTVSPropertyOp24
 70
     1
102
RTVSPropertyOp25
 70
     1
102
RTVSPropertyOp26
 70
     1
102
RTVSPropertyOp27
 70
     1
  0
XRECORD
  5
43E
102
{ACAD_REACTORS
330
43D
102
}
330
43D
100
AcDbXrecord
280
     1
102
RTVSPropertyOp0
 70
     1
102
RTVSPropertyOp1
 70
     1
102
RTVSPropertyOp2
 70
     1
102
RTVSPropertyOp3
 70
     1
102
RTVSPropertyOp4
 70
     1
102
RTVSPropertyOp5
 70
     1
102
RTVSPropertyOp6
 70
     1
102
RTVSPropertyOp7
 70
     1
102
RTVSPropertyOp8
 70
     1
102
RTVSPropertyOp9
 70
     1
102
RTVSPropertyOp10
 70
     1
102
RTVSPropertyOp11
 70
     1
102
RTVSPropertyOp12
 70
     1
102
RTVSPropertyOp13
 70
     1
102
RTVSPropertyOp14
 70
     1
102
RTVSPropertyOp15
 70
     1
102
RTVSPropertyOp16
 70
     1
102
RTVSPropertyOp17
 70
     1
102
RTVSPropertyOp18
 70
     1
102
RTVSPropertyOp19
 70
     1
102
RTVSPropertyOp20
 70
     1
102
RTVSPropertyOp21
 70
     1
102
RTVSPropertyOp22
 70
     1
102
RTVSPropertyOp23
 70
     1
102
RTVSPropertyOp24
 70
     1
102
RTVSPropertyOp25
 70
     1
102
RTVSPropertyOp26
 70
     1
102
RTVSPropertyOp27
 70
     1
  0
XRECORD
  5
440
102
{ACAD_REACTORS
330
43F
102
}
330
43F
100
AcDbXrecord
280
     1
102
RTVSPropertyOp0
 70
     1
102
RTVSPropertyOp1
 70
     1
102
RTVSPropertyOp2
 70
     1
102
RTVSPropertyOp3
 70
     1
102
RTVSPropertyOp4
 70
     1
102
RTVSPropertyOp5
 70
     1
102
RTVSPropertyOp6
 70
     1
102
RTVSPropertyOp7
 70
     1
102
RTVSPropertyOp8
 70
     1
102
RTVSPropertyOp9
 70
     1
102
RTVSPropertyOp10
 70
     1
102
RTVSPropertyOp11
 70
     1
102
RTVSPropertyOp12
 70
     1
102
RTVSPropertyOp13
 70
     1
102
RTVSPropertyOp14
 70
     1
102
RTVSPropertyOp15
 70
     1
102
RTVSPropertyOp16
 70
     1
102
RTVSPropertyOp17
 70
     1
102
RTVSPropertyOp18
 70
     1
102
RTVSPropertyOp19
 70
     1
102
RTVSPropertyOp20
 70
     1
102
RTVSPropertyOp21
 70
     1
102
RTVSPropertyOp22
 70
     1
102
RTVSPropertyOp23
 70
     1
102
RTVSPropertyOp24
 70
     1
102
RTVSPropertyOp25
 70
     1
102
RTVSPropertyOp26
 70
     1
102
RTVSPropertyOp27
 70
     1
  0
XRECORD
  5
454
102
{ACAD_REACTORS
330
453
102
}
330
453
100
AcDbXrecord
280
     1
102
RTVSPropertyOp0
 70
     1
102
RTVSPropertyOp1
 70
     1
102
RTVSPropertyOp2
 70
     1
102
RTVSPropertyOp3
 70
     1
102
RTVSPropertyOp4
 70
     1
102
RTVSPropertyOp5
 70
     1
102
RTVSPropertyOp6
 70
     1
102
RTVSPropertyOp7
 70
     1
102
RTVSPropertyOp8
 70
     1
102
RTVSPropertyOp9
 70
     1
102
RTVSPropertyOp10
 70
     1
102
RTVSPropertyOp11
 70
     1
102
RTVSPropertyOp12
 70
     1
102
RTVSPropertyOp13
 70
     1
102
RTVSPropertyOp14
 70
     1
102
RTVSPropertyOp15
 70
     1
102
RTVSPropertyOp16
 70
     1
102
RTVSPropertyOp17
 70
     1
102
RTVSPropertyOp18
 70
     1
102
RTVSPropertyOp19
 70
     1
102
RTVSPropertyOp20
 70
     1
102
RTVSPropertyOp21
 70
     1
102
RTVSPropertyOp22
 70
     1
102
RTVSPropertyOp23
 70
     1
102
RTVSPropertyOp24
 70
     1
102
RTVSPropertyOp25
 70
     1
102
RTVSPropertyOp26
 70
     1
102
RTVSPropertyOp27
 70
     1
  0
XRECORD
  5
44A
102
{ACAD_REACTORS
330
449
102
}
330
449
100
AcDbXrecord
280
     1
102
RTVSPropertyOp0
 70
     1
102
RTVSPropertyOp1
 70
     1
102
RTVSPropertyOp2
 70
     1
102
RTVSPropertyOp3
 70
     1
102
RTVSPropertyOp4
 70
     1
102
RTVSPropertyOp5
 70
     1
102
RTVSPropertyOp6
 70
     1
102
RTVSPropertyOp7
 70
     1
102
RTVSPropertyOp8
 70
     1
102
RTVSPropertyOp9
 70
     1
102
RTVSPropertyOp10
 70
     1
102
RTVSPropertyOp11
 70
     1
102
RTVSPropertyOp12
 70
     1
102
RTVSPropertyOp13
 70
     1
102
RTVSPropertyOp14
 70
     1
102
RTVSPropertyOp15
 70
     1
102
RTVSPropertyOp16
 70
     1
102
RTVSPropertyOp17
 70
     1
102
RTVSPropertyOp18
 70
     1
102
RTVSPropertyOp19
 70
     1
102
RTVSPropertyOp20
 70
     1
102
RTVSPropertyOp21
 70
     1
102
RTVSPropertyOp22
 70
     1
102
RTVSPropertyOp23
 70
     1
102
RTVSPropertyOp24
 70
     1
102
RTVSPropertyOp25
 70
     1
102
RTVSPropertyOp26
 70
     1
102
RTVSPropertyOp27
 70
     1
  0
XRECORD
  5
452
102
{ACAD_REACTORS
330
451
102
}
330
451
100
AcDbXrecord
280
     1
102
RTVSPropertyOp0
 70
     1
102
RTVSPropertyOp1
 70
     1
102
RTVSPropertyOp2
 70
     1
102
RTVSPropertyOp3
 70
     1
102
RTVSPropertyOp4
 70
     1
102
RTVSPropertyOp5
 70
     1
102
RTVSPropertyOp6
 70
     1
102
RTVSPropertyOp7
 70
     1
102
RTVSPropertyOp8
 70
     1
102
RTVSPropertyOp9
 70
     1
102
RTVSPropertyOp10
 70
     1
102
RTVSPropertyOp11
 70
     1
102
RTVSPropertyOp12
 70
     1
102
RTVSPropertyOp13
 70
     1
102
RTVSPropertyOp14
 70
     1
102
RTVSPropertyOp15
 70
     1
102
RTVSPropertyOp16
 70
     1
102
RTVSPropertyOp17
 70
     1
102
RTVSPropertyOp18
 70
     1
102
RTVSPropertyOp19
 70
     1
102
RTVSPropertyOp20
 70
     1
102
RTVSPropertyOp21
 70
     1
102
RTVSPropertyOp22
 70
     1
102
RTVSPropertyOp23
 70
     1
102
RTVSPropertyOp24
 70
     1
102
RTVSPropertyOp25
 70
     1
102
RTVSPropertyOp26
 70
     1
102
RTVSPropertyOp27
 70
     1
  0
ENDSEC
  0
EOF
